Ошибка

(Trance, Progressive Trance) VA - A State Of Trance 2012 (Mixed by Armin van Buuren) - 2012, FLAC (image+.cue), lossless

Ответить на тему
 
Автор Сообщение

kossmos

Пол: Пол:Муж

Стаж: 12 лет

Сообщений: 269

Украина
Рейтинг

post 12-Мар-2012 04:25 1[+]

[Цитировать] 

VA - A State Of Trance 2012 (Mixed by Armin van Buuren)


pic="http://s002.youpic.su/pictures/1331499600/0c98eb97f48ef5b0fc2f3e4dbdec70d0.jpg"


Жанр: Trance, Progressive Trance
Год издания данного носителя: 2012
Страна-производитель носителя: Netherlands
Лейбл: Armada Music
Каталоговый номер: ARMA323
Аудио кодек: FLAC
Тип рипа: image+.cue
Битрейт аудио: lossless
Продолжительность: 02:31:22
Источник (релизер): TT (ASOTKiNG)
Полиграфия: Отсутствует

Треклист:
CD1: On The Beach
01. Omnia & IRA - The Fusion (Armin van Buuren's Intro Edit) [5:47]
02. VillaNaranjos - Granadella [4:26]
03. Sunlounger feat. Zara Taylor - Try To Be Love (Roger Shah Naughty Love Mix) [4:48]
04. The Blizzard - Piercing The Fog [4:48]
05. Audien - Keep This Memory [5:54]
06. Alexander Popov - When The Sun (Eximinds Remix) [4:40]
07. Nash & Pepper - Ushuaia Memories [2:55]
08. Mike Foyle & ReFeel - Universal Language [3:53]
09. Tenishia - Always Loved Never Forgotten (The Day will Come) [4:34]
10. Andy Moor feat. Jessica Sweetman - Jessica In Your Arms [5:18]
11. Mark Otten - Hyperfocus (Wezz Devall Remix) [5:25]
12. Armin van Buuren feat. Ana Criado - Suddenly Summer [5:43]
13. Alex M.O.R.P.H. & Protoculture - Waking Up The Stars [5:46]
14. Susana & Max Graham - Down To Nothing (A State of Trance Edit) [4:23]
15. Lemon & Einar K - We Are What We Are [5:26]

CD2: In The Club
01. Ashley Wallbridge - Mumbai Traffic (Armin van Buuren's Intro Edit) [4:28]
02. W&W - Invasion (ASOT 550 Anthem) (Club Mix) [3:31]
03. Alexander Popov - Attractive Force [4:20]
04. Orjan Nilsen - Amsterdam [4:34]
05. James Dymond - Overthrow (Protoculture Remix) [4:20]
06. Abstract Vision & Elite Electronic - Kinetic [3:26]
07. Armin van Buuren pres. Gaia - J'ai Envie De Toi [6:36]
08. Abstract Vision & Elite Electronic - Blossom [3:21]
09. Wiegel Meirmans Snitker - Nova Zembla (Armin van Buuren Remix) [5:03]
10. Andrew Rayel - 550 Senta (Aether Mix) [5:47]
11. Ralphie B - Icarus [5:27]
12. MaRLo - Megalodon [2:29]
13. Armin van Buuren & Orjan Nilsen - Belter [5:53]
14. Gareth Emery feat. Christina Novelli - Concrete Angel (John O'Callaghan Remix) [5:01]
15. Paul van Dyk feat. Ummet Ozcan - Dae Yor [3:16]
16. John O Callaghan & Heatbeat - Las Lilas [3:30]
17. Aly & Fila vs. Jwaydan - Coming Home [6:33]
 
Exact Audio Copy V0.99 prebeta 5 from 4. May 2009

EAC extraction logfile from 10. March 2012, 17:47

VA / A State Of Trance 2012 (Mixed By Armin van Buuren) CD1 On The Beach

Used drive : TSSTcorpCDDVDW SE-S084F Adapter: 2 ID: 0

Read mode : Secure
Utilize accurate stream : Yes
Defeat audio cache : Yes
Make use of C2 pointers : No

Read offset correction : 6
Overread into Lead-In and Lead-Out : No
Fill up missing offset samples with silence : Yes
Delete leading and trailing silent blocks : No
Null samples used in CRC calculations : Yes
Used interface : Native Win32 interface for Win NT & 2000

Used output format : Internal WAV Routines
Sample format : 44.100 Hz; 16 Bit; Stereo

TOC of the extracted CD

Track | Start | Length | Start sector | End sector
---------------------------------------------------------
1 | 0:00.00 | 5:47.23 | 0 | 26047
2 | 5:47.23 | 4:25.64 | 26048 | 45986
3 | 10:13.12 | 4:47.74 | 45987 | 67585
4 | 15:01.11 | 4:47.74 | 67586 | 89184
5 | 19:49.10 | 5:54.35 | 89185 | 115769
6 | 25:43.45 | 4:39.57 | 115770 | 136751
7 | 30:23.27 | 2:54.41 | 136752 | 149842
8 | 33:17.68 | 3:52.54 | 149843 | 167296
9 | 37:10.47 | 4:34.20 | 167297 | 187866
10 | 41:44.67 | 5:17.45 | 187867 | 211686
11 | 47:02.37 | 5:24.61 | 211687 | 236047
12 | 52:27.23 | 5:42.63 | 236048 | 261760
13 | 58:10.11 | 5:46.35 | 261761 | 287745
14 | 63:56.46 | 4:23.34 | 287746 | 307504
15 | 68:20.05 | 5:26.33 | 307505 | 331987

Range status and errors

Selected range

Filename J:EACRIPSVA - A State Of Trance 2012 (Mixed By Armin van Buuren) CD1 On The Beach.wav

Peak level 96.6 %
Range quality 100.0 %
Test CRC 927B1B88
Copy CRC 927B1B88
Copy OK

No errors occurred

End of status report
Exact Audio Copy V0.99 prebeta 5 from 4. May 2009

EAC extraction logfile from 10. March 2012, 18:40

VA / A State Of Trance 2012 (Mixed By Armin van Buuren) CD 2 In The Club

Used drive : TSSTcorpCDDVDW SE-S084F Adapter: 2 ID: 0

Read mode : Secure
Utilize accurate stream : Yes
Defeat audio cache : Yes
Make use of C2 pointers : No

Read offset correction : 6
Overread into Lead-In and Lead-Out : No
Fill up missing offset samples with silence : Yes
Delete leading and trailing silent blocks : No
Null samples used in CRC calculations : Yes
Used interface : Native Win32 interface for Win NT & 2000

Used output format : Internal WAV Routines
Sample format : 44.100 Hz; 16 Bit; Stereo

TOC of the extracted CD

Track | Start | Length | Start sector | End sector
---------------------------------------------------------
1 | 0:00.00 | 4:28.16 | 0 | 20115
2 | 4:28.16 | 3:31.09 | 20116 | 35949
3 | 7:59.25 | 4:19.64 | 35950 | 55438
4 | 12:19.14 | 4:34.21 | 55439 | 76009
5 | 16:53.35 | 4:19.64 | 76010 | 95498
6 | 21:13.24 | 3:25.53 | 95499 | 110926
7 | 24:39.02 | 6:35.70 | 110927 | 140621
8 | 31:14.72 | 3:20.45 | 140622 | 155666
9 | 34:35.42 | 5:02.51 | 155667 | 178367
10 | 39:38.18 | 5:47.27 | 178368 | 204419
11 | 45:25.45 | 5:27.08 | 204420 | 228952
12 | 50:52.53 | 2:29.25 | 228953 | 240152
13 | 53:22.03 | 5:52.54 | 240153 | 266606
14 | 59:14.57 | 5:01.23 | 266607 | 289204
15 | 64:16.05 | 3:16.15 | 289205 | 303919
16 | 67:32.20 | 3:30.16 | 303920 | 319685
17 | 71:02.36 | 6:33.19 | 319686 | 349179

Range status and errors

Selected range

Filename J:EACRIPSVA - A State Of Trance 2012 (Mixed By Armin van Buuren) CD2 In The Club.wav

Peak level 96.6 %
Range quality 100.0 %
Test CRC DDFC75B4
Copy CRC DDFC75B4
Copy OK

No errors occurred

End of status report
 
PERFORMER "VA"
TITLE "A State Of Trance 2012 (Mixed By Armin van Buuren) CD1 On The Beach"
FILE "101-va_-_a_state_of_trance_2012_(mixed_by_armin_van_buuren)_cd1_on_the_beach-tt.flac" FLAC
TRACK 01 AUDIO
TITLE "The Fusion (Armin Van Buuren's Intro Edit)"
PERFORMER "Omnia & IRA"
INDEX 01 00:00:00
TRACK 02 AUDIO
TITLE "Granadella"
PERFORMER "VillaNaranjos"
INDEX 01 05:47:23
TRACK 03 AUDIO
TITLE "Try To Be Love (Roger Shah Naughty Love Mix)"
PERFORMER "Sunlounger Ft. Zara Taylor"
INDEX 01 10:13:12
TRACK 04 AUDIO
TITLE "Piercing The Fog"
PERFORMER "The Blizzard"
INDEX 01 15:01:11
TRACK 05 AUDIO
TITLE "Keep This Memory"
PERFORMER "Audien"
INDEX 01 19:49:10
TRACK 06 AUDIO
TITLE "When The Sun (Eximinds Remix)"
PERFORMER "Alexander Popov"
INDEX 01 25:43:45
TRACK 07 AUDIO
TITLE "Ushuaia Memories"
PERFORMER "Nash & Pepper"
INDEX 01 30:23:27
TRACK 08 AUDIO
TITLE "Universal Language"
PERFORMER "Mike Foyle & ReFeel"
INDEX 01 33:17:68
TRACK 09 AUDIO
TITLE "Always Loved Never Forgotten (The Day will Come)"
PERFORMER "Tenishia"
INDEX 01 37:10:47
TRACK 10 AUDIO
TITLE "Jessica In Your Arms"
PERFORMER "Andy Moor Ft. Jessica Sweetman"
INDEX 01 41:44:67
TRACK 11 AUDIO
TITLE "Hyperfocus (Wezz Devall Remix)"
PERFORMER "Mark Otten"
INDEX 01 47:02:37
TRACK 12 AUDIO
TITLE "Suddenly Summer"
PERFORMER "Armin van Buuren Ft. Ana Criado"
INDEX 01 52:27:23
TRACK 13 AUDIO
TITLE "Waking Up The Stars"
PERFORMER "Alex M.O.R.P.H. & Protoculture"
INDEX 01 58:10:11
TRACK 14 AUDIO
TITLE "Down To Nothing (A State of Trance Edit)"
PERFORMER "Susana & Max Graham"
INDEX 01 63:56:46
TRACK 15 AUDIO
TITLE "We Are What We Are"
PERFORMER "Lemon & Einar K"
INDEX 01 68:20:05
PERFORMER "VA"
TITLE "A State Of Trance 2012 (Mixed By Armin van Buuren) CD2 In The Club"
FILE "201-va_-_a_state_of_trance_2012_(mixed_by_armin_van_buuren)_cd2_in_the_club-tt.flac" FLAC
TRACK 01 AUDIO
TITLE "Mumbai Traffic (Armin Van Buuren's Intro Edit)"
PERFORMER "Ashley Wallbridge"
INDEX 01 00:00:00
TRACK 02 AUDIO
TITLE "Invasion (ASOT 550 Anthem)(Club Mix)"
PERFORMER "W&W"
INDEX 01 04:28:16
TRACK 03 AUDIO
TITLE "Attractive Force"
PERFORMER "Alexander Popov"
INDEX 01 07:59:25
TRACK 04 AUDIO
TITLE "Amsterdam"
PERFORMER "Orjan Nilsen"
INDEX 01 12:19:14
TRACK 05 AUDIO
TITLE "Overthrow (Protoculture Remix)"
PERFORMER "James Dymond"
INDEX 01 16:53:35
TRACK 06 AUDIO
TITLE "Kinetic"
PERFORMER "Abstract Vision & Elite Electronic"
INDEX 01 21:13:24
TRACK 07 AUDIO
TITLE "J'ai Envie De Toi"
PERFORMER "Armin Van Buuren Presents Gaia"
INDEX 01 24:39:02
TRACK 08 AUDIO
TITLE "Blossom"
PERFORMER "Abstract Vision & Elite Electronic"
INDEX 01 31:14:72
TRACK 09 AUDIO
TITLE "Nova Zembla (Armin Van Buuren Remix)"
PERFORMER "Wiegel Meirmans Snitker"
INDEX 01 34:35:42
TRACK 10 AUDIO
TITLE "550 Senta (Aether Mix)"
PERFORMER "Andrew Rayel"
INDEX 01 39:38:18
TRACK 11 AUDIO
TITLE "Icarus"
PERFORMER "Ralphie B"
INDEX 01 45:25:45
TRACK 12 AUDIO
TITLE "Megalodon"
PERFORMER "MaRLo"
INDEX 01 50:52:53
TRACK 13 AUDIO
TITLE "Belter"
PERFORMER "Armin Van Buuren & Orjan Nilsen"
INDEX 01 53:22:03
TRACK 14 AUDIO
TITLE "Concrete Angel (John O'Callaghan Remix)"
PERFORMER "Gareth Emery Ft. Christina Novelli"
INDEX 01 59:14:57
TRACK 15 AUDIO
TITLE "Dae Yor"
PERFORMER "Paul van Dyk Ft. Ummet Ozcan"
INDEX 01 64:16:05
TRACK 16 AUDIO
TITLE "Las Lilas"
PERFORMER "John O Callaghan & Heatbeat"
INDEX 01 67:32:20
TRACK 17 AUDIO
TITLE "Coming Home"
PERFORMER "Aly & Fila vs Jwaydan"
INDEX 01 71:02:36
info [Профиль]  [ЛС] 
Показать сообщения:    
Ответить на тему

Текущее время: 19-Май 22:13

Часовой пояс: GMT + 4



Вы не можете начинать темы
Вы не можете отвечать на сообщения
Вы не можете редактировать свои сообщения
Вы не можете удалять свои сообщения
Вы не можете голосовать в опросах
Вы не можете прикреплять файлы к сообщениям
Вы не можете скачивать файлы