Ошибка

(Ska-Punk) Spitfire - Дискография (4 альбома, 1 сингл) - 1998-2010, FLAC (image+.cue)+covers/APE (image+.cue), lossless

Ответить на тему
 
Автор Сообщение

The Royal

Пол: Пол:Муж

Стаж: 14 лет

Сообщений: 678

Россия
Рейтинг

post 19-Фев-2012 18:44 0[+]

[Цитировать] 

pic="http://cs9584.vk.com/u27487100/78267182/x_34c30709.jpg"
Spitfire

Жанр: Ska-Punk
Происхождение исполнителя: Санкт-Петербург
Год издания данного носителя: 1998-2010
Тип релиза: image+.cue
Аудио кодек: FLAC/APE
Битрейт аудио: lossless
Продолжительность: 03:31:48
Полиграфия: присутствует

01. Intro (1:01)
02. Simply Can't Get Up (4:49)
03. Night Hunting (4:05)
04. Unlucky Men (3:26)
05. Arose From Sleep (3:03)
06. American Psycho (3:58)
07. Ever-Leaving Train (3:27)
08. Rio-Rita (2:01)
09. One Night Stand (4:04)
10. In Bloom (2:37)
11. Swamp Lake (6:22)
12. Conscience Pain (4:10)
13. Freakin' Business Men (4:22)
14. I Wanna See You (3:04)
15. Буратино (1:48)
Exact Audio Copy V0.99 prebeta 5 from 4. May 2009 

Отчёт EAC об извлечении, выполненном 16. ноября 2009, 14:57

Spitfire / Night Hunting

Дисковод: _NEC DVD_RW ND-3540A Adapter: 1 ID: 0

Режим чтения : Достоверность
Использование точного потока : Да
Отключение кэша аудио : Да
Использование указателей C2 : Нет

Коррекция смещения при чтении : 48
Способность читать области Lead-in и Lead-out : Нет
Заполнение пропущенных сэмплов тишиной : Да
Удаление блоков с тишиной в начале и конце : Нет
При вычислениях CRC использовались нулевые сэмплы : Да
Интерфейс : Встроенный Win32-интерфейс для Win NT/2000

Выходной формат : Внутренние WAV-операции
Формат сэмплов : 44.100 Гц; 16 бит; стерео

TOC извлечённого CD

Трек | Старт | Длительность | Начальный сектор | Конечный сектор
---------------------------------------------------------------------
1 | 0:00.00 | 1:01.00 | 0 | 4574
2 | 1:01.00 | 4:48.38 | 4575 | 26212
3 | 5:49.38 | 4:04.56 | 26213 | 44568
4 | 9:54.19 | 3:25.55 | 44569 | 59998
5 | 13:19.74 | 3:03.36 | 59999 | 73759
6 | 16:23.35 | 3:57.68 | 73760 | 91602
7 | 20:21.28 | 3:27.01 | 91603 | 107128
8 | 23:48.29 | 2:01.32 | 107129 | 116235
9 | 25:49.61 | 4:03.53 | 116236 | 134513
10 | 29:53.39 | 2:37.34 | 134514 | 146322
11 | 32:30.73 | 6:21.42 | 146323 | 174939
12 | 38:52.40 | 4:09.41 | 174940 | 193655
13 | 43:02.06 | 4:22.07 | 193656 | 213312
14 | 47:24.13 | 3:03.42 | 213313 | 227079
15 | 50:27.55 | 1:47.39 | 227080 | 235143

Характеристики диапазона извлечения и сообщения об ошибках

Выбранный диапазон

Имя файла E:\_music lossless\Spitfire - Hight Hunting\Spitfire - Night Hunting.wav

Пиковый уровень 99.3 %
Качество диапазона 100.0 %
CRC копии 6921D7CF
Копирование... OK

Ошибок не произошло

Конец отчёта
REM GENRE Punk 
REM DATE 1996
REM DISCID CB0C3F0F
REM COMMENT "ExactAudioCopy v0.99pb5"
PERFORMER "Spitfire"
TITLE "Night Hunting"
FILE "Spitfire - Night Hunting.flac" WAVE
TRACK 01 AUDIO
TITLE "Intro"
PERFORMER "Spitfire"
INDEX 01 00:00:00
TRACK 02 AUDIO
TITLE "Simply Can't Get Up"
PERFORMER "Spitfire"
INDEX 01 01:01:00
TRACK 03 AUDIO
TITLE "Night Hunting"
PERFORMER "Spitfire"
INDEX 01 05:49:38
TRACK 04 AUDIO
TITLE "Unlucky Men"
PERFORMER "Spitfire"
INDEX 01 09:54:19
TRACK 05 AUDIO
TITLE "Arose From Sleep"
PERFORMER "Spitfire"
INDEX 01 13:19:74
TRACK 06 AUDIO
TITLE "American Psycho"
PERFORMER "Spitfire"
INDEX 01 16:23:35
TRACK 07 AUDIO
TITLE "Ever - Leaving Train"
PERFORMER "Spitfire"
INDEX 01 20:21:28
TRACK 08 AUDIO
TITLE "Rio Rita"
PERFORMER "Spitfire"
INDEX 01 23:48:29
TRACK 09 AUDIO
TITLE "One Night Stand"
PERFORMER "Spitfire"
INDEX 01 25:49:61
TRACK 10 AUDIO
TITLE "In Bloom"
PERFORMER "Spitfire"
INDEX 01 29:53:39
TRACK 11 AUDIO
TITLE "Swamp Lake"
PERFORMER "Spitfire"
INDEX 01 32:30:73
TRACK 12 AUDIO
TITLE "Conscience Pain"
PERFORMER "Spitfire"
INDEX 01 38:52:40
TRACK 13 AUDIO
TITLE "Freakin' Business Men"
PERFORMER "Spitfire"
INDEX 01 43:02:06
TRACK 14 AUDIO
TITLE "I Wanna See You"
PERFORMER "Spitfire"
INDEX 01 47:24:13
TRACK 15 AUDIO
TITLE "Буратино"
PERFORMER "Spitfire"
INDEX 01 50:27:55
01. Foozball Junkie (3:13)
02. Night Flying (3:17)
03. Пидоры (4:29)
04. W.A.R. (3:27)
05. Life Comes Running (3:23)
06. Ballsy Bunny (2:17)
07. Factory Of Happiness And Joy (2:52)
08. TV Star (1:35)
09. Parting (3:41)
10. Auto (3:26)
11. Антогонизм (3:01)
12. Running Down (2:29)
13. Мечта (3:13)
14. Fast Food Freak (4:48)
Exact Audio Copy V0.99 prebeta 4 from 23. January 2008 

EAC extraction logfile from 5. December 2008, 1:55

Spitfire / Coast Is Clear

Used drive : HL-DT-STDVD-RAM GSA-H40N Adapter: 0 ID: 0

Read mode : Secure
Utilize accurate stream : Yes
Defeat audio cache : Yes
Make use of C2 pointers : No

Read offset correction : 102
Overread into Lead-In and Lead-Out : No
Fill up missing offset samples with silence : Yes
Delete leading and trailing silent blocks : No
Null samples used in CRC calculations : Yes
Used interface : Native Win32 interface for Win NT & 2000

Used output format : Internal WAV Routines
Sample format : 44.100 Hz; 16 Bit; Stereo

TOC of the extracted CD

Track | Start | Length | Start sector | End sector
---------------------------------------------------------
1 | 0:00.00 | 3:13.10 | 0 | 14484
2 | 3:13.10 | 3:17.01 | 14485 | 29260
3 | 6:30.11 | 4:29.22 | 29261 | 49457
4 | 10:59.33 | 3:27.23 | 49458 | 65005
5 | 14:26.56 | 3:22.60 | 65006 | 80215
6 | 17:49.41 | 2:16.46 | 80216 | 90461
7 | 20:06.12 | 2:52.22 | 90462 | 103383
8 | 22:58.34 | 1:34.57 | 103384 | 110490
9 | 24:33.16 | 3:41.08 | 110491 | 127073
10 | 28:14.24 | 3:25.62 | 127074 | 142510
11 | 31:40.11 | 3:00.42 | 142511 | 156052
12 | 34:40.53 | 2:29.30 | 156053 | 167257
13 | 37:10.08 | 3:12.38 | 167258 | 181695
14 | 40:22.46 | 4:47.35 | 181696 | 203255

Range status and errors

Selected range

Filename D:\Spitfire - Coast Is Clear.wav

Peak level 97.7 %
Range quality 100.0 %
Copy CRC 2140005A
Copy OK

No errors occurred

End of status report
REM GENRE Ska Punk 
REM DATE 1999
REM DISCID B60A960E
REM COMMENT "ExactAudioCopy v0.99pb4"
PERFORMER "Spitfire"
TITLE "Coast Is Clear"
FILE "Spitfire - Coast Is Clear.ape" WAVE
TRACK 01 AUDIO
TITLE "Fussball Junkie"
PERFORMER "Spitfire"
INDEX 01 00:00:00
TRACK 02 AUDIO
TITLE "Night Flying"
PERFORMER "Spitfire"
INDEX 01 03:13:10
TRACK 03 AUDIO
TITLE "Pidory"
PERFORMER "Spitfire"
INDEX 00 06:30:05
INDEX 01 06:30:11
TRACK 04 AUDIO
TITLE "W.A.R."
PERFORMER "Spitfire"
INDEX 01 10:59:33
TRACK 05 AUDIO
TITLE "Life Comes Running"
PERFORMER "Spitfire"
INDEX 01 14:26:56
TRACK 06 AUDIO
TITLE "Ballsy Bunny"
PERFORMER "Spitfire"
INDEX 00 17:49:40
INDEX 01 17:49:41
TRACK 07 AUDIO
TITLE "Factory Of Happiness"
PERFORMER "Spitfire"
INDEX 00 20:06:06
INDEX 01 20:06:12
TRACK 08 AUDIO
TITLE "TV Star"
PERFORMER "Spitfire"
INDEX 00 22:58:33
INDEX 01 22:58:34
TRACK 09 AUDIO
TITLE "Parting"
PERFORMER "Spitfire"
INDEX 01 24:33:16
TRACK 10 AUDIO
TITLE "Auto"
PERFORMER "Spitfire"
INDEX 00 28:14:23
INDEX 01 28:14:24
TRACK 11 AUDIO
TITLE "Antagonism"
PERFORMER "Spitfire"
INDEX 00 31:40:06
INDEX 01 31:40:11
TRACK 12 AUDIO
TITLE "Running Down"
PERFORMER "Spitfire"
INDEX 00 34:40:49
INDEX 01 34:40:53
TRACK 13 AUDIO
TITLE "Dream"
PERFORMER "Spitfire"
INDEX 00 37:10:05
INDEX 01 37:10:08
TRACK 14 AUDIO
TITLE "Fast Food Freak"
PERFORMER "Spitfire"
INDEX 00 40:22:39
INDEX 01 40:22:46
01. Freak (2:50)
02. Corny Jokes (2:09)
03. Tanzen (3:20)
04. Struck (3:22)
05. The Game (3:37)
06. Sunday Afternoon (3:46)
07. Обыватель (2:34)
08. Suffering (3:17)
09. Что такое? (2:50)
10. Bell (3:04)
11. Продажная любовь (3:41)
12. Break The Silence (3:55)
13. I'm Alright (4:27)
14. Three Chords (6:31)
Exact Audio Copy V0.99 prebeta 5 from 4. May 2009 

Отчёт EAC об извлечении, выполненном 19. мая 2009, 16:23

Spitfire / Thrills and Kills

Дисковод: _NEC DVD_RW ND-3540A Adapter: 0 ID: 2

Режим чтения : Достоверность
Использование точного потока : Да
Отключение кэша аудио : Да
Использование указателей C2 : Нет

Коррекция смещения при чтении : 48
Способность читать области Lead-in и Lead-out : Нет
Заполнение пропущенных сэмплов тишиной : Да
Удаление блоков с тишиной в начале и конце : Нет
При вычислениях CRC использовались нулевые сэмплы : Да
Интерфейс : Установленный внешний ASPI-интерфейс

Выходной формат : Внутренние WAV-операции
Формат сэмплов : 44.100 Гц; 16 бит; стерео

TOC извлечённого CD

Трек | Старт | Длительность | Начальный сектор | Конечный сектор
---------------------------------------------------------------------
1 | 0:00.00 | 2:49.61 | 0 | 12735
2 | 2:49.61 | 2:09.23 | 12736 | 22433
3 | 4:59.09 | 3:20.17 | 22434 | 37450
4 | 8:19.26 | 3:22.07 | 37451 | 52607
5 | 11:41.33 | 3:37.24 | 52608 | 68906
6 | 15:18.57 | 3:46.10 | 68907 | 85866
7 | 19:04.67 | 2:34.03 | 85867 | 97419
8 | 21:38.70 | 3:16.52 | 97420 | 112171
9 | 24:55.47 | 2:49.50 | 112172 | 124896
10 | 27:45.22 | 3:03.47 | 124897 | 138668
11 | 30:48.69 | 3:40.51 | 138669 | 155219
12 | 34:29.45 | 3:55.05 | 155220 | 172849
13 | 38:24.50 | 4:27.07 | 172850 | 192881
14 | 42:51.57 | 6:30.56 | 192882 | 222187

Характеристики диапазона извлечения и сообщения об ошибках

Выбранный диапазон

Имя файла E:\_music lossless\Spitfire - Thrills and Kills\Spitfire - Thrills and Kills.wav

Пиковый уровень 98.8 %
Качество диапазона 100.0 %
CRC копии B45D7189
Копирование... OK

Ошибок не произошло

Конец отчёта
REM DATE 2003 
REM DISCID 970B920E
REM COMMENT "ExactAudioCopy v0.99pb5"
PERFORMER "Spitfire"
TITLE "Thrills and Kills"
FILE "Spitfire - Thrills and Kills.flac" WAVE
TRACK 01 AUDIO
TITLE "Freak"
PERFORMER "Spitfire"
INDEX 01 00:00:00
TRACK 02 AUDIO
TITLE "Corney Jokes"
PERFORMER "Spitfire"
INDEX 01 02:49:61
TRACK 03 AUDIO
TITLE "Tanzen"
PERFORMER "Spitfire"
INDEX 01 04:59:09
TRACK 04 AUDIO
TITLE "Struck"
PERFORMER "Spitfire"
INDEX 01 08:19:26
TRACK 05 AUDIO
TITLE "The Game"
PERFORMER "Spitfire"
INDEX 01 11:41:33
TRACK 06 AUDIO
TITLE "Sunday Afternoon"
PERFORMER "Spitfire"
INDEX 01 15:18:57
TRACK 07 AUDIO
TITLE "Obivatel"
PERFORMER "Spitfire"
INDEX 01 19:04:67
TRACK 08 AUDIO
TITLE "Suffering"
PERFORMER "Spitfire"
INDEX 01 21:38:70
TRACK 09 AUDIO
TITLE "Chto Takoe?"
PERFORMER "Spitfire"
INDEX 01 24:55:47
TRACK 10 AUDIO
TITLE "Bell"
PERFORMER "Spitfire"
INDEX 01 27:45:22
TRACK 11 AUDIO
TITLE "Prodazhnaja ljubo'"
PERFORMER "Spitfire"
INDEX 01 30:48:69
TRACK 12 AUDIO
TITLE "Break The Silence"
PERFORMER "Spitfire"
INDEX 01 34:29:45
TRACK 13 AUDIO
TITLE "I'm Alright"
PERFORMER "Spitfire"
INDEX 01 38:24:50
TRACK 14 AUDIO
TITLE "Three Chords"
PERFORMER "Spitfire"
INDEX 01 42:51:57
01. Kids (2:52)
02. Настроение (3:25)
03. Lifetime Visa (3:21)
04. I Wanna Be With You (4:01)
05. Noisy Crew (3:10)
06. Королев С П (3:35)
07. Цифровая Любовь (5:09)
08. Another Try (4:02)
09. Кто - То Вроде Меня (3:49)
10. Last Night (2:58)
11. Я - Первый (2:43)
12. Загробная (3:40)
13. Dragon Day (2:58)
14. Когда Мы Все Повзраслеем (3:19)
15. Digital Love [Remix] (5:35)
Exact Audio Copy V0.99 prebeta 4 from 23. January 2008 

Отчёт EAC об извлечении, выполненном 18. июня 2008, 22:00

SpitFire / LifeTime Visa

Дисковод: PIONEER DVD-RW DVR-107D Adapter: 0 ID: 2

Режим чтения : Достоверность
Использование точного потока : Да
Отключение кэша аудио : Да
Использование указателей C2 : Нет

Коррекция смещения при чтении : 48
Способность читать области Lead-in и Lead-out : Нет
Заполнение пропущенных сэмплов тишиной : Да
Удаление блоков с тишиной в начале и конце : Нет
При вычислениях CRC использовались нулевые сэмплы : Да
Интерфейс : Установленный внешний ASPI-интерфейс

Выходной формат : Внутренние WAV-операции
Формат сэмплов : 44.100 Гц; 16 бит; стерео

TOC извлечённого CD

Трек | Старт | Длительность | Начальный сектор | Конечный сектор
---------------------------------------------------------------------
1 | 0:00.00 | 2:51.66 | 0 | 12890
2 | 2:51.66 | 3:25.04 | 12891 | 28269
3 | 6:16.70 | 3:20.67 | 28270 | 43336
4 | 9:37.62 | 4:01.05 | 43337 | 61416
5 | 13:38.67 | 3:09.44 | 61417 | 75635
6 | 16:48.36 | 3:34.50 | 75636 | 91735
7 | 20:23.11 | 5:08.74 | 91736 | 114909
8 | 25:32.10 | 4:01.44 | 114910 | 133028
9 | 29:33.54 | 3:48.68 | 133029 | 150196
10 | 33:22.47 | 2:57.54 | 150197 | 163525
11 | 36:20.26 | 2:43.28 | 163526 | 175778
12 | 39:03.54 | 3:40.11 | 175779 | 192289
13 | 42:43.65 | 2:57.63 | 192290 | 205627
14 | 45:41.53 | 3:19.33 | 205628 | 220585
15 | 49:01.11 | 5:35.36 | 220586 | 245746

Характеристики диапазона извлечения и сообщения об ошибках

Выбранный диапазон

Имя файла C:\Documents and Settings\DoctorRodik\Мои документы\SpitFire-LifeTime Visa\SpitFire - LifeTime Visa.wav

Пиковый уровень 100.0 %
Качество диапазона 100.0 %
CRC копии 70E0900B
Копирование... OK

Ошибок не произошло

Конец отчёта
REM GENRE Ska-Punk 
REM DATE 2008
REM DISCID C00CCC0F
REM COMMENT "ExactAudioCopy v0.99pb4"
PERFORMER "SpitFire"
TITLE "LifeTime Visa"
FILE "SpitFire - LifeTime Visa.wav" WAVE
TRACK 01 AUDIO
TITLE "Kids"
PERFORMER "SpitFire"
FLAGS DCP
INDEX 01 00:00:00
TRACK 02 AUDIO
TITLE "Настроение"
PERFORMER "SpitFire"
FLAGS DCP
INDEX 01 02:51:66
TRACK 03 AUDIO
TITLE "LifeTime Visa"
PERFORMER "SpitFire"
FLAGS DCP
INDEX 00 06:15:74
INDEX 01 06:16:70
TRACK 04 AUDIO
TITLE "I Wanna Be With You"
PERFORMER "SpitFire"
FLAGS DCP
INDEX 00 09:37:20
INDEX 01 09:37:62
TRACK 05 AUDIO
TITLE "Noisy Crew"
PERFORMER "SpitFire"
FLAGS DCP
INDEX 01 13:38:67
TRACK 06 AUDIO
TITLE "Королев С.П."
PERFORMER "SpitFire"
FLAGS DCP
INDEX 01 16:48:36
TRACK 07 AUDIO
TITLE "Цифровая Любовь"
PERFORMER "SpitFire"
FLAGS DCP
INDEX 00 20:22:08
INDEX 01 20:23:11
TRACK 08 AUDIO
TITLE "Another Try"
PERFORMER "SpitFire"
FLAGS DCP
INDEX 00 25:31:01
INDEX 01 25:32:10
TRACK 09 AUDIO
TITLE "Кто-то Вроде Меня"
PERFORMER "SpitFire"
FLAGS DCP
INDEX 01 29:33:54
TRACK 10 AUDIO
TITLE "Last Night"
PERFORMER "SpitFire"
FLAGS DCP
INDEX 00 33:22:27
INDEX 01 33:22:47
TRACK 11 AUDIO
TITLE "Я-Первый"
PERFORMER "SpitFire"
FLAGS DCP
INDEX 00 36:19:36
INDEX 01 36:20:26
TRACK 12 AUDIO
TITLE "Загробная"
PERFORMER "SpitFire"
FLAGS DCP
INDEX 00 39:03:03
INDEX 01 39:03:54
TRACK 13 AUDIO
TITLE "Dragon Day"
PERFORMER "SpitFire"
FLAGS DCP
INDEX 00 42:42:46
INDEX 01 42:43:65
TRACK 14 AUDIO
TITLE "Когда Мы Все Повзрослеем"
PERFORMER "SpitFire"
FLAGS DCP
INDEX 00 45:41:00
INDEX 01 45:41:53
TRACK 15 AUDIO
TITLE "Digital Love [Remix]"
PERFORMER "SpitFire"
FLAGS DCP
INDEX 00 48:57:14
INDEX 01 49:01:11
01. Я Не Сдамся Холодам (3:55)
02. Думай Обо Мне (3:51)
03. Аня В Сером платье (2:49)
Exact Audio Copy V0.99 prebeta 5 from 4. May 2009 

EAC extraction logfile from 22. September 2010, 17:13

Spitfire / Я Не Сдамся Холодам

Used drive : ASUS DRW-1814BLT Adapter: 2 ID: 0

Read mode : Secure
Utilize accurate stream : Yes
Defeat audio cache : Yes
Make use of C2 pointers : No

Read offset correction : 6
Overread into Lead-In and Lead-Out : No
Fill up missing offset samples with silence : Yes
Delete leading and trailing silent blocks : No
Null samples used in CRC calculations : Yes
Used interface : Native Win32 interface for Win NT & 2000

Used output format : User Defined Encoder
Selected bitrate : 32 kBit/s
Quality : High
Add ID3 tag : No
Command line compressor : C:\Program Files\FLAC\flac.exe
Additional command line options : -8 -V -T "ARTIST=%a" -T "TITLE=%t" -T "ALBUM=%g" -T "DATE=%y" -T "TRACKNUMBER=%n" -T "GENRE=%m" -T "COMMENT=EAC FLAC -8 / By xen0m0rph" %s

TOC of the extracted CD

Track | Start | Length | Start sector | End sector
---------------------------------------------------------
1 | 0:00.00 | 3:55.16 | 0 | 17640
2 | 3:55.16 | 3:51.38 | 17641 | 35003
3 | 7:46.54 | 2:49.21 | 35004 | 47699

Range status and errors

Selected range

Filename D:\Музыка в Lossless формате\Spitfire - Я Не Сдамся Холодам (2010)\Spitfire - Я Не Сдамся Холодам.wav

Peak level 100.0 %
Range quality 100.0 %
Test CRC CD247BC8
Copy CRC CD247BC8
Copy OK

No errors occurred

AccurateRip summary
Track 1 not present in database
Track 2 not present in database
Track 3 not present in database
None of the tracks are present in the AccurateRip database

End of status report
REM GENRE Ska-Punk 
REM DATE 2010
REM DISCID 20027C03
REM COMMENT "ExactAudioCopy v0.99pb5"
PERFORMER "Spitfire"
TITLE "Я Не Сдамся Холодам"
FILE "Spitfire - Я Не Сдамся Холодам.flac" WAVE
TRACK 01 AUDIO
TITLE "Я Не Сдамся Холодам"
PERFORMER "Spitfire"
INDEX 01 00:00:00
TRACK 02 AUDIO
TITLE "Думай Обо Мне"
PERFORMER "Spitfire"
INDEX 01 03:55:16
TRACK 03 AUDIO
TITLE "Аня В Сером платье"
PERFORMER "Spitfire"
INDEX 01 07:46:54
info [Профиль]  [ЛС] 

The Royal

Пол: Пол:Муж

Стаж: 14 лет

Сообщений: 678

Россия
Рейтинг

post 19-Фев-2012 18:49 (спустя 4 минуты) [-]0[+]

[Цитировать] 

Я не знаю, можно ли создавать такие раздачи, если что, создам 2 разных - одну с FLAC, другую с APE
info [Профиль]  [ЛС] 
Показать сообщения:    
Ответить на тему

Текущее время: 16-Апр 15:13

Часовой пояс: GMT + 4



Вы не можете начинать темы
Вы не можете отвечать на сообщения
Вы не можете редактировать свои сообщения
Вы не можете удалять свои сообщения
Вы не можете голосовать в опросах
Вы не можете прикреплять файлы к сообщениям
Вы не можете скачивать файлы