Ошибка

(Ska-Punk) Reel Big Fish - Discography (8 albums, 1 compilation) - 1995-2012, FLAC (tracks+.cue)+covers, lossless

Ответить на тему
 
Автор Сообщение

The Royal

Пол: Пол:Муж

Стаж: 11 лет

Сообщений: 673

Россия
Рейтинг

post 13-Фев-2012 20:46 0[+]

[Цитировать] 

pic="http://userserve-ak.last.fm/serve/_/36158609/Reel+Big+Fish+reelbigfish13_300.jpg"
Reel Big Fish

Жанр: Ska-Punk
Происхождение исполнителя: Huntington Beach, California
Год издания данного носителя: 1995-2012
Тип релиза: tracks+.cue
Аудио кодек: FLAC
Битрейт аудио: lossless
Продолжительность: 10:31:57
Полиграфия: присутствует

01. I'm Cool (1:44)
02. Join The Club (3:11)
03. Call You (3:05)
04. Hate You (3:27)
05. I'll Never Be (4:06)
06. Boyfriend (3:50)
07. Fo' Head (2:05)
08. Trendy (3:26)
09. Skatanic (3:13)
10. Why Do All Girls Think They're Fat (2:21)
11. Say 'Ten' (2:22)
12. I Want Your Girlfriend To Be My Girlfriend (3:17)
13. Jig (1:37)
14. Go Away (1:17)
15. Beer (3:41)
16. Snoop Dog, Baby (3:33)
17. Big Fuckin' Star (3:12)
18. Fuck Yourself (2:45)
19. Spin The Globe (4:21)
20. I'm Her Man (3:48)
21. Super Hero #5 (3:30)
Exact Audio Copy V0.99 prebeta 4 from 23. January 2008 

EAC extraction logfile from 14. February 2009, 2:16

Reel Big Fish / everything sucks

Used drive : BENQ DVD LS DW1655 Adapter: 0 ID: 0

Read mode : Secure
Utilize accurate stream : Yes
Defeat audio cache : Yes
Make use of C2 pointers : No

Read offset correction : 618
Overread into Lead-In and Lead-Out : No
Fill up missing offset samples with silence : Yes
Delete leading and trailing silent blocks : No
Null samples used in CRC calculations : Yes
Used interface : Native Win32 interface for Win NT & 2000
Gap handling : Appended to previous track

Used output format : User Defined Encoder
Selected bitrate : 128 kBit/s
Quality : High
Add ID3 tag : No
Command line compressor : C:\Program Files (x86)\Exact Audio Copy\Flac\flac.exe
Additional command line options : -V -8 -T "artist=%a" -T "title=%t" -T "album=%g" -T "date=%y" -T "tracknumber=%n" -T "genre=%m" %s

TOC of the extracted CD

Track | Start | Length | Start sector | End sector
---------------------------------------------------------
1 | 0:00.00 | 1:43.47 | 0 | 7771
2 | 1:43.47 | 3:11.08 | 7772 | 22104
3 | 4:54.55 | 3:04.40 | 22105 | 35944
4 | 7:59.20 | 3:27.37 | 35945 | 51506
5 | 11:26.57 | 4:05.48 | 51507 | 69929
6 | 15:32.30 | 3:49.52 | 69930 | 87156
7 | 19:22.07 | 2:04.70 | 87157 | 96526
8 | 21:27.02 | 3:25.45 | 96527 | 111946
9 | 24:52.47 | 3:13.30 | 111947 | 126451
10 | 28:06.02 | 2:21.18 | 126452 | 137044
11 | 30:27.20 | 2:22.17 | 137045 | 147711
12 | 32:49.37 | 3:17.03 | 147712 | 162489
13 | 36:06.40 | 1:37.15 | 162490 | 169779
14 | 37:43.55 | 1:16.60 | 169780 | 175539
15 | 39:00.40 | 3:40.52 | 175540 | 192091
16 | 42:41.17 | 3:32.58 | 192092 | 208049
17 | 46:14.00 | 3:12.32 | 208050 | 222481
18 | 49:26.32 | 2:45.00 | 222482 | 234856
19 | 52:11.32 | 4:20.48 | 234857 | 254404
20 | 56:32.05 | 3:47.72 | 254405 | 271501
21 | 60:20.02 | 3:29.63 | 271502 | 287239
22 | 66:21.65 | 6:34.26 | 298640 | 328215

Track 1

Filename C:\Rips\Reel Big Fish - 1995 - everything sucks\01 - I'm Cool.wav

Pre-gap length 0:00:02.00

Peak level 90.4 %
Track quality 99.8 %
Test CRC 4F2613B8
Copy CRC 4F2613B8
Track not present in AccurateRip database
Copy OK

Track 2

Filename C:\Rips\Reel Big Fish - 1995 - everything sucks\02 - Join The Club.wav

Pre-gap length 0:00:03.32

Peak level 91.8 %
Track quality 100.0 %
Test CRC 163EFBE0
Copy CRC 163EFBE0
Track not present in AccurateRip database
Copy OK

Track 3

Filename C:\Rips\Reel Big Fish - 1995 - everything sucks\03 - Call You.wav

Pre-gap length 0:00:02.72

Peak level 86.2 %
Track quality 100.0 %
Test CRC CA8450BB
Copy CRC CA8450BB
Track not present in AccurateRip database
Copy OK

Track 4

Filename C:\Rips\Reel Big Fish - 1995 - everything sucks\04 - Hate You.wav

Pre-gap length 0:00:02.61

Peak level 84.4 %
Track quality 100.0 %
Test CRC DC3CCA39
Copy CRC DC3CCA39
Track not present in AccurateRip database
Copy OK

Track 5

Filename C:\Rips\Reel Big Fish - 1995 - everything sucks\05 - I'll Never Be.wav

Pre-gap length 0:00:03.26

Peak level 79.3 %
Track quality 100.0 %
Test CRC 20A730CA
Copy CRC 20A730CA
Track not present in AccurateRip database
Copy OK

Track 6

Filename C:\Rips\Reel Big Fish - 1995 - everything sucks\06 - Boyfriend.wav

Pre-gap length 0:00:02.22

Peak level 89.7 %
Track quality 100.0 %
Test CRC CD791BDE
Copy CRC CD791BDE
Track not present in AccurateRip database
Copy OK

Track 7

Filename C:\Rips\Reel Big Fish - 1995 - everything sucks\07 - Fo' Head.wav

Pre-gap length 0:00:03.65

Peak level 85.0 %
Track quality 100.0 %
Test CRC AAE5A7B4
Copy CRC AAE5A7B4
Track not present in AccurateRip database
Copy OK

Track 8

Filename C:\Rips\Reel Big Fish - 1995 - everything sucks\08 - Trendy.wav

Pre-gap length 0:00:02.31

Peak level 95.3 %
Track quality 100.0 %
Test CRC 605B084B
Copy CRC 605B084B
Track not present in AccurateRip database
Copy OK

Track 9

Filename C:\Rips\Reel Big Fish - 1995 - everything sucks\09 - Skatanic.wav

Pre-gap length 0:00:03.23

Peak level 89.0 %
Track quality 100.0 %
Test CRC D8F7CA1F
Copy CRC D8F7CA1F
Track not present in AccurateRip database
Copy OK

Track 10

Filename C:\Rips\Reel Big Fish - 1995 - everything sucks\10 - Why Do All Girls Think They're Fat.wav

Pre-gap length 0:00:03.02

Peak level 93.2 %
Track quality 100.0 %
Test CRC C49FAC33
Copy CRC C49FAC33
Track not present in AccurateRip database
Copy OK

Track 11

Filename C:\Rips\Reel Big Fish - 1995 - everything sucks\11 - Say 'Ten'.wav

Pre-gap length 0:00:02.70

Peak level 76.2 %
Track quality 100.0 %
Test CRC FA93F51C
Copy CRC FA93F51C
Track not present in AccurateRip database
Copy OK

Track 12

Filename C:\Rips\Reel Big Fish - 1995 - everything sucks\12 - I Want Your Girlfriend To Be My Girlfriend.wav

Pre-gap length 0:00:02.72

Peak level 78.1 %
Track quality 100.0 %
Test CRC 9E01D875
Copy CRC 9E01D875
Track not present in AccurateRip database
Copy OK

Track 13

Filename C:\Rips\Reel Big Fish - 1995 - everything sucks\13 - Jig.wav

Pre-gap length 0:00:03.08

Peak level 74.9 %
Track quality 100.0 %
Test CRC 7AFB1787
Copy CRC 7AFB1787
Track not present in AccurateRip database
Copy OK

Track 14

Filename C:\Rips\Reel Big Fish - 1995 - everything sucks\14 - Go Away.wav

Pre-gap length 0:00:03.10

Peak level 91.0 %
Track quality 100.0 %
Test CRC 87D269BE
Copy CRC 87D269BE
Track not present in AccurateRip database
Copy OK

Track 15

Filename C:\Rips\Reel Big Fish - 1995 - everything sucks\15 - Beer.wav

Pre-gap length 0:00:03.33

Peak level 85.9 %
Track quality 100.0 %
Test CRC 9D711ECC
Copy CRC 9D711ECC
Track not present in AccurateRip database
Copy OK

Track 16

Filename C:\Rips\Reel Big Fish - 1995 - everything sucks\16 - Snoop Dog, Baby.wav

Pre-gap length 0:00:03.50

Peak level 79.4 %
Track quality 100.0 %
Test CRC 314DEEF9
Copy CRC 314DEEF9
Track not present in AccurateRip database
Copy OK

Track 17

Filename C:\Rips\Reel Big Fish - 1995 - everything sucks\17 - Big Fuckin' Star.wav

Pre-gap length 0:00:03.35

Peak level 89.9 %
Track quality 100.0 %
Test CRC 8C76B9C6
Copy CRC 8C76B9C6
Track not present in AccurateRip database
Copy OK

Track 18

Filename C:\Rips\Reel Big Fish - 1995 - everything sucks\18 - Fuck Yourself.wav

Pre-gap length 0:00:03.00

Peak level 89.7 %
Track quality 100.0 %
Test CRC 1BEBDDE2
Copy CRC 1BEBDDE2
Track not present in AccurateRip database
Copy OK

Track 19

Filename C:\Rips\Reel Big Fish - 1995 - everything sucks\19 - Spin The Globe.wav

Pre-gap length 0:00:02.26

Peak level 92.4 %
Track quality 99.9 %
Test CRC FAD23B69
Copy CRC FAD23B69
Track not present in AccurateRip database
Copy OK

Track 20

Filename C:\Rips\Reel Big Fish - 1995 - everything sucks\20 - I'm Her Man.wav

Pre-gap length 0:00:02.39

Peak level 95.8 %
Track quality 100.0 %
Test CRC 0822CCB4
Copy CRC 0822CCB4
Track not present in AccurateRip database
Copy OK

Track 21

Filename C:\Rips\Reel Big Fish - 1995 - everything sucks\21 - Super Hero #5.wav

Pre-gap length 0:00:03.62

Peak level 96.4 %
Track quality 100.0 %
Test CRC 32B318CD
Copy CRC 32B318CD
Track not present in AccurateRip database
Copy OK

None of the tracks are present in the AccurateRip database

No errors occurred

End of status report
REM GENRE Ska 
REM DATE 1995
REM DISCID 67111816
REM COMMENT "ExactAudioCopy v0.99pb4"
PERFORMER "Reel Big Fish"
TITLE "everything sucks"
FILE "01 - I'm Cool.wav" WAVE
TRACK 01 AUDIO
TITLE "I'm Cool"
PERFORMER "Reel Big Fish"
ISRC USUR19980492
INDEX 01 00:00:00
TRACK 02 AUDIO
TITLE "Join The Club"
PERFORMER "Reel Big Fish"
ISRC USUR19980511
FLAGS DCP
INDEX 00 01:40:15
FILE "02 - Join The Club.wav" WAVE
INDEX 01 00:00:00
TRACK 03 AUDIO
TITLE "Call You"
PERFORMER "Reel Big Fish"
ISRC USUR19980510
FLAGS DCP
INDEX 00 03:08:11
FILE "03 - Call You.wav" WAVE
INDEX 01 00:00:00
TRACK 04 AUDIO
TITLE "Hate You"
PERFORMER "Reel Big Fish"
ISRC USUR19980509
FLAGS DCP
INDEX 00 03:01:54
FILE "04 - Hate You.wav" WAVE
INDEX 01 00:00:00
TRACK 05 AUDIO
TITLE "I'll Never Be"
PERFORMER "Reel Big Fish"
ISRC USUR19980508
FLAGS DCP
INDEX 00 03:24:11
FILE "05 - I'll Never Be.wav" WAVE
INDEX 01 00:00:00
TRACK 06 AUDIO
TITLE "Boyfriend"
PERFORMER "Reel Big Fish"
ISRC USUR19980508
FLAGS DCP
INDEX 00 04:03:26
FILE "06 - Boyfriend.wav" WAVE
INDEX 01 00:00:00
TRACK 07 AUDIO
TITLE "Fo' Head"
PERFORMER "Reel Big Fish"
ISRC USUR19980506
FLAGS DCP
INDEX 00 03:45:62
FILE "07 - Fo' Head.wav" WAVE
INDEX 01 00:00:00
TRACK 08 AUDIO
TITLE "Trendy"
PERFORMER "Reel Big Fish"
ISRC USUR19980506
FLAGS DCP
INDEX 00 02:02:39
FILE "08 - Trendy.wav" WAVE
INDEX 01 00:00:00
TRACK 09 AUDIO
TITLE "Skatanic"
PERFORMER "Reel Big Fish"
ISRC USUR19980504
FLAGS DCP
INDEX 00 03:22:22
FILE "09 - Skatanic.wav" WAVE
INDEX 01 00:00:00
TRACK 10 AUDIO
TITLE "Why Do All Girls Think They're Fat"
PERFORMER "Reel Big Fish"
ISRC USUR19980503
FLAGS DCP
INDEX 00 03:10:28
FILE "10 - Why Do All Girls Think They're Fat.wav" WAVE
INDEX 01 00:00:00
TRACK 11 AUDIO
TITLE "Say 'Ten'"
PERFORMER "Reel Big Fish"
ISRC USUR19980502
FLAGS DCP
INDEX 00 02:18:23
FILE "11 - Say 'Ten'.wav" WAVE
INDEX 01 00:00:00
TRACK 12 AUDIO
TITLE "I Want Your Girlfriend To Be My Girlfriend"
PERFORMER "Reel Big Fish"
ISRC USUR19980501
FLAGS DCP
INDEX 00 02:19:20
FILE "12 - I Want Your Girlfriend To Be My Girlfriend.wav" WAVE
INDEX 01 00:00:00
TRACK 13 AUDIO
TITLE "Jig"
PERFORMER "Reel Big Fish"
ISRC USUR19980500
FLAGS DCP
INDEX 00 03:13:70
FILE "13 - Jig.wav" WAVE
INDEX 01 00:00:00
TRACK 14 AUDIO
TITLE "Go Away"
PERFORMER "Reel Big Fish"
ISRC USUR19980499
FLAGS DCP
INDEX 00 01:34:05
FILE "14 - Go Away.wav" WAVE
INDEX 01 00:00:00
TRACK 15 AUDIO
TITLE "Beer"
PERFORMER "Reel Big Fish"
ISRC USUR19980498
FLAGS DCP
INDEX 00 01:13:27
FILE "15 - Beer.wav" WAVE
INDEX 01 00:00:00
TRACK 16 AUDIO
TITLE "Snoop Dog, Baby"
PERFORMER "Reel Big Fish"
ISRC USUR19980497
FLAGS DCP
INDEX 00 03:37:02
FILE "16 - Snoop Dog, Baby.wav" WAVE
INDEX 01 00:00:00
TRACK 17 AUDIO
TITLE "Big Fuckin' Star"
PERFORMER "Reel Big Fish"
ISRC USUR19980496
FLAGS DCP
INDEX 00 03:29:23
FILE "17 - Big Fuckin' Star.wav" WAVE
INDEX 01 00:00:00
TRACK 18 AUDIO
TITLE "Fuck Yourself"
PERFORMER "Reel Big Fish"
ISRC USUR19980512
FLAGS DCP
INDEX 00 03:09:32
FILE "18 - Fuck Yourself.wav" WAVE
INDEX 01 00:00:00
TRACK 19 AUDIO
TITLE "Spin The Globe"
PERFORMER "Reel Big Fish"
ISRC USUR19980495
FLAGS DCP
INDEX 00 02:42:49
FILE "19 - Spin The Globe.wav" WAVE
INDEX 01 00:00:00
TRACK 20 AUDIO
TITLE "I'm Her Man"
PERFORMER "Reel Big Fish"
ISRC USUR19980494
FLAGS DCP
INDEX 00 04:18:09
FILE "20 - I'm Her Man.wav" WAVE
INDEX 01 00:00:00
TRACK 21 AUDIO
TITLE "Super Hero #5"
PERFORMER "Reel Big Fish"
ISRC USUR19980493
FLAGS DCP
INDEX 00 03:44:10
FILE "21 - Super Hero #5.wav" WAVE
INDEX 01 00:00:00
TRACK 22 MODEx/2xxx
TITLE "22 - NEEDINFO"
PERFORMER "Reel Big Fish"
INDEX 00 03:29:63
01. Sell Out (3:47)
02. Trendy (2:24)
03. Join The Club (3:26)
04. She Has A Girlfriend Now (3:06)
05. Snoop Dog, Baby (3:26)
06. Beer (3:31)
07. 241 (2:40)
08. Everything Sucks (2:41)
09. S.R. (1:26)
10. Skatanic (3:16)
11. All I Want Is More (3:04)
12. Nothin' (2:21)
13. Say 'Ten' (2:11)
14. I'll Never Be (3:15)
15. Alternative Baby (2:57)
16. Secret Song (3:57)
Exact Audio Copy V0.99 prebeta 4 from 23. January 2008 

EAC extraction logfile from 29. March 2009, 20:18

Reel Big Fish / Turn The Radio Off

Used drive : HL-DT-STDVD-RAM GH22LS30 Adapter: 2 ID: 5

Read mode : Secure
Utilize accurate stream : Yes
Defeat audio cache : Yes
Make use of C2 pointers : No

Read offset correction : 102
Overread into Lead-In and Lead-Out : No
Fill up missing offset samples with silence : Yes
Delete leading and trailing silent blocks : No
Null samples used in CRC calculations : Yes
Used interface : Installed external ASPI interface
Gap handling : Appended to previous track

Used output format : User Defined Encoder
Selected bitrate : 320 kBit/s
Quality : High
Add ID3 tag : No
Command line compressor : C:\Program Files (x86)\Exact Audio Copy\Flac\flac.exe
Additional command line options : -V -8 -T "artist=%a" -T "title=%t" -T "album=%g" -T "date=%y" -T "tracknumber=%n" -T "genre=%m" %s

TOC of the extracted CD

Track | Start | Length | Start sector | End sector
---------------------------------------------------------
1 | 0:00.00 | 3:47.30 | 0 | 17054
2 | 3:47.30 | 2:23.42 | 17055 | 27821
3 | 6:10.72 | 3:26.03 | 27822 | 43274
4 | 9:37.00 | 3:06.00 | 43275 | 57224
5 | 12:43.00 | 3:26.10 | 57225 | 72684
6 | 16:09.10 | 3:30.52 | 72685 | 88486
7 | 19:39.62 | 2:40.18 | 88487 | 100504
8 | 22:20.05 | 2:40.55 | 100505 | 112559
9 | 25:00.60 | 1:26.32 | 112560 | 119041
10 | 26:27.17 | 3:15.68 | 119042 | 133734
11 | 29:43.10 | 3:03.50 | 133735 | 147509
12 | 32:46.60 | 2:21.37 | 147510 | 158121
13 | 35:08.22 | 2:10.68 | 158122 | 167939
14 | 37:19.15 | 3:15.10 | 167940 | 182574
15 | 40:34.25 | 2:57.02 | 182575 | 195851
16 | 43:31.27 | 3:57.15 | 195852 | 213641

Track 1

Filename C:\Users\Babsy8\Desktop\Reel Big Fish - 1996 - Turn The Radio Off (FLAC)\01 - Sell Out.wav

Pre-gap length 0:00:02.00

Peak level 95.8 %
Track quality 100.0 %
Test CRC F4C6CC74
Copy CRC F4C6CC74
Track not present in AccurateRip database
Copy OK

Track 2

Filename C:\Users\Babsy8\Desktop\Reel Big Fish - 1996 - Turn The Radio Off (FLAC)\02 - Trendy.wav

Peak level 95.8 %
Track quality 100.0 %
Test CRC FB9EDDAB
Copy CRC FB9EDDAB
Track not present in AccurateRip database
Copy OK

Track 3

Filename C:\Users\Babsy8\Desktop\Reel Big Fish - 1996 - Turn The Radio Off (FLAC)\03 - Join The Club.wav

Peak level 95.7 %
Track quality 100.0 %
Test CRC 2E5D51C5
Copy CRC 2E5D51C5
Track not present in AccurateRip database
Copy OK

Track 4

Filename C:\Users\Babsy8\Desktop\Reel Big Fish - 1996 - Turn The Radio Off (FLAC)\04 - She Has A Girlfriend Now.wav

Pre-gap length 0:00:01.10

Peak level 95.8 %
Track quality 100.0 %
Test CRC DE3AE8E9
Copy CRC DE3AE8E9
Track not present in AccurateRip database
Copy OK

Track 5

Filename C:\Users\Babsy8\Desktop\Reel Big Fish - 1996 - Turn The Radio Off (FLAC)\05 - Snoop Dog, Baby.wav

Peak level 95.7 %
Track quality 100.0 %
Test CRC 6BFB37FC
Copy CRC 6BFB37FC
Track not present in AccurateRip database
Copy OK

Track 6

Filename C:\Users\Babsy8\Desktop\Reel Big Fish - 1996 - Turn The Radio Off (FLAC)\06 - Beer.wav

Peak level 95.6 %
Track quality 100.0 %
Test CRC 1C002DE0
Copy CRC 1C002DE0
Track not present in AccurateRip database
Copy OK

Track 7

Filename C:\Users\Babsy8\Desktop\Reel Big Fish - 1996 - Turn The Radio Off (FLAC)\07 - 241.wav

Peak level 95.8 %
Track quality 100.0 %
Test CRC 6C09E215
Copy CRC 6C09E215
Track not present in AccurateRip database
Copy OK

Track 8

Filename C:\Users\Babsy8\Desktop\Reel Big Fish - 1996 - Turn The Radio Off (FLAC)\08 - Everything Sucks.wav

Peak level 95.6 %
Track quality 99.9 %
Test CRC 404CDA28
Copy CRC 404CDA28
Track not present in AccurateRip database
Copy OK

Track 9

Filename C:\Users\Babsy8\Desktop\Reel Big Fish - 1996 - Turn The Radio Off (FLAC)\09 - S.R..wav

Peak level 95.5 %
Track quality 100.0 %
Test CRC F6F03271
Copy CRC F6F03271
Track not present in AccurateRip database
Copy OK

Track 10

Filename C:\Users\Babsy8\Desktop\Reel Big Fish - 1996 - Turn The Radio Off (FLAC)\10 - Skatanic.wav

Peak level 95.6 %
Track quality 99.9 %
Test CRC 6A8D2665
Copy CRC 6A8D2665
Track not present in AccurateRip database
Copy OK

Track 11

Filename C:\Users\Babsy8\Desktop\Reel Big Fish - 1996 - Turn The Radio Off (FLAC)\11 - All I Want Is More.wav

Peak level 95.6 %
Track quality 100.0 %
Test CRC A9E05230
Copy CRC A9E05230
Track not present in AccurateRip database
Copy OK

Track 12

Filename C:\Users\Babsy8\Desktop\Reel Big Fish - 1996 - Turn The Radio Off (FLAC)\12 - Nothin'.wav

Peak level 95.6 %
Track quality 100.0 %
Test CRC B5CAC67D
Copy CRC B5CAC67D
Track not present in AccurateRip database
Copy OK

Track 13

Filename C:\Users\Babsy8\Desktop\Reel Big Fish - 1996 - Turn The Radio Off (FLAC)\13 - Say 'Ten'.wav

Peak level 95.7 %
Track quality 100.0 %
Test CRC AD21BB93
Copy CRC AD21BB93
Track not present in AccurateRip database
Copy OK

Track 14

Filename C:\Users\Babsy8\Desktop\Reel Big Fish - 1996 - Turn The Radio Off (FLAC)\14 - I'll Never Be.wav

Pre-gap length 0:00:00.10

Peak level 95.8 %
Track quality 100.0 %
Test CRC CD213C42
Copy CRC CD213C42
Track not present in AccurateRip database
Copy OK

Track 15

Filename C:\Users\Babsy8\Desktop\Reel Big Fish - 1996 - Turn The Radio Off (FLAC)\15 - Alternative Baby.wav

Peak level 95.9 %
Track quality 100.0 %
Test CRC B38E05B8
Copy CRC B38E05B8
Track not present in AccurateRip database
Copy OK

Track 16

Filename C:\Users\Babsy8\Desktop\Reel Big Fish - 1996 - Turn The Radio Off (FLAC)\16 - Secret Song.wav

Pre-gap length 0:00:00.20

Peak level 20.2 %
Track quality 100.0 %
Test CRC B6D5CFBE
Copy CRC B6D5CFBE
Track not present in AccurateRip database
Copy OK

None of the tracks are present in the AccurateRip database

No errors occurred

End of status report
REM GENRE Ska 
REM DATE 1996
REM DISCID DC0B2010
REM COMMENT "ExactAudioCopy v0.99pb4"
PERFORMER "Reel Big Fish"
TITLE "Turn The Radio Off"
FILE "01 - Sell Out.wav" WAVE
TRACK 01 AUDIO
TITLE "Sell Out"
PERFORMER "Reel Big Fish"
INDEX 01 00:00:00
FILE "02 - Trendy.wav" WAVE
TRACK 02 AUDIO
TITLE "Trendy"
PERFORMER "Reel Big Fish"
INDEX 01 00:00:00
FILE "03 - Join The Club.wav" WAVE
TRACK 03 AUDIO
TITLE "Join The Club"
PERFORMER "Reel Big Fish"
INDEX 01 00:00:00
TRACK 04 AUDIO
TITLE "She Has A Girlfriend Now"
PERFORMER "Reel Big Fish"
INDEX 00 03:24:70
FILE "04 - She Has A Girlfriend Now.wav" WAVE
INDEX 01 00:00:00
FILE "05 - Snoop Dog, Baby.wav" WAVE
TRACK 05 AUDIO
TITLE "Snoop Dog, Baby"
PERFORMER "Reel Big Fish"
INDEX 01 00:00:00
FILE "06 - Beer.wav" WAVE
TRACK 06 AUDIO
TITLE "Beer"
PERFORMER "Reel Big Fish"
INDEX 01 00:00:00
FILE "07 - 241.wav" WAVE
TRACK 07 AUDIO
TITLE "241"
PERFORMER "Reel Big Fish"
INDEX 01 00:00:00
FILE "08 - Everything Sucks.wav" WAVE
TRACK 08 AUDIO
TITLE "Everything Sucks"
PERFORMER "Reel Big Fish"
INDEX 01 00:00:00
FILE "09 - S.R..wav" WAVE
TRACK 09 AUDIO
TITLE "S.R."
PERFORMER "Reel Big Fish"
INDEX 01 00:00:00
FILE "10 - Skatanic.wav" WAVE
TRACK 10 AUDIO
TITLE "Skatanic"
PERFORMER "Reel Big Fish"
INDEX 01 00:00:00
FILE "11 - All I Want Is More.wav" WAVE
TRACK 11 AUDIO
TITLE "All I Want Is More"
PERFORMER "Reel Big Fish"
INDEX 01 00:00:00
FILE "12 - Nothin'.wav" WAVE
TRACK 12 AUDIO
TITLE "Nothin'"
PERFORMER "Reel Big Fish"
INDEX 01 00:00:00
FILE "13 - Say 'Ten'.wav" WAVE
TRACK 13 AUDIO
TITLE "Say 'Ten'"
PERFORMER "Reel Big Fish"
INDEX 01 00:00:00
TRACK 14 AUDIO
TITLE "I'll Never Be"
PERFORMER "Reel Big Fish"
INDEX 00 02:10:60
FILE "14 - I'll Never Be.wav" WAVE
INDEX 01 00:00:00
FILE "15 - Alternative Baby.wav" WAVE
TRACK 15 AUDIO
TITLE "Alternative Baby"
PERFORMER "Reel Big Fish"
INDEX 01 00:00:00
TRACK 16 AUDIO
TITLE "Secret Song"
PERFORMER "Reel Big Fish"
INDEX 00 02:56:62
FILE "16 - Secret Song.wav" WAVE
INDEX 01 00:00:00
01. Somebody Hates Me (3:28)
02. Brand New Song (3:05)
03. She's Famous Now (3:06)
04. You Don't Know (3:26)
05. The Set Up (You Need This) (4:22)
06. Thank You For Not Moshing (2:42)
07. I'm Cool (3:21)
08. I Want Your Girlfriend To Be My Girlfriend Too (2:53)
09. Everything Is Cool (3:07)
10. Song #3 (3:29)
11. Scott's A Dork (3:04)
12. Big Star (3:35)
13. The Kids Don't Like It (3:21)
14. Down In Flames (4:49)
15. We Care (3:55)
16. Victory Over Peter Bones (The Legend Of Alan Guile Versus Peter Bones) (10:51)
17. Untitled (11:27)
X Lossless Decoder version 20091112 (113.1) 

XLD extraction logfile from 2009-11-11 14:04:41 -0600

Reel Big Fish / Why Do They Rock So Hard?

Used drive : TSSTcorp CDDVDW SE-T084M (revision TD01)

Use cdparanoia mode : YES (CDParanoia III 10.2 engine)
Disable audio cache : OK for the drive with cache less than 2750KB
Make use of C2 pointers : NO
Read offset correction : 6
Max retry count : 100

TOC of the extracted CD
Track | Start | Length | Start sector | End sector
---------------------------------------------------------
1 | 00:00:00 | 03:28:32 | 0 | 15631
2 | 03:28:32 | 03:04:53 | 15632 | 29484
3 | 06:33:10 | 03:05:65 | 29485 | 43424
4 | 09:39:00 | 03:26:17 | 43425 | 58891
5 | 13:05:17 | 04:22:05 | 58892 | 78546
6 | 17:27:22 | 02:41:40 | 78547 | 90661
7 | 20:08:62 | 03:20:65 | 90662 | 105726
8 | 23:29:52 | 02:53:00 | 105727 | 118701
9 | 26:22:52 | 03:07:25 | 118702 | 132751
10 | 29:30:02 | 03:28:68 | 132752 | 148419
11 | 32:58:70 | 03:04:30 | 148420 | 162249
12 | 36:03:25 | 03:34:65 | 162250 | 178364
13 | 39:38:15 | 03:20:70 | 178365 | 193434
14 | 42:59:10 | 04:49:30 | 193435 | 215139
15 | 47:48:40 | 03:55:30 | 215140 | 232794
16 | 51:43:70 | 10:50:65 | 232795 | 281609
17 | 62:34:60 | 11:26:40 | 281610 | 333099

List of alternate offset correction values
# | Absolute | Relative | Confidence
------------------------------------------
1 | 74 | 68 | 11
2 | 738 | 732 | 5
3 | -572 | -578 | 2

All Tracks
Album gain : -8.85 dB
Peak : 0.937500

Track 01
Filename : /Waffles Rips/01 - Somebody Hates Me.flac

Track gain : -8.84 dB
Peak : 0.937469
CRC32 hash (test run) : A681F4A8
CRC32 hash : A681F4A8
CRC32 hash (skip zero) : AA39B309
AccurateRip signature : 0A8C0631
->Accurately ripped! (confidence 10)
(matched with the different offset correction value;
calculated using an additional offset of 68;
the signature after correction is: EAC618C0)
Statistics
Read error : 0
Skipped (treated as error) : 0
Edge jitter error (maybe fixed) : 0
Atom jitter error (maybe fixed) : 0
Drift error (maybe fixed) : 0
Dropped bytes error (maybe fixed) : 0
Duplicated bytes error (maybe fixed) : 0
Inconsistency in error sectors : 0

Track 02
Filename : /Waffles Rips/02 - Brand New Song.flac

Track gain : -9.10 dB
Peak : 0.929810
CRC32 hash (test run) : 1FC7A18A
CRC32 hash : 1FC7A18A
CRC32 hash (skip zero) : FD28B32F
AccurateRip signature : AACF059F
->Accurately ripped! (confidence 10)
(matched with the different offset correction value;
calculated using an additional offset of 68;
the signature after correction is: 3DCBEC71)
Statistics
Read error : 0
Skipped (treated as error) : 0
Edge jitter error (maybe fixed) : 0
Atom jitter error (maybe fixed) : 0
Drift error (maybe fixed) : 0
Dropped bytes error (maybe fixed) : 0
Duplicated bytes error (maybe fixed) : 0
Inconsistency in error sectors : 0

Track 03
Filename : /Waffles Rips/03 - She's Famous Now.flac

Track gain : -9.41 dB
Peak : 0.936127
CRC32 hash (test run) : 22A03B34
CRC32 hash : 22A03B34
CRC32 hash (skip zero) : 76E6A0B0
AccurateRip signature : 09A6DA6D
->Accurately ripped! (confidence 10)
(matched with the different offset correction value;
calculated using an additional offset of 68;
the signature after correction is: 21D06310)
Statistics
Read error : 0
Skipped (treated as error) : 0
Edge jitter error (maybe fixed) : 0
Atom jitter error (maybe fixed) : 0
Drift error (maybe fixed) : 0
Dropped bytes error (maybe fixed) : 0
Duplicated bytes error (maybe fixed) : 0
Inconsistency in error sectors : 0

Track 04
Filename : /Waffles Rips/04 - You Don't Know.flac

Track gain : -8.58 dB
Peak : 0.937439
CRC32 hash (test run) : FBFE6CEA
CRC32 hash : FBFE6CEA
CRC32 hash (skip zero) : 5F69AA02
AccurateRip signature : B63E0D6E
->Accurately ripped! (confidence 10)
(matched with the different offset correction value;
calculated using an additional offset of 68;
the signature after correction is: 88884C26)
Statistics
Read error : 0
Skipped (treated as error) : 0
Edge jitter error (maybe fixed) : 1
Atom jitter error (maybe fixed) : 1
Drift error (maybe fixed) : 0
Dropped bytes error (maybe fixed) : 0
Duplicated bytes error (maybe fixed) : 0
Inconsistency in error sectors : 0

Track 05
Filename : /Waffles Rips/05 - The Set Up (You Need This).flac

Track gain : -10.11 dB
Peak : 0.931000
CRC32 hash (test run) : A2CA6507
CRC32 hash : A2CA6507
CRC32 hash (skip zero) : 14105A01
AccurateRip signature : E4129C63
->Accurately ripped! (confidence 10)
(matched with the different offset correction value;
calculated using an additional offset of 68;
the signature after correction is: 0BE12162)
Statistics
Read error : 0
Skipped (treated as error) : 0
Edge jitter error (maybe fixed) : 0
Atom jitter error (maybe fixed) : 0
Drift error (maybe fixed) : 0
Dropped bytes error (maybe fixed) : 0
Duplicated bytes error (maybe fixed) : 0
Inconsistency in error sectors : 0

Track 06
Filename : /Waffles Rips/06 - Thank You For Not Moshing.flac

Track gain : -9.14 dB
Peak : 0.928772
CRC32 hash (test run) : 0D77DA90
CRC32 hash : 0D77DA90
CRC32 hash (skip zero) : 66E74C03
AccurateRip signature : 53D4B11D
->Accurately ripped! (confidence 10)
(matched with the different offset correction value;
calculated using an additional offset of 68;
the signature after correction is: 0A441C13)
Statistics
Read error : 0
Skipped (treated as error) : 0
Edge jitter error (maybe fixed) : 0
Atom jitter error (maybe fixed) : 0
Drift error (maybe fixed) : 0
Dropped bytes error (maybe fixed) : 0
Duplicated bytes error (maybe fixed) : 0
Inconsistency in error sectors : 0

Track 07
Filename : /Waffles Rips/07 - I'm Cool.flac

Track gain : -8.23 dB
Peak : 0.937469
CRC32 hash (test run) : B7280A74
CRC32 hash : B7280A74
CRC32 hash (skip zero) : 1BF76CD2
AccurateRip signature : DAEAAEFB
->Accurately ripped! (confidence 10)
(matched with the different offset correction value;
calculated using an additional offset of 68;
the signature after correction is: 1798CF1C)
Statistics
Read error : 0
Skipped (treated as error) : 0
Edge jitter error (maybe fixed) : 0
Atom jitter error (maybe fixed) : 0
Drift error (maybe fixed) : 0
Dropped bytes error (maybe fixed) : 0
Duplicated bytes error (maybe fixed) : 0
Inconsistency in error sectors : 0

Track 08
Filename : /Waffles Rips/08 - I Want Your Girlfriend To Be My Girlfriend Too.flac

Track gain : -8.92 dB
Peak : 0.927887
CRC32 hash (test run) : 03119C86
CRC32 hash : 03119C86
CRC32 hash (skip zero) : DDA1B66E
AccurateRip signature : F668CBA7
->Accurately ripped! (confidence 10)
(matched with the different offset correction value;
calculated using an additional offset of 68;
the signature after correction is: AA14E0AC)
Statistics
Read error : 0
Skipped (treated as error) : 0
Edge jitter error (maybe fixed) : 0
Atom jitter error (maybe fixed) : 0
Drift error (maybe fixed) : 0
Dropped bytes error (maybe fixed) : 0
Duplicated bytes error (maybe fixed) : 0
Inconsistency in error sectors : 0

Track 09
Filename : /Waffles Rips/09 - Everything Is Cool.flac

Track gain : -10.04 dB
Peak : 0.937500
CRC32 hash (test run) : F01638D8
CRC32 hash : F01638D8
CRC32 hash (skip zero) : 02B76D19
AccurateRip signature : 65E740D7
->Accurately ripped! (confidence 10)
(matched with the different offset correction value;
calculated using an additional offset of 68;
the signature after correction is: E19EE60C)
Statistics
Read error : 0
Skipped (treated as error) : 0
Edge jitter error (maybe fixed) : 0
Atom jitter error (maybe fixed) : 0
Drift error (maybe fixed) : 0
Dropped bytes error (maybe fixed) : 0
Duplicated bytes error (maybe fixed) : 0
Inconsistency in error sectors : 0

Track 10
Filename : /Waffles Rips/10 - Song #3.flac

Track gain : -9.22 dB
Peak : 0.937500
CRC32 hash (test run) : 2FD8A475
CRC32 hash : 2FD8A475
CRC32 hash (skip zero) : 1E85DF13
AccurateRip signature : 6CB1A60C
->Accurately ripped! (confidence 11)
(matched with the different offset correction value;
calculated using an additional offset of 68;
the signature after correction is: 2AC59480)
Statistics
Read error : 0
Skipped (treated as error) : 0
Edge jitter error (maybe fixed) : 0
Atom jitter error (maybe fixed) : 0
Drift error (maybe fixed) : 0
Dropped bytes error (maybe fixed) : 0
Duplicated bytes error (maybe fixed) : 0
Inconsistency in error sectors : 0

Track 11
Filename : /Waffles Rips/11 - Scott's A Dork.flac

Track gain : -8.05 dB
Peak : 0.937500
CRC32 hash (test run) : DEBF7791
CRC32 hash : DEBF7791
CRC32 hash (skip zero) : 94293687
AccurateRip signature : DFBC9CBD
->Accurately ripped! (confidence 10)
(matched with the different offset correction value;
calculated using an additional offset of 68;
the signature after correction is: C33F4DDD)
Statistics
Read error : 0
Skipped (treated as error) : 0
Edge jitter error (maybe fixed) : 0
Atom jitter error (maybe fixed) : 0
Drift error (maybe fixed) : 0
Dropped bytes error (maybe fixed) : 0
Duplicated bytes error (maybe fixed) : 0
Inconsistency in error sectors : 0

Track 12
Filename : /Waffles Rips/12 - Big Star.flac

Track gain : -8.99 dB
Peak : 0.931488
CRC32 hash (test run) : 35D6F181
CRC32 hash : 35D6F181
CRC32 hash (skip zero) : D431E4EE
AccurateRip signature : 72D4AB2D
->Accurately ripped! (confidence 10)
(matched with the different offset correction value;
calculated using an additional offset of 68;
the signature after correction is: 864E4BE4)
Statistics
Read error : 0
Skipped (treated as error) : 0
Edge jitter error (maybe fixed) : 0
Atom jitter error (maybe fixed) : 0
Drift error (maybe fixed) : 0
Dropped bytes error (maybe fixed) : 0
Duplicated bytes error (maybe fixed) : 0
Inconsistency in error sectors : 0

Track 13
Filename : /Waffles Rips/13 - The Kids Don't Like It.flac

Track gain : -9.09 dB
Peak : 0.926788
CRC32 hash (test run) : AF7F8C0D
CRC32 hash : AF7F8C0D
CRC32 hash (skip zero) : 523E898C
AccurateRip signature : 240B69D1
->Accurately ripped! (confidence 10)
(matched with the different offset correction value;
calculated using an additional offset of 68;
the signature after correction is: 635E6509)
Statistics
Read error : 0
Skipped (treated as error) : 0
Edge jitter error (maybe fixed) : 0
Atom jitter error (maybe fixed) : 0
Drift error (maybe fixed) : 0
Dropped bytes error (maybe fixed) : 0
Duplicated bytes error (maybe fixed) : 0
Inconsistency in error sectors : 0

Track 14
Filename : /Waffles Rips/14 - Down In Flames.flac

Track gain : -9.00 dB
Peak : 0.937500
CRC32 hash (test run) : 5CAC64B8
CRC32 hash : 5CAC64B8
CRC32 hash (skip zero) : BDA04CC1
AccurateRip signature : B911A42C
->Accurately ripped! (confidence 10)
(matched with the different offset correction value;
calculated using an additional offset of 68;
the signature after correction is: 39F72F31)
Statistics
Read error : 0
Skipped (treated as error) : 0
Edge jitter error (maybe fixed) : 0
Atom jitter error (maybe fixed) : 0
Drift error (maybe fixed) : 0
Dropped bytes error (maybe fixed) : 0
Duplicated bytes error (maybe fixed) : 0
Inconsistency in error sectors : 0

Track 15
Filename : /Waffles Rips/15 - We Care.flac

Track gain : -7.83 dB
Peak : 0.937500
CRC32 hash (test run) : 2A336EF2
CRC32 hash : 2A336EF2
CRC32 hash (skip zero) : 66DBACF9
AccurateRip signature : F4172EA9
->Accurately ripped! (confidence 10)
(matched with the different offset correction value;
calculated using an additional offset of 68;
the signature after correction is: A006791D)
Statistics
Read error : 0
Skipped (treated as error) : 0
Edge jitter error (maybe fixed) : 0
Atom jitter error (maybe fixed) : 1
Drift error (maybe fixed) : 0
Dropped bytes error (maybe fixed) : 0
Duplicated bytes error (maybe fixed) : 0
Inconsistency in error sectors : 0

Track 16
Filename : /Waffles Rips/16 - Victory Over Peter Bones (The Legend Of Alan Guile Versus Peter Bones).flac

Track gain : -5.38 dB
Peak : 0.928101
CRC32 hash (test run) : FD65D73B
CRC32 hash : FD65D73B
CRC32 hash (skip zero) : 09C51223
AccurateRip signature : A2090656
->Accurately ripped! (confidence 8)
(matched with the different offset correction value;
calculated using an additional offset of 68;
the signature after correction is: 238CC5CE)
Statistics
Read error : 0
Skipped (treated as error) : 0
Edge jitter error (maybe fixed) : 0
Atom jitter error (maybe fixed) : 0
Drift error (maybe fixed) : 0
Dropped bytes error (maybe fixed) : 0
Duplicated bytes error (maybe fixed) : 0
Inconsistency in error sectors : 0

Track 17
Filename : /Waffles Rips/17 - Untitled.flac

Track gain : -6.57 dB
Peak : 0.927979
CRC32 hash (test run) : D1E70D37
CRC32 hash : D1E70D37
CRC32 hash (skip zero) : 296ACA21
AccurateRip signature : EB6B44C6
->Accurately ripped! (confidence 8)
(matched with the different offset correction value;
calculated using an additional offset of 68;
the signature after correction is: 0A8943B6)
Statistics
Read error : 0
Skipped (treated as error) : 0
Edge jitter error (maybe fixed) : 0
Atom jitter error (maybe fixed) : 0
Drift error (maybe fixed) : 0
Dropped bytes error (maybe fixed) : 0
Duplicated bytes error (maybe fixed) : 0
Inconsistency in error sectors : 0

No errors occurred

End of status report
TITLE "Why Do They Rock So Hard?" 
PERFORMER "Reel Big Fish"
REM GENRE "Rock"
REM DATE 1998
FILE "01 - Somebody Hates Me.wav" WAVE
TRACK 01 AUDIO
TITLE "Somebody Hates Me"
ISRC USMJ19801474
INDEX 01 00:00:00
FILE "02 - Brand New Song.wav" WAVE
TRACK 02 AUDIO
TITLE "Brand New Song"
ISRC USMJ19801490
INDEX 01 00:00:00
FILE "03 - She's Famous Now.wav" WAVE
TRACK 03 AUDIO
TITLE "She's Famous Now"
ISRC USMJ19801475
INDEX 01 00:00:00
FILE "04 - You Don't Know.wav" WAVE
TRACK 04 AUDIO
TITLE "You Don't Know"
ISRC USMJ19801476
INDEX 01 00:00:00
FILE "05 - The Set Up (You Need This).wav" WAVE
TRACK 05 AUDIO
TITLE "The Set Up (You Need This)"
ISRC USMJ19801477
INDEX 01 00:00:00
FILE "06 - Thank You For Not Moshing.wav" WAVE
TRACK 06 AUDIO
TITLE "Thank You For Not Moshing"
ISRC USMJ19801358
INDEX 01 00:00:00
FILE "07 - I'm Cool.wav" WAVE
TRACK 07 AUDIO
TITLE "I'm Cool"
ISRC USMJ19801478
INDEX 01 00:00:00
FILE "08 - I Want Your Girlfriend To Be My Girlfriend Too.wav" WAVE
TRACK 08 AUDIO
TITLE "I Want Your Girlfriend To Be My Girlfriend Too"
ISRC USMJ19801479
INDEX 01 00:00:00
FILE "09 - Everything Is Cool.wav" WAVE
TRACK 09 AUDIO
TITLE "Everything Is Cool"
ISRC USMJ19801480
INDEX 01 00:00:00
FILE "10 - Song #3.wav" WAVE
TRACK 10 AUDIO
TITLE "Song #3"
ISRC USMJ19801481
INDEX 01 00:00:00
FILE "11 - Scott's A Dork.wav" WAVE
TRACK 11 AUDIO
TITLE "Scott's A Dork"
ISRC USMJ19801482
INDEX 01 00:00:00
FILE "12 - Big Star.wav" WAVE
TRACK 12 AUDIO
TITLE "Big Star"
ISRC USMJ19801483
INDEX 01 00:00:00
FILE "13 - The Kids Don't Like It.wav" WAVE
TRACK 13 AUDIO
TITLE "The Kids Don't Like It"
ISRC USMJ19801484
INDEX 01 00:00:00
FILE "14 - Down In Flames.wav" WAVE
TRACK 14 AUDIO
TITLE "Down In Flames"
ISRC USMJ19801485
INDEX 01 00:00:00
FILE "15 - We Care.wav" WAVE
TRACK 15 AUDIO
TITLE "We Care"
ISRC USMJ19801486
INDEX 01 00:00:00
FILE "16 - Victory Over Peter Bones (The Legend Of Alan Guile Versus Peter Bones).wav" WAVE
TRACK 16 AUDIO
TITLE "Victory Over Peter Bones (The Legend Of Alan Guile Versus Peter Bones)"
ISRC USMJ19801488
INDEX 01 00:00:00
TRACK 17 AUDIO
TITLE "Untitled"
ISRC USMJ19801488
INDEX 00 10:40:65
FILE "17 - Untitled.wav" WAVE
INDEX 01 00:00:00
01. Good Thing (3:38)
02. Somebody Loved Me (3:19)
03. Ban the Tube Top (3:11)
04. Cheer Up (2:44)
05. Where Have You Been? (4:01)
06. Suckers (3:57)
07. What Are Friends For? (3:35)
08. A Little Doubt Goes a Long Way (3:20)
09. Dateless Losers (3:34)
10. Valerie (3:56)
11. Rock 'n' Roll is Bitchin' (2:54)
12. New York, New York (3:26)
13. Sayonara Senorita (4:09)
14. Boss DJ (3:09)
15. Brand New Hero (3:39)
16. Drunk Again (10:33)
EAC extraction logfile from 14. March 2006, 20:50 for CD 
Reel Big Fish / Cheer Up!

Used drive : SONY DVD RW DRU-800A Adapter: 1 ID: 0
Read mode : Secure with NO C2, accurate stream, disable cache
Read offset correction : 12
Overread into Lead-In and Lead-Out : No

Used output format : C:\Program Files\FLAC\flac.exe (User Defined Encoder)
224 kBit/s
Additional command line options : -V -8 -T "artist=%a" -T "title=%t" -T "album=%g" -T "date=%y" -T "tracknumber=%n" -T "genre=%m" %s

Other options :
Fill up missing offset samples with silence : Yes
Delete leading and trailing silent blocks : No
Installed external ASPI interface

Track 1
Filename \Reel Big Fish - Cheer Up\01. Good Thing.wav

Pre-gap length 0:00:02.00

Peak level 100.0 %
Track quality 100.0 %
Test CRC 2F1E151A
Copy CRC 2F1E151A
Copy OK

Track 2
Filename \Reel Big Fish - Cheer Up\02. Somebody Loved Me.wav

Peak level 100.0 %
Track quality 99.9 %
Test CRC 9A143C72
Copy CRC 9A143C72
Copy OK

Track 3
Filename \Reel Big Fish - Cheer Up\03. Ban the Tube Top.wav

Peak level 100.0 %
Track quality 100.0 %
Test CRC 08C34803
Copy CRC 08C34803
Copy OK

Track 4
Filename \Reel Big Fish - Cheer Up\04. Cheer Up.wav

Peak level 100.0 %
Track quality 100.0 %
Test CRC 485BB2D9
Copy CRC 485BB2D9
Copy OK

Track 5
Filename \Reel Big Fish - Cheer Up\05. Where Have You Been .wav

Peak level 100.0 %
Track quality 100.0 %
Test CRC A8974E2D
Copy CRC A8974E2D
Copy OK

Track 6
Filename \Reel Big Fish - Cheer Up\06. Suckers.wav

Peak level 100.0 %
Track quality 100.0 %
Test CRC 1907777D
Copy CRC 1907777D
Copy OK

Track 7
Filename \Reel Big Fish - Cheer Up\07. What Are Friends For .wav

Peak level 100.0 %
Track quality 100.0 %
Test CRC 0BBD3AB0
Copy CRC 0BBD3AB0
Copy OK

Track 8
Filename \Reel Big Fish - Cheer Up\08. A Little Doubt Goes a Long Way.wav

Peak level 100.0 %
Track quality 100.0 %
Test CRC DE2E41F2
Copy CRC DE2E41F2
Copy OK

Track 9
Filename \Reel Big Fish - Cheer Up\09. Dateless Losers.wav

Pre-gap length 0:00:00.01

Peak level 100.0 %
Track quality 100.0 %
Test CRC 865C7EB9
Copy CRC 865C7EB9
Copy OK

Track 10
Filename \Reel Big Fish - Cheer Up\10. Valerie.wav

Peak level 100.0 %
Track quality 100.0 %
Test CRC 298DA8C5
Copy CRC 298DA8C5
Copy OK

Track 11
Filename \Reel Big Fish - Cheer Up\11. Rock 'n' Roll is Bitchin'.wav

Pre-gap length 0:00:01.06

Peak level 100.0 %
Track quality 100.0 %
Test CRC 555EAC72
Copy CRC 555EAC72
Copy OK

Track 12
Filename \Reel Big Fish - Cheer Up\12. New York, New York.wav

Peak level 100.0 %
Track quality 100.0 %
Test CRC 762EA906
Copy CRC 762EA906
Copy OK

Track 13
Filename \Reel Big Fish - Cheer Up\13. Sayonara Senorita.wav

Peak level 100.0 %
Track quality 99.9 %
Test CRC ED4228E5
Copy CRC ED4228E5
Copy OK

Track 14
Filename \Reel Big Fish - Cheer Up\14. Boss DJ.wav

Peak level 100.0 %
Track quality 100.0 %
Test CRC 9527B102
Copy CRC 9527B102
Copy OK

Track 15
Filename \Reel Big Fish - Cheer Up\15. Brand New Hero.wav

Peak level 100.0 %
Track quality 100.0 %
Test CRC 65EF4180
Copy CRC 65EF4180
Copy OK

Track 16
Filename \Reel Big Fish - Cheer Up\16. Drunk Again.wav

Peak level 100.0 %
Track quality 100.0 %
Test CRC 8EFEC919
Copy CRC 8EFEC919
Copy OK

No errors occured

End of status report
REM GENRE Ska 
REM DATE 2002
REM DISCID D50EC910
REM COMMENT "ExactAudioCopy v0.95b4"
CATALOG 1201014400003
PERFORMER "Reel Big Fish"
TITLE "Cheer Up!"
FILE "01 - Good Thing.flac" WAVE
TRACK 01 AUDIO
TITLE "Good Thing"
PERFORMER "Reel Big Fish"
ISRC 4P41A0000395
INDEX 01 00:00:00
FILE "02 - Somebody Loved Me.flac" WAVE
TRACK 02 AUDIO
TITLE "Somebody Loved Me"
PERFORMER "Reel Big Fish"
ISRC 4P41A0000395
INDEX 01 00:00:00
FILE "03 - Ban the Tube Top.flac" WAVE
TRACK 03 AUDIO
TITLE "Ban the Tube Top"
PERFORMER "Reel Big Fish"
ISRC 4P41A0000395
INDEX 01 00:00:00
FILE "04 - Cheer Up.flac" WAVE
TRACK 04 AUDIO
TITLE "Cheer Up"
PERFORMER "Reel Big Fish"
ISRC 4P41A0000395
INDEX 01 00:00:00
FILE "05 - Where Have You Been.flac" WAVE
TRACK 05 AUDIO
TITLE "Where Have You Been?"
PERFORMER "Reel Big Fish"
ISRC 4P41A0000395
INDEX 01 00:00:00
FILE "06 - Suckers.flac" WAVE
TRACK 06 AUDIO
TITLE "Suckers"
PERFORMER "Reel Big Fish"
ISRC 4P41A0000395
INDEX 01 00:00:00
FILE "07 - What Are Friends For.flac" WAVE
TRACK 07 AUDIO
TITLE "What Are Friends For?"
PERFORMER "Reel Big Fish"
ISRC 4P41A0000395
INDEX 01 00:00:00
FILE "08 - A Little Doubt Goes a Long Way.flac" WAVE
TRACK 08 AUDIO
TITLE "A Little Doubt Goes a Long Way"
PERFORMER "Reel Big Fish"
ISRC 4P41A0000395
INDEX 01 00:00:00
TRACK 09 AUDIO
TITLE "Dateless Losers"
PERFORMER "Reel Big Fish"
ISRC 4P41A0000395
INDEX 00 03:19:62
FILE "09 - Dateless Losers.flac" WAVE
INDEX 01 00:00:00
FILE "10 - Valerie.flac" WAVE
TRACK 10 AUDIO
TITLE "Valerie"
PERFORMER "Reel Big Fish"
ISRC 4P41A0000395
INDEX 01 00:00:00
TRACK 11 AUDIO
TITLE "Rock 'n' Roll is Bitchin'"
PERFORMER "Reel Big Fish"
ISRC 4P41A0000395
INDEX 00 03:54:45
FILE "11 - Rock 'n' Roll is Bitchin'.flac" WAVE
INDEX 01 00:00:00
FILE "12 - New York, New York.flac" WAVE
TRACK 12 AUDIO
TITLE "New York, New York"
PERFORMER "Reel Big Fish"
ISRC 4P41A0000395
INDEX 01 00:00:00
FILE "13 - Sayonara Senorita.flac" WAVE
TRACK 13 AUDIO
TITLE "Sayonara Senorita"
PERFORMER "Reel Big Fish"
ISRC 4P41A0000395
INDEX 01 00:00:00
FILE "14 - Boss DJ.flac" WAVE
TRACK 14 AUDIO
TITLE "Boss DJ"
PERFORMER "Reel Big Fish"
ISRC 4P41A0000395
INDEX 01 00:00:00
FILE "15 - Brand New Hero.flac" WAVE
TRACK 15 AUDIO
TITLE "Brand New Hero"
PERFORMER "Reel Big Fish"
ISRC 4P41A0000395
INDEX 01 00:00:00
FILE "16 - Drunk Again.flac" WAVE
TRACK 16 AUDIO
TITLE "Drunk Again"
PERFORMER "Reel Big Fish"
ISRC 4P41A0000395
INDEX 01 00:00:00
01. The Fire (3:06)
02. Drinkin' (3:26)
03. Don't Start A Band (3:18)
04. A-W-E-S-O-M-E (3:33)
05. We Hate It When Our Friends Become Successful (2:24)
06. Turn The Radio Off (2:39)
07. Talkin' Bout A Revolution (3:25)
08. The Bad Guy (3:32)
09. Story Of My Life (4:10)
10. The Joke's On Me (3:50)
11. One Hit Wonderful (4:19)
12. Last Show (3:03)
13. Say Goodbye (4:09)
14. Your Guts (I Hate 'Em) (14:58)
Exact Audio Copy V0.99 prebeta 5 from 4. May 2009 

EAC extraction logfile from 18. August 2009, 2:24

Reel Big Fish / We're Not Happy 'Til You're Not Happy

Used drive : PBDS DVD+-RW DS-8W1P Adapter: 1 ID: 0

Read mode : Secure
Utilize accurate stream : Yes
Defeat audio cache : Yes
Make use of C2 pointers : No

Read offset correction : 594
Overread into Lead-In and Lead-Out : No
Fill up missing offset samples with silence : Yes
Delete leading and trailing silent blocks : No
Null samples used in CRC calculations : Yes
Used interface : Native Win32 interface for Win NT & 2000
Gap handling : Appended to previous track

Used output format : User Defined Encoder
Selected bitrate : 1024 kBit/s
Quality : High
Add ID3 tag : No
Command line compressor : C:\Program Files\FLAC\flac.exe
Additional command line options : -V -8 -T "artist=%a" -T "title=%t" -T "album=%g" -T "date=%y" -T "tracknumber=%n" -T "genre=%m" %s

TOC of the extracted CD

Track | Start | Length | Start sector | End sector
---------------------------------------------------------
1 | 0:00.00 | 3:05.40 | 0 | 13914
2 | 3:05.40 | 3:25.48 | 13915 | 29337
3 | 6:31.13 | 3:18.28 | 29338 | 44215
4 | 9:49.41 | 3:32.70 | 44216 | 60185
5 | 13:22.36 | 2:23.64 | 60186 | 70974
6 | 15:46.25 | 2:38.39 | 70975 | 82863
7 | 18:24.64 | 3:24.64 | 82864 | 98227
8 | 21:49.53 | 3:31.74 | 98228 | 114126
9 | 25:21.52 | 4:10.18 | 114127 | 132894
10 | 29:31.70 | 3:49.52 | 132895 | 150121
11 | 33:21.47 | 4:18.70 | 150122 | 169541
12 | 37:40.42 | 3:02.66 | 169542 | 183257
13 | 40:43.33 | 4:08.74 | 183258 | 201931
14 | 44:52.32 | 14:57.72 | 201932 | 269278

Track 1

Filename C:\Rips\Reel Big Fish - We're Not Happy 'Til You're Not Happy (FLAC)\01 - The Fire.wav

Pre-gap length 0:00:02.00

Peak level 97.7 %
Track quality 100.0 %
Test CRC 5D1CADB7
Copy CRC 5D1CADB7
Accurately ripped (confidence 9) [B78B45F8]
Copy OK

Track 2

Filename C:\Rips\Reel Big Fish - We're Not Happy 'Til You're Not Happy (FLAC)\02 - Drinkin'.wav

Peak level 97.7 %
Track quality 100.0 %
Test CRC 9FBF925B
Copy CRC 9FBF925B
Accurately ripped (confidence 13) [E042491C]
Copy OK

Track 3

Filename C:\Rips\Reel Big Fish - We're Not Happy 'Til You're Not Happy (FLAC)\03 - Don't Start A Band.wav

Peak level 97.7 %
Track quality 100.0 %
Test CRC 0AFBB27F
Copy CRC 0AFBB27F
Accurately ripped (confidence 13) [C95BFE14]
Copy OK

Track 4

Filename C:\Rips\Reel Big Fish - We're Not Happy 'Til You're Not Happy (FLAC)\04 - A-W-E-S-O-M-E.wav

Peak level 97.7 %
Track quality 100.0 %
Test CRC BEE747A9
Copy CRC BEE747A9
Accurately ripped (confidence 13) [A1384B08]
Copy OK

Track 5

Filename C:\Rips\Reel Big Fish - We're Not Happy 'Til You're Not Happy (FLAC)\05 - We Hate It When Our Friends Become Successful.wav

Peak level 97.7 %
Track quality 100.0 %
Test CRC 49DF7960
Copy CRC 49DF7960
Accurately ripped (confidence 13) [192B8BD3]
Copy OK

Track 6

Filename C:\Rips\Reel Big Fish - We're Not Happy 'Til You're Not Happy (FLAC)\06 - Turn The Radio Off.wav

Peak level 97.7 %
Track quality 100.0 %
Test CRC FF830ADB
Copy CRC FF830ADB
Accurately ripped (confidence 13) [F633ED0B]
Copy OK

Track 7

Filename C:\Rips\Reel Big Fish - We're Not Happy 'Til You're Not Happy (FLAC)\07 - Talkin' Bout A Revolution.wav

Peak level 97.8 %
Track quality 99.9 %
Test CRC 79F32E4E
Copy CRC 79F32E4E
Accurately ripped (confidence 13) [7021CA7B]
Copy OK

Track 8

Filename C:\Rips\Reel Big Fish - We're Not Happy 'Til You're Not Happy (FLAC)\08 - The Bad Guy.wav

Peak level 97.7 %
Track quality 100.0 %
Test CRC 4A2476BA
Copy CRC 4A2476BA
Accurately ripped (confidence 9) [04684D68]
Copy OK

Track 9

Filename C:\Rips\Reel Big Fish - We're Not Happy 'Til You're Not Happy (FLAC)\09 - Story Of My Life.wav

Peak level 98.8 %
Track quality 100.0 %
Test CRC 4E80DE86
Copy CRC 4E80DE86
Accurately ripped (confidence 9) [291680F6]
Copy OK

Track 10

Filename C:\Rips\Reel Big Fish - We're Not Happy 'Til You're Not Happy (FLAC)\10 - The Joke's On Me.wav

Peak level 97.7 %
Track quality 100.0 %
Test CRC 8263A810
Copy CRC 8263A810
Accurately ripped (confidence 9) [F972230C]
Copy OK

Track 11

Filename C:\Rips\Reel Big Fish - We're Not Happy 'Til You're Not Happy (FLAC)\11 - One Hit Wonderful.wav

Peak level 97.7 %
Track quality 100.0 %
Test CRC 91FC1FC0
Copy CRC 91FC1FC0
Accurately ripped (confidence 13) [FCFB9058]
Copy OK

Track 12

Filename C:\Rips\Reel Big Fish - We're Not Happy 'Til You're Not Happy (FLAC)\12 - Last Show.wav

Peak level 97.7 %
Track quality 100.0 %
Test CRC 763103E2
Copy CRC 763103E2
Accurately ripped (confidence 13) [A5912936]
Copy OK

Track 13

Filename C:\Rips\Reel Big Fish - We're Not Happy 'Til You're Not Happy (FLAC)\13 - Say Goodbye.wav

Peak level 97.7 %
Track quality 100.0 %
Test CRC 036F986B
Copy CRC 036F986B
Accurately ripped (confidence 13) [C00A83B4]
Copy OK

Track 14

Filename C:\Rips\Reel Big Fish - We're Not Happy 'Til You're Not Happy (FLAC)\14 - Your Guts (I Hate 'Em).wav

Peak level 97.7 %
Track quality 100.0 %
Test CRC D40015BD
Copy CRC D40015BD
Accurately ripped (confidence 13) [4C2A0D1F]
Copy OK

All tracks accurately ripped

No errors occurred

End of status report
REM GENRE Ska 
REM DATE 2005
REM DISCID B10E060E
REM COMMENT "ExactAudioCopy v0.99pb5"
PERFORMER "Reel Big Fish"
TITLE "We're Not Happy 'Til You're Not Happy"
FILE "01 - The Fire.wav" WAVE
TRACK 01 AUDIO
TITLE "The Fire"
PERFORMER "Reel Big Fish"
INDEX 01 00:00:00
FILE "02 - Drinkin'.wav" WAVE
TRACK 02 AUDIO
TITLE "Drinkin'"
PERFORMER "Reel Big Fish"
INDEX 01 00:00:00
FILE "03 - Don't Start A Band.wav" WAVE
TRACK 03 AUDIO
TITLE "Don't Start A Band"
PERFORMER "Reel Big Fish"
INDEX 01 00:00:00
FILE "04 - A-W-E-S-O-M-E.wav" WAVE
TRACK 04 AUDIO
TITLE "A-W-E-S-O-M-E"
PERFORMER "Reel Big Fish"
INDEX 01 00:00:00
FILE "05 - We Hate It When Our Friends Become Successful.wav" WAVE
TRACK 05 AUDIO
TITLE "We Hate It When Our Friends Become Successful "
PERFORMER "Reel Big Fish"
INDEX 01 00:00:00
FILE "06 - Turn The Radio Off.wav" WAVE
TRACK 06 AUDIO
TITLE "Turn The Radio Off"
PERFORMER "Reel Big Fish"
INDEX 01 00:00:00
FILE "07 - Talkin' Bout A Revolution.wav" WAVE
TRACK 07 AUDIO
TITLE "Talkin' Bout A Revolution"
PERFORMER "Reel Big Fish"
INDEX 01 00:00:00
FILE "08 - The Bad Guy.wav" WAVE
TRACK 08 AUDIO
TITLE "The Bad Guy"
PERFORMER "Reel Big Fish"
INDEX 01 00:00:00
FILE "09 - Story Of My Life.wav" WAVE
TRACK 09 AUDIO
TITLE "Story Of My Life"
PERFORMER "Reel Big Fish"
INDEX 01 00:00:00
FILE "10 - The Joke's On Me.wav" WAVE
TRACK 10 AUDIO
TITLE "The Joke's On Me"
PERFORMER "Reel Big Fish"
INDEX 01 00:00:00
FILE "11 - One Hit Wonderful.wav" WAVE
TRACK 11 AUDIO
TITLE "One Hit Wonderful"
PERFORMER "Reel Big Fish"
INDEX 01 00:00:00
FILE "12 - Last Show.wav" WAVE
TRACK 12 AUDIO
TITLE "Last Show"
PERFORMER "Reel Big Fish"
INDEX 01 00:00:00
FILE "13 - Say Goodbye.wav" WAVE
TRACK 13 AUDIO
TITLE "Say Goodbye"
PERFORMER "Reel Big Fish"
INDEX 01 00:00:00
FILE "14 - Your Guts (I Hate 'Em).wav" WAVE
TRACK 14 AUDIO
TITLE "Your Guts (I Hate 'Em)"
PERFORMER "Reel Big Fish"
INDEX 01 00:00:00
01. Party Down (4:09)
02. Another F.U. Song (1:05)
03. Live Your Dream (3:13)
04. My Imaginary Friend (3:25)
05. Slow Down (5:05)
06. The New Version Of You (3:24)
07. Will The Revolution Come (2:23)
08. Another Day In Paradise (2:41)
09. Everybody's Drunk (3:07)
10. Please Don't Tell Her I Have A Girlfriend (2:58)
11. Way Back (2:41)
12. Hate You (3:00)
13. Call You (3:13)
14. Why Do All Girls Think They're Fat (2:34)
15. I'm Her Man (4:11)
16. Till I Hit The Ground (3:49)
17. Cannibal (6:17)
EAC extraction logfile from 24. March 2008, 13:42 for CD 
Reel Big Fish / Monkeys For Nothin' And The Chimps For Free

Used drive : HL-DT-STDVDRRW GSA-H21L Adapter: 2 ID: 0
Read mode : Secure with NO C2, accurate stream, disable cache
Read offset correction : 102
Overread into Lead-In and Lead-Out : No

Used output format : C:\Program Files\Exact Audio Copy\flac.exe (User Defined Encoder)
128 kBit/s
Additional command line options : -V -8 -T "artist=%a" -T "title=%t" -T "album=%g" -T "date=%y" -T "tracknumber=%n" -T "genre=%m" %s

Other options :
Fill up missing offset samples with silence : Yes
Delete leading and trailing silent blocks : No
Installed external ASPI interface

Track 1
Filename C:\Documents and Settings\Tim.YOUR-4DACD0EA75\My Documents\Waffles Uploads\Reel Big Fisht-Monkeys For Nothin' and the Chimps For Free-2007\01 - Party Down.wav

Pre-gap length 0:00:02.00

Peak level 98.9 %
Track quality 99.9 %
Test CRC 80AC3DEC
Copy CRC 80AC3DEC
Copy OK

Track 2
Filename C:\Documents and Settings\Tim.YOUR-4DACD0EA75\My Documents\Waffles Uploads\Reel Big Fisht-Monkeys For Nothin' and the Chimps For Free-2007\02 - Another F.U. Song.wav

Pre-gap length 0:00:00.13

Peak level 98.6 %
Track quality 100.0 %
Test CRC EAC8A0F7
Copy CRC EAC8A0F7
Copy OK

Track 3
Filename C:\Documents and Settings\Tim.YOUR-4DACD0EA75\My Documents\Waffles Uploads\Reel Big Fisht-Monkeys For Nothin' and the Chimps For Free-2007\03 - Live Your Dream.wav

Pre-gap length 0:00:01.00

Peak level 99.1 %
Track quality 100.0 %
Test CRC 18452453
Copy CRC 18452453
Copy OK

Track 4
Filename C:\Documents and Settings\Tim.YOUR-4DACD0EA75\My Documents\Waffles Uploads\Reel Big Fisht-Monkeys For Nothin' and the Chimps For Free-2007\04 - My Imaginary Friend.wav

Pre-gap length 0:00:00.90

Peak level 99.1 %
Track quality 100.0 %
Test CRC E15CDD7F
Copy CRC E15CDD7F
Copy OK

Track 5
Filename C:\Documents and Settings\Tim.YOUR-4DACD0EA75\My Documents\Waffles Uploads\Reel Big Fisht-Monkeys For Nothin' and the Chimps For Free-2007\05 - Slow Down.wav

Pre-gap length 0:00:01.06

Peak level 97.9 %
Track quality 100.0 %
Test CRC B2576965
Copy CRC B2576965
Copy OK

Track 6
Filename C:\Documents and Settings\Tim.YOUR-4DACD0EA75\My Documents\Waffles Uploads\Reel Big Fisht-Monkeys For Nothin' and the Chimps For Free-2007\06 - The New Version Of You.wav

Peak level 99.2 %
Track quality 100.0 %
Test CRC D3358F57
Copy CRC D3358F57
Copy OK

Track 7
Filename C:\Documents and Settings\Tim.YOUR-4DACD0EA75\My Documents\Waffles Uploads\Reel Big Fisht-Monkeys For Nothin' and the Chimps For Free-2007\07 - Will The Revolution Come.wav

Pre-gap length 0:00:01.33

Peak level 99.2 %
Track quality 99.9 %
Test CRC 8D494CA8
Copy CRC 8D494CA8
Copy OK

Track 8
Filename C:\Documents and Settings\Tim.YOUR-4DACD0EA75\My Documents\Waffles Uploads\Reel Big Fisht-Monkeys For Nothin' and the Chimps For Free-2007\08 - Another Day In Paradise.wav

Pre-gap length 0:00:00.10

Peak level 99.1 %
Track quality 100.0 %
Test CRC CEA0DEAB
Copy CRC CEA0DEAB
Copy OK

Track 9
Filename C:\Documents and Settings\Tim.YOUR-4DACD0EA75\My Documents\Waffles Uploads\Reel Big Fisht-Monkeys For Nothin' and the Chimps For Free-2007\09 - Everybody's Drunk.wav

Pre-gap length 0:00:00.02

Peak level 100.0 %
Track quality 100.0 %
Test CRC 4AC0C04D
Copy CRC 4AC0C04D
Copy OK

Track 10
Filename C:\Documents and Settings\Tim.YOUR-4DACD0EA75\My Documents\Waffles Uploads\Reel Big Fisht-Monkeys For Nothin' and the Chimps For Free-2007\10 - Please Don't Tell Her I Have A Girlfriend.wav

Pre-gap length 0:00:01.40

Peak level 98.8 %
Track quality 100.0 %
Test CRC 3CCC8508
Copy CRC 3CCC8508
Copy OK

Track 11
Filename C:\Documents and Settings\Tim.YOUR-4DACD0EA75\My Documents\Waffles Uploads\Reel Big Fisht-Monkeys For Nothin' and the Chimps For Free-2007\11 - Way Back.wav

Pre-gap length 0:00:02.20

Peak level 98.6 %
Track quality 100.0 %
Test CRC B6CF6E08
Copy CRC B6CF6E08
Copy OK

Track 12
Filename C:\Documents and Settings\Tim.YOUR-4DACD0EA75\My Documents\Waffles Uploads\Reel Big Fisht-Monkeys For Nothin' and the Chimps For Free-2007\12 - Hate You.wav

Pre-gap length 0:00:01.00

Peak level 99.4 %
Track quality 100.0 %
Test CRC 1F629193
Copy CRC 1F629193
Copy OK

Track 13
Filename C:\Documents and Settings\Tim.YOUR-4DACD0EA75\My Documents\Waffles Uploads\Reel Big Fisht-Monkeys For Nothin' and the Chimps For Free-2007\13 - Call You.wav

Pre-gap length 0:00:01.09

Peak level 100.0 %
Track quality 100.0 %
Test CRC E894D189
Copy CRC E894D189
Copy OK

Track 14
Filename C:\Documents and Settings\Tim.YOUR-4DACD0EA75\My Documents\Waffles Uploads\Reel Big Fisht-Monkeys For Nothin' and the Chimps For Free-2007\14 - Why Do All Girls Think They're Fat.wav

Pre-gap length 0:00:00.80

Peak level 99.7 %
Track quality 100.0 %
Test CRC 16068A01
Copy CRC 16068A01
Copy OK

Track 15
Filename C:\Documents and Settings\Tim.YOUR-4DACD0EA75\My Documents\Waffles Uploads\Reel Big Fisht-Monkeys For Nothin' and the Chimps For Free-2007\15 - I'm Her Man.wav

Pre-gap length 0:00:00.26

Peak level 99.9 %
Track quality 99.9 %
Test CRC 0E3B3AAC
Copy CRC 0E3B3AAC
Copy OK

Track 16
Filename C:\Documents and Settings\Tim.YOUR-4DACD0EA75\My Documents\Waffles Uploads\Reel Big Fisht-Monkeys For Nothin' and the Chimps For Free-2007\16 - Till I Hit The Ground.wav

Pre-gap length 0:00:01.70

Peak level 100.0 %
Track quality 100.0 %
Test CRC DDFEB9CD
Copy CRC DDFEB9CD
Copy OK

Track 17
Filename C:\Documents and Settings\Tim.YOUR-4DACD0EA75\My Documents\Waffles Uploads\Reel Big Fisht-Monkeys For Nothin' and the Chimps For Free-2007\17 - Cannibal.wav

Pre-gap length 0:00:02.90

Peak level 98.3 %
Track quality 100.0 %
Test CRC 1629576D
Copy CRC 1629576D
Copy OK

No errors occured

End of status report
REM GENRE Ska 
REM DATE 2007
REM DISCID C50D6811
REM COMMENT "ExactAudioCopy v0.95b3"
PERFORMER "Reel Big Fish"
TITLE "Monkeys For Nothin' And The Chimps For Free"
FILE "01 - Party Down.wav" WAVE
TRACK 01 AUDIO
TITLE "Party Down"
PERFORMER "Reel Big Fish"
INDEX 01 00:00:00
TRACK 02 AUDIO
TITLE "Another F.U. Song"
PERFORMER "Reel Big Fish"
INDEX 00 04:08:42
FILE "02 - Another F.U. Song.wav" WAVE
INDEX 01 00:00:00
TRACK 03 AUDIO
TITLE "Live Your Dream"
PERFORMER "Reel Big Fish"
INDEX 00 01:03:50
FILE "03 - Live Your Dream.wav" WAVE
INDEX 01 00:00:00
TRACK 04 AUDIO
TITLE "My Imaginary Friend"
PERFORMER "Reel Big Fish"
INDEX 00 03:12:10
FILE "04 - My Imaginary Friend.wav" WAVE
INDEX 01 00:00:00
TRACK 05 AUDIO
TITLE "Slow Down"
PERFORMER "Reel Big Fish"
INDEX 00 03:23:52
FILE "05 - Slow Down.wav" WAVE
INDEX 01 00:00:00
FILE "06 - The New Version Of You.wav" WAVE
TRACK 06 AUDIO
TITLE "The New Version Of You"
PERFORMER "Reel Big Fish"
INDEX 01 00:00:00
TRACK 07 AUDIO
TITLE "Will The Revolution Come"
PERFORMER "Reel Big Fish"
INDEX 00 03:22:25
FILE "07 - Will The Revolution Come.wav" WAVE
INDEX 01 00:00:00
TRACK 08 AUDIO
TITLE "Another Day In Paradise"
PERFORMER "Reel Big Fish"
INDEX 00 02:22:50
FILE "08 - Another Day In Paradise.wav" WAVE
INDEX 01 00:00:00
TRACK 09 AUDIO
TITLE "Everybody's Drunk"
PERFORMER "Reel Big Fish"
INDEX 00 02:41:15
FILE "09 - Everybody's Drunk.wav" WAVE
INDEX 01 00:00:00
TRACK 10 AUDIO
TITLE "Please Don't Tell Her I Have A Girlfriend"
PERFORMER "Reel Big Fish"
INDEX 00 03:06:00
FILE "10 - Please Don't Tell Her I Have A Girlfriend.wav" WAVE
INDEX 01 00:00:00
TRACK 11 AUDIO
TITLE "Way Back"
PERFORMER "Reel Big Fish"
INDEX 00 02:55:35
FILE "11 - Way Back.wav" WAVE
INDEX 01 00:00:00
TRACK 12 AUDIO
TITLE "Hate You"
PERFORMER "Reel Big Fish"
INDEX 00 02:40:05
FILE "12 - Hate You.wav" WAVE
INDEX 01 00:00:00
TRACK 13 AUDIO
TITLE "Call You"
PERFORMER "Reel Big Fish"
INDEX 00 02:58:38
FILE "13 - Call You.wav" WAVE
INDEX 01 00:00:00
TRACK 14 AUDIO
TITLE "Why Do All Girls Think They're Fat"
PERFORMER "Reel Big Fish"
INDEX 00 03:12:00
FILE "14 - Why Do All Girls Think They're Fat.wav" WAVE
INDEX 01 00:00:00
TRACK 15 AUDIO
TITLE "I'm Her Man"
PERFORMER "Reel Big Fish"
INDEX 00 02:33:30
FILE "15 - I'm Her Man.wav" WAVE
INDEX 01 00:00:00
TRACK 16 AUDIO
TITLE "Till I Hit The Ground"
PERFORMER "Reel Big Fish"
INDEX 00 04:09:25
FILE "16 - Till I Hit The Ground.wav" WAVE
INDEX 01 00:00:00
TRACK 17 AUDIO
TITLE "Cannibal"
PERFORMER "Reel Big Fish"
INDEX 00 03:45:57
FILE "17 - Cannibal.wav" WAVE
INDEX 01 00:00:00
01. Nothin' But A Good Time (3:02)
02. Mama We're All Crazy Now (2:18)
03. Veronica Sawyer (3:26)
04. Authority Song (2:57)
05. Brown Eyed Girl (3:05)
06. The Long Run (3:37)
07. Won't Back Down (3:09)
08. Keep A Cool Head (2:13)
09. Monkey Man (2:30)
10. Talk Dirty To Me (3:43)
Exact Audio Copy V0.99 prebeta 4 from 23. January 2008 

EAC extraction logfile from 7. January 2009, 11:23

Reel Big Fish / Fame, Fortune and Fornication

Used drive : HL-DT-STBD-RE GGW-H20L Adapter: 0 ID: 2

Read mode : Secure
Utilize accurate stream : Yes
Defeat audio cache : Yes
Make use of C2 pointers : No

Read offset correction : 667
Overread into Lead-In and Lead-Out : No
Fill up missing offset samples with silence : Yes
Delete leading and trailing silent blocks : No
Null samples used in CRC calculations : Yes
Used interface : Native Win32 interface for Win NT & 2000
Gap handling : Appended to previous track

Used output format : User Defined Encoder
Selected bitrate : 768 kBit/s
Quality : High
Add ID3 tag : No
Command line compressor : C:\Program Files (x86)\Exact Audio Copy\FLAC\FLAC.EXE
Additional command line options : -V -8 -T "artist=%a" -T "title=%t" -T "album=%g" -T "date=%y" -T "tracknumber=%n" -T "genre=%m" %s

TOC of the extracted CD

Track | Start | Length | Start sector | End sector
---------------------------------------------------------
1 | 0:00.00 | 3:02.00 | 0 | 13649
2 | 3:02.00 | 2:17.42 | 13650 | 23966
3 | 5:19.42 | 3:25.65 | 23967 | 39406
4 | 8:45.32 | 2:56.50 | 39407 | 52656
5 | 11:42.07 | 3:04.63 | 52657 | 66519
6 | 14:46.70 | 3:36.60 | 66520 | 82779
7 | 18:23.55 | 3:09.30 | 82780 | 96984
8 | 21:33.10 | 2:13.15 | 96985 | 106974
9 | 23:46.25 | 2:29.55 | 106975 | 118204
10 | 26:16.05 | 3:43.07 | 118205 | 134936

Track 1

Filename C:\Users\James\Music\Reel Big Fish\Fame, Fortune and Fornication\01 - Nothin' But A Good Time.wav

Pre-gap length 0:00:02.00

Peak level 99.4 %
Track quality 100.0 %
Test CRC 3741A8B3
Copy CRC 3741A8B3
Track not present in AccurateRip database
Copy OK

Track 2

Filename C:\Users\James\Music\Reel Big Fish\Fame, Fortune and Fornication\02 - Mama We're All Crazy Now.wav

Pre-gap length 0:00:01.58

Peak level 99.4 %
Track quality 100.0 %
Test CRC C7DBE048
Copy CRC C7DBE048
Track not present in AccurateRip database
Copy OK

Track 3

Filename C:\Users\James\Music\Reel Big Fish\Fame, Fortune and Fornication\03 - Veronica Sawyer.wav

Pre-gap length 0:00:01.57

Peak level 99.4 %
Track quality 99.9 %
Test CRC F8658150
Copy CRC F8658150
Track not present in AccurateRip database
Copy OK

Track 4

Filename C:\Users\James\Music\Reel Big Fish\Fame, Fortune and Fornication\04 - Authority Song.wav

Pre-gap length 0:00:01.55

Peak level 99.4 %
Track quality 99.9 %
Test CRC 72C312A1
Copy CRC 72C312A1
Track not present in AccurateRip database
Copy OK

Track 5

Filename C:\Users\James\Music\Reel Big Fish\Fame, Fortune and Fornication\05 - Brown Eyed Girl.wav

Pre-gap length 0:00:01.57

Peak level 99.6 %
Track quality 100.0 %
Test CRC 0CC2DC2D
Copy CRC 0CC2DC2D
Track not present in AccurateRip database
Copy OK

Track 6

Filename C:\Users\James\Music\Reel Big Fish\Fame, Fortune and Fornication\06 - The Long Run.wav

Pre-gap length 0:00:01.58

Peak level 99.6 %
Track quality 99.9 %
Test CRC D2F3A929
Copy CRC D2F3A929
Track not present in AccurateRip database
Copy OK

Track 7

Filename C:\Users\James\Music\Reel Big Fish\Fame, Fortune and Fornication\07 - Won't Back Down.wav

Pre-gap length 0:00:01.58

Peak level 99.6 %
Track quality 100.0 %
Test CRC 8943CB54
Copy CRC 8943CB54
Track not present in AccurateRip database
Copy OK

Track 8

Filename C:\Users\James\Music\Reel Big Fish\Fame, Fortune and Fornication\08 - Keep A Cool Head.wav

Pre-gap length 0:00:01.60

Peak level 99.4 %
Track quality 100.0 %
Test CRC 03353B8D
Copy CRC 03353B8D
Track not present in AccurateRip database
Copy OK

Track 9

Filename C:\Users\James\Music\Reel Big Fish\Fame, Fortune and Fornication\09 - Monkey Man.wav

Pre-gap length 0:00:01.60

Peak level 99.6 %
Track quality 99.9 %
Test CRC 68437ED3
Copy CRC 68437ED3
Track not present in AccurateRip database
Copy OK

Track 10

Filename C:\Users\James\Music\Reel Big Fish\Fame, Fortune and Fornication\10 - Talk Dirty To Me.wav

Pre-gap length 0:00:01.58

Peak level 99.1 %
Track quality 100.0 %
Test CRC 5042487D
Copy CRC 5042487D
Track not present in AccurateRip database
Copy OK

None of the tracks are present in the AccurateRip database

No errors occurred

End of status report
REM GENRE Ska 
REM DATE 2009
REM DISCID 8207070A
REM COMMENT "ExactAudioCopy v0.99pb4"
PERFORMER "Reel Big Fish"
TITLE "Fame, Fortune and Fornication"
FILE "01 - Nothin' But A Good Time.wav" WAVE
TRACK 01 AUDIO
TITLE "Nothin' But A Good Time"
PERFORMER "Reel Big Fish"
ISRC USB760801073
INDEX 01 00:00:00
TRACK 02 AUDIO
TITLE "Mama We're All Crazy Now"
PERFORMER "Reel Big Fish"
ISRC USB760801074
INDEX 00 03:00:17
FILE "02 - Mama We're All Crazy Now.wav" WAVE
INDEX 01 00:00:00
TRACK 03 AUDIO
TITLE "Veronica Sawyer"
PERFORMER "Reel Big Fish"
ISRC USB760801075
INDEX 00 02:15:60
FILE "03 - Veronica Sawyer.wav" WAVE
INDEX 01 00:00:00
TRACK 04 AUDIO
TITLE "Authority Song"
PERFORMER "Reel Big Fish"
ISRC USB760801076
INDEX 00 03:24:10
FILE "04 - Authority Song.wav" WAVE
INDEX 01 00:00:00
TRACK 05 AUDIO
TITLE "Brown Eyed Girl"
PERFORMER "Reel Big Fish"
ISRC USB760801077
INDEX 00 02:54:68
FILE "05 - Brown Eyed Girl.wav" WAVE
INDEX 01 00:00:00
TRACK 06 AUDIO
TITLE "The Long Run"
PERFORMER "Reel Big Fish"
ISRC USB760801078
INDEX 00 03:03:05
FILE "06 - The Long Run.wav" WAVE
INDEX 01 00:00:00
TRACK 07 AUDIO
TITLE "Won't Back Down"
PERFORMER "Reel Big Fish"
ISRC USB760801079
INDEX 00 03:35:02
FILE "07 - Won't Back Down.wav" WAVE
INDEX 01 00:00:00
TRACK 08 AUDIO
TITLE "Keep A Cool Head"
PERFORMER "Reel Big Fish"
ISRC USB760801080
INDEX 00 03:07:45
FILE "08 - Keep A Cool Head.wav" WAVE
INDEX 01 00:00:00
TRACK 09 AUDIO
TITLE "Monkey Man"
PERFORMER "Reel Big Fish"
ISRC USB760801081
INDEX 00 02:11:30
FILE "09 - Monkey Man.wav" WAVE
INDEX 01 00:00:00
TRACK 10 AUDIO
TITLE "Talk Dirty To Me"
PERFORMER "Reel Big Fish"
ISRC USB760801082
INDEX 00 02:27:72
FILE "10 - Talk Dirty To Me.wav" WAVE
INDEX 01 00:00:00
01. Sell Out (3:54)
02. Take On Me (3:19)
03. Beer (3:51)
04. She Has A Girlfriend Now (3:08)
05. Everything Sucks (2:54)
06. Trendy (2:39)
07. I Want Your Girlfriend To Be My Girlfriend Too (2:49)
08. In The Pit (2:44)
09. The Set Up (You Need This) (4:18)
10. Somebody Hates Me (3:25)
11. You Don't Know (3:16)
12. Suckers (This One's For You) (3:40)
13. Where Have You Been (3:59)
14. Good Thing (3:24)
15. Ban The Tube Top (3:04)
16. Don't Start A Band (3:18)
17. Your Guts (I Hate 'Em) (2:03)
18. Another F.U. Song (1:03)
19. New Version Of You (New Version) (3:21)
20. Party Down (4:08)
21. Slow Down (Single Version) (4:20)
22. Brown Eyed Girl (3:04)
Exact Audio Copy V0.99 prebeta 5 from 4. May 2009 

EAC extraction logfile from 22. July 2010, 1:13

Reel Big Fish / A Best Of Us...For The Rest Of Us

Used drive : MATSHITAUJDA765 DVD/CDRW Adapter: 1 ID: 0

Read mode : Secure
Utilize accurate stream : Yes
Defeat audio cache : Yes
Make use of C2 pointers : No

Read offset correction : 1393
Overread into Lead-In and Lead-Out : No
Fill up missing offset samples with silence : Yes
Delete leading and trailing silent blocks : No
Null samples used in CRC calculations : Yes
Used interface : Native Win32 interface for Win NT & 2000
Gap handling : Appended to previous track

Used output format : User Defined Encoder
Selected bitrate : 320 kBit/s
Quality : High
Add ID3 tag : No
Command line compressor : C:\Program Files\Exact Audio Copy\Flac\flac.exe
Additional command line options : -V -8 -T "artist=%a" -T "title=%t" -T "album=%g" -T "date=%y" -T "tracknumber=%n" -T "genre=%m" %s

TOC of the extracted CD

Track | Start | Length | Start sector | End sector
---------------------------------------------------------
1 | 0:00.00 | 3:54.23 | 0 | 17572
2 | 3:54.23 | 3:19.19 | 17573 | 32516
3 | 7:13.42 | 3:51.28 | 32517 | 49869
4 | 11:04.70 | 3:07.47 | 49870 | 63941
5 | 14:12.42 | 2:54.32 | 63942 | 77023
6 | 17:06.74 | 2:38.73 | 77024 | 88946
7 | 19:45.72 | 2:49.19 | 88947 | 101640
8 | 22:35.16 | 2:44.05 | 101641 | 113945
9 | 25:19.21 | 4:18.15 | 113946 | 133310
10 | 29:37.36 | 3:24.69 | 133311 | 148679
11 | 33:02.30 | 3:15.64 | 148680 | 163368
12 | 36:18.19 | 3:39.42 | 163369 | 179835
13 | 39:57.61 | 3:59.26 | 179836 | 197786
14 | 43:57.12 | 3:23.45 | 197787 | 213056
15 | 47:20.57 | 3:03.42 | 213057 | 226823
16 | 50:24.24 | 3:18.10 | 226824 | 241683
17 | 53:42.34 | 2:02.41 | 241684 | 250874
18 | 55:45.00 | 1:03.30 | 250875 | 255629
19 | 56:48.30 | 3:20.53 | 255630 | 270682
20 | 60:09.08 | 4:08.03 | 270683 | 289285
21 | 64:17.11 | 4:20.02 | 289286 | 308787
22 | 68:37.13 | 3:03.39 | 308788 | 322551

Track 1

Filename C:\Documents and Settings\Desktop\best of us\01 - Sell Out.wav

Pre-gap length 0:00:02.00

Peak level 97.6 %
Track quality 100.0 %
Test CRC AACF30C3
Copy CRC AACF30C3
Copy OK

Track 2

Filename C:\Documents and Settings\Desktop\best of us\02 - Take On Me.wav

Peak level 97.5 %
Track quality 99.9 %
Test CRC 28D2EAEF
Copy CRC 28D2EAEF
Copy OK

Track 3

Filename C:\Documents and Settings\Desktop\best of us\03 - Beer.wav

Peak level 97.6 %
Track quality 100.0 %
Test CRC BC7FBCE9
Copy CRC BC7FBCE9
Copy OK

Track 4

Filename C:\Documents and Settings\Desktop\best of us\04 - She Has A Girlfriend Now.wav

Peak level 97.7 %
Track quality 99.9 %
Test CRC 9056DAB7
Copy CRC 9056DAB7
Copy OK

Track 5

Filename C:\Documents and Settings\Desktop\best of us\05 - Everything Sucks.wav

Peak level 97.7 %
Track quality 100.0 %
Test CRC 6DA9DD13
Copy CRC 6DA9DD13
Copy OK

Track 6

Filename C:\Documents and Settings\Desktop\best of us\06 - Trendy.wav

Peak level 97.6 %
Track quality 100.0 %
Test CRC 768AB925
Copy CRC 768AB925
Copy OK

Track 7

Filename C:\Documents and Settings\Desktop\best of us\07 - I Want Your Girlfriend To Be My Girlfriend Too.wav

Peak level 97.5 %
Track quality 100.0 %
Test CRC AF23AC3C
Copy CRC AF23AC3C
Copy OK

Track 8

Filename C:\Documents and Settings\Desktop\best of us\08 - In The Pit.wav

Peak level 97.7 %
Track quality 100.0 %
Test CRC 014AC541
Copy CRC 014AC541
Copy OK

Track 9

Filename C:\Documents and Settings\Desktop\best of us\09 - The Set Up (You Need This).wav

Peak level 97.7 %
Track quality 100.0 %
Test CRC E7087716
Copy CRC E7087716
Copy OK

Track 10

Filename C:\Documents and Settings\Desktop\best of us\10 - Somebody Hates Me.wav

Peak level 97.6 %
Track quality 100.0 %
Test CRC 40E390AF
Copy CRC 40E390AF
Copy OK

Track 11

Filename C:\Documents and Settings\Desktop\best of us\11 - You Don't Know.wav

Peak level 97.5 %
Track quality 100.0 %
Test CRC 4E02BC9C
Copy CRC 4E02BC9C
Copy OK

Track 12

Filename C:\Documents and Settings\Desktop\best of us\12 - Suckers (This One's For You).wav

Peak level 97.4 %
Track quality 100.0 %
Test CRC E6048589
Copy CRC E6048589
Copy OK

Track 13

Filename C:\Documents and Settings\Desktop\best of us\13 - Where Have You Been.wav

Peak level 97.3 %
Track quality 100.0 %
Test CRC EEAEE311
Copy CRC EEAEE311
Copy OK

Track 14

Filename C:\Documents and Settings\Desktop\best of us\14 - Good Thing.wav

Peak level 97.5 %
Track quality 100.0 %
Test CRC 19B20F6F
Copy CRC 19B20F6F
Copy OK

Track 15

Filename C:\Documents and Settings\Desktop\best of us\15 - Ban The Tube Top.wav

Peak level 97.6 %
Track quality 100.0 %
Test CRC D8E862A4
Copy CRC D8E862A4
Copy OK

Track 16

Filename C:\Documents and Settings\Desktop\best of us\16 - Don't Start A Band.wav

Peak level 97.5 %
Track quality 100.0 %
Test CRC 61EFD527
Copy CRC 61EFD527
Copy OK

Track 17

Filename C:\Documents and Settings\Desktop\best of us\17 - Your Guts (I Hate 'Em).wav

Peak level 97.5 %
Track quality 99.9 %
Test CRC AC9FEC91
Copy CRC AC9FEC91
Copy OK

Track 18

Filename C:\Documents and Settings\Desktop\best of us\18 - Another F.U. Song.wav

Peak level 97.3 %
Track quality 99.8 %
Test CRC DE30AD2B
Copy CRC DE30AD2B
Copy OK

Track 19

Filename C:\Documents and Settings\Desktop\best of us\19 - New Version Of You (New Version).wav

Peak level 97.5 %
Track quality 100.0 %
Test CRC 9CA66B79
Copy CRC 9CA66B79
Copy OK

Track 20

Filename C:\Documents and Settings\Desktop\best of us\20 - Party Down.wav

Peak level 97.6 %
Track quality 99.9 %
Test CRC 1DB36D41
Copy CRC 1DB36D41
Copy OK

Track 21

Filename C:\Documents and Settings\Desktop\best of us\21 - Slow Down (Single Version).wav

Peak level 98.2 %
Track quality 100.0 %
Test CRC 6615F4EB
Copy CRC 6615F4EB
Copy OK

Track 22

Filename C:\Documents and Settings\Desktop\best of us\22 - Brown Eyed Girl.wav

Peak level 97.2 %
Track quality 100.0 %
Test CRC E07E3859
Copy CRC E07E3859
Copy OK

No errors occurred

End of status report
REM GENRE Ska 
REM DATE 2010
REM DISCID 4810CC16
REM COMMENT "ExactAudioCopy v0.99pb5"
PERFORMER "Reel Big Fish"
TITLE "A Best Of Us...For The Rest Of Us"
FILE "01 - Sell Out.wav" WAVE
TRACK 01 AUDIO
TITLE "Sell Out"
PERFORMER "Reel Big Fish"
INDEX 01 00:00:00
FILE "02 - Take On Me.wav" WAVE
TRACK 02 AUDIO
TITLE "Take On Me"
PERFORMER "Reel Big Fish"
INDEX 01 00:00:00
FILE "03 - Beer.wav" WAVE
TRACK 03 AUDIO
TITLE "Beer"
PERFORMER "Reel Big Fish"
INDEX 01 00:00:00
FILE "04 - She Has A Girlfriend Now.wav" WAVE
TRACK 04 AUDIO
TITLE "She Has A Girlfriend Now"
PERFORMER "Reel Big Fish"
INDEX 01 00:00:00
FILE "05 - Everything Sucks.wav" WAVE
TRACK 05 AUDIO
TITLE "Everything Sucks"
PERFORMER "Reel Big Fish"
INDEX 01 00:00:00
FILE "06 - Trendy.wav" WAVE
TRACK 06 AUDIO
TITLE "Trendy"
PERFORMER "Reel Big Fish"
INDEX 01 00:00:00
FILE "07 - I Want Your Girlfriend To Be My Girlfriend Too.wav" WAVE
TRACK 07 AUDIO
TITLE "I Want Your Girlfriend To Be My Girlfriend Too"
PERFORMER "Reel Big Fish"
INDEX 01 00:00:00
FILE "08 - In The Pit.wav" WAVE
TRACK 08 AUDIO
TITLE "In The Pit"
PERFORMER "Reel Big Fish"
INDEX 01 00:00:00
FILE "09 - The Set Up (You Need This).wav" WAVE
TRACK 09 AUDIO
TITLE "The Set Up (You Need This)"
PERFORMER "Reel Big Fish"
INDEX 01 00:00:00
FILE "10 - Somebody Hates Me.wav" WAVE
TRACK 10 AUDIO
TITLE "Somebody Hates Me"
PERFORMER "Reel Big Fish"
INDEX 01 00:00:00
FILE "11 - You Don't Know.wav" WAVE
TRACK 11 AUDIO
TITLE "You Don't Know"
PERFORMER "Reel Big Fish"
INDEX 01 00:00:00
FILE "12 - Suckers (This One's For You).wav" WAVE
TRACK 12 AUDIO
TITLE "Suckers (This One's For You)"
PERFORMER "Reel Big Fish"
INDEX 01 00:00:00
FILE "13 - Where Have You Been.wav" WAVE
TRACK 13 AUDIO
TITLE "Where Have You Been"
PERFORMER "Reel Big Fish"
INDEX 01 00:00:00
FILE "14 - Good Thing.wav" WAVE
TRACK 14 AUDIO
TITLE "Good Thing"
PERFORMER "Reel Big Fish"
INDEX 01 00:00:00
FILE "15 - Ban The Tube Top.wav" WAVE
TRACK 15 AUDIO
TITLE "Ban The Tube Top"
PERFORMER "Reel Big Fish"
INDEX 01 00:00:00
FILE "16 - Don't Start A Band.wav" WAVE
TRACK 16 AUDIO
TITLE "Don't Start A Band"
PERFORMER "Reel Big Fish"
INDEX 01 00:00:00
FILE "17 - Your Guts (I Hate 'Em).wav" WAVE
TRACK 17 AUDIO
TITLE "Your Guts (I Hate 'Em)"
PERFORMER "Reel Big Fish"
INDEX 01 00:00:00
FILE "18 - Another F.U. Song.wav" WAVE
TRACK 18 AUDIO
TITLE "Another F.U. Song"
PERFORMER "Reel Big Fish"
INDEX 01 00:00:00
FILE "19 - New Version Of You (New Version).wav" WAVE
TRACK 19 AUDIO
TITLE "New Version Of You (New Version)"
PERFORMER "Reel Big Fish"
INDEX 01 00:00:00
FILE "20 - Party Down.wav" WAVE
TRACK 20 AUDIO
TITLE "Party Down"
PERFORMER "Reel Big Fish"
INDEX 01 00:00:00
FILE "21 - Slow Down (Single Version).wav" WAVE
TRACK 21 AUDIO
TITLE "Slow Down (Single Version)"
PERFORMER "Reel Big Fish"
INDEX 01 00:00:00
FILE "22 - Brown Eyed Girl.wav" WAVE
TRACK 22 AUDIO
TITLE "Brown Eyed Girl"
PERFORMER "Reel Big Fish"
INDEX 01 00:00:00
01. Sell Out (3:55)
02. Beer (3:44)
03. Take On Me (3:15)
04. She Has A Girlfriend Now (3:04)
05. Another F.U. Song (1:04)
06. Your Guts (I Hate 'Em) (1:55)
07. Suckers (3:34)
08. Where Have You Been (3:54)
09. Don't Start A Band (3:18)
10. S.R. (1:38)
11. 241 (2:40)
12. The Kids Don't Like It (3:26)
13. Scott's A Dork (3:05)
14. Nothin' (2:07)
Exact Audio Copy V0.99 prebeta 5 from 4. May 2009 

EAC extraction logfile from 22. July 2010, 1:49

Reel Big Fish / A Best Of Us...For The Rest Of Us (Skacoustic)

Used drive : MATSHITAUJDA765 DVD/CDRW Adapter: 1 ID: 0

Read mode : Secure
Utilize accurate stream : Yes
Defeat audio cache : Yes
Make use of C2 pointers : No

Read offset correction : 1393
Overread into Lead-In and Lead-Out : No
Fill up missing offset samples with silence : Yes
Delete leading and trailing silent blocks : No
Null samples used in CRC calculations : Yes
Used interface : Native Win32 interface for Win NT & 2000
Gap handling : Appended to previous track

Used output format : User Defined Encoder
Selected bitrate : 320 kBit/s
Quality : High
Add ID3 tag : No
Command line compressor : C:\Program Files\Exact Audio Copy\Flac\flac.exe
Additional command line options : -V -8 -T "artist=%a" -T "title=%t" -T "album=%g" -T "date=%y" -T "tracknumber=%n" -T "genre=%m" %s

TOC of the extracted CD

Track | Start | Length | Start sector | End sector
---------------------------------------------------------
1 | 0:00.00 | 3:54.62 | 0 | 17611
2 | 3:54.62 | 3:44.30 | 17612 | 34441
3 | 7:39.17 | 3:15.20 | 34442 | 49086
4 | 10:54.37 | 3:04.19 | 49087 | 62905
5 | 13:58.56 | 1:03.44 | 62906 | 67674
6 | 15:02.25 | 1:55.30 | 67675 | 76329
7 | 16:57.55 | 3:34.22 | 76330 | 92401
8 | 20:32.02 | 3:53.48 | 92402 | 109924
9 | 24:25.50 | 3:17.62 | 109925 | 124761
10 | 27:43.37 | 1:38.17 | 124762 | 132128
11 | 29:21.54 | 2:39.46 | 132129 | 144099
12 | 32:01.25 | 3:26.17 | 144100 | 159566
13 | 35:27.42 | 3:04.69 | 159567 | 173435
14 | 38:32.36 | 2:07.27 | 173436 | 182987

Track 1

Filename C:\Documents and Settings\Desktop\skacoustic\01 - Sell Out.wav

Pre-gap length 0:00:02.00

Peak level 98.4 %
Track quality 100.0 %
Test CRC 13711FB7
Copy CRC 13711FB7
Copy OK

Track 2

Filename C:\Documents and Settings\Desktop\skacoustic\02 - Beer.wav

Peak level 98.4 %
Track quality 100.0 %
Test CRC 39F5DC0D
Copy CRC 39F5DC0D
Copy OK

Track 3

Filename C:\Documents and Settings\Desktop\skacoustic\03 - Take On Me.wav

Peak level 98.4 %
Track quality 99.9 %
Test CRC 1BBE0CAE
Copy CRC 1BBE0CAE
Copy OK

Track 4

Filename C:\Documents and Settings\Desktop\skacoustic\04 - She Has A Girlfriend Now.wav

Peak level 98.4 %
Track quality 100.0 %
Test CRC 13464CFF
Copy CRC 13464CFF
Copy OK

Track 5

Filename C:\Documents and Settings\Desktop\skacoustic\05 - Another F.U. Song.wav

Peak level 98.3 %
Track quality 100.0 %
Test CRC 3F31DB2F
Copy CRC 3F31DB2F
Copy OK

Track 6

Filename C:\Documents and Settings\Desktop\skacoustic\06 - Your Guts (I Hate 'Em).wav

Peak level 98.4 %
Track quality 100.0 %
Test CRC FFB896AA
Copy CRC FFB896AA
Copy OK

Track 7

Filename C:\Documents and Settings\Desktop\skacoustic\07 - Suckers.wav

Peak level 98.4 %
Track quality 100.0 %
Test CRC 6851FCFC
Copy CRC 6851FCFC
Copy OK

Track 8

Filename C:\Documents and Settings\Desktop\skacoustic\08 - Where Have You Been .wav

Peak level 98.4 %
Track quality 100.0 %
Test CRC 68C1D55F
Copy CRC 68C1D55F
Copy OK

Track 9

Filename C:\Documents and Settings\Desktop\skacoustic\09 - Don't Start A Band.wav

Peak level 98.4 %
Track quality 100.0 %
Test CRC E9DDE2D6
Copy CRC E9DDE2D6
Copy OK

Track 10

Filename C:\Documents and Settings\Desktop\skacoustic\10 - S.R..wav

Peak level 98.3 %
Track quality 100.0 %
Test CRC 15126DFB
Copy CRC 15126DFB
Copy OK

Track 11

Filename C:\Documents and Settings\Desktop\skacoustic\11 - 241.wav

Peak level 98.4 %
Track quality 100.0 %
Test CRC 3B095F06
Copy CRC 3B095F06
Copy OK

Track 12

Filename C:\Documents and Settings\Desktop\skacoustic\12 - The Kids Don't Like It.wav

Peak level 98.4 %
Track quality 99.9 %
Test CRC EA2E7C5D
Copy CRC EA2E7C5D
Copy OK

Track 13

Filename C:\Documents and Settings\Desktop\skacoustic\13 - Scott's A Dork.wav

Pre-gap length 0:00:00.74

Peak level 98.4 %
Track quality 100.0 %
Test CRC 471A4892
Copy CRC 471A4892
Copy OK

Track 14

Filename C:\Documents and Settings\Desktop\skacoustic\14 - Nothin'.wav

Pre-gap length 0:00:01.74

Peak level 98.3 %
Track quality 100.0 %
Test CRC 0205CDA3
Copy CRC 0205CDA3
Copy OK

No errors occurred

End of status report
Exact Audio Copy V0.99 prebeta 5 from 4. May 2009 

EAC extraction logfile from 22. July 2010, 1:49

Reel Big Fish / A Best Of Us...For The Rest Of Us (Skacoustic)

Used drive : MATSHITAUJDA765 DVD/CDRW Adapter: 1 ID: 0

Read mode : Secure
Utilize accurate stream : Yes
Defeat audio cache : Yes
Make use of C2 pointers : No

Read offset correction : 1393
Overread into Lead-In and Lead-Out : No
Fill up missing offset samples with silence : Yes
Delete leading and trailing silent blocks : No
Null samples used in CRC calculations : Yes
Used interface : Native Win32 interface for Win NT & 2000
Gap handling : Appended to previous track

Used output format : User Defined Encoder
Selected bitrate : 320 kBit/s
Quality : High
Add ID3 tag : No
Command line compressor : C:\Program Files\Exact Audio Copy\Flac\flac.exe
Additional command line options : -V -8 -T "artist=%a" -T "title=%t" -T "album=%g" -T "date=%y" -T "tracknumber=%n" -T "genre=%m" %s

TOC of the extracted CD

Track | Start | Length | Start sector | End sector
---------------------------------------------------------
1 | 0:00.00 | 3:54.62 | 0 | 17611
2 | 3:54.62 | 3:44.30 | 17612 | 34441
3 | 7:39.17 | 3:15.20 | 34442 | 49086
4 | 10:54.37 | 3:04.19 | 49087 | 62905
5 | 13:58.56 | 1:03.44 | 62906 | 67674
6 | 15:02.25 | 1:55.30 | 67675 | 76329
7 | 16:57.55 | 3:34.22 | 76330 | 92401
8 | 20:32.02 | 3:53.48 | 92402 | 109924
9 | 24:25.50 | 3:17.62 | 109925 | 124761
10 | 27:43.37 | 1:38.17 | 124762 | 132128
11 | 29:21.54 | 2:39.46 | 132129 | 144099
12 | 32:01.25 | 3:26.17 | 144100 | 159566
13 | 35:27.42 | 3:04.69 | 159567 | 173435
14 | 38:32.36 | 2:07.27 | 173436 | 182987

Track 1

Filename C:\Documents and Settings\Desktop\skacoustic\01 - Sell Out.wav

Pre-gap length 0:00:02.00

Peak level 98.4 %
Track quality 100.0 %
Test CRC 13711FB7
Copy CRC 13711FB7
Copy OK

Track 2

Filename C:\Documents and Settings\Desktop\skacoustic\02 - Beer.wav

Peak level 98.4 %
Track quality 100.0 %
Test CRC 39F5DC0D
Copy CRC 39F5DC0D
Copy OK

Track 3

Filename C:\Documents and Settings\Desktop\skacoustic\03 - Take On Me.wav

Peak level 98.4 %
Track quality 99.9 %
Test CRC 1BBE0CAE
Copy CRC 1BBE0CAE
Copy OK

Track 4

Filename C:\Documents and Settings\Desktop\skacoustic\04 - She Has A Girlfriend Now.wav

Peak level 98.4 %
Track quality 100.0 %
Test CRC 13464CFF
Copy CRC 13464CFF
Copy OK

Track 5

Filename C:\Documents and Settings\Desktop\skacoustic\05 - Another F.U. Song.wav

Peak level 98.3 %
Track quality 100.0 %
Test CRC 3F31DB2F
Copy CRC 3F31DB2F
Copy OK

Track 6

Filename C:\Documents and Settings\Desktop\skacoustic\06 - Your Guts (I Hate 'Em).wav

Peak level 98.4 %
Track quality 100.0 %
Test CRC FFB896AA
Copy CRC FFB896AA
Copy OK

Track 7

Filename C:\Documents and Settings\Desktop\skacoustic\07 - Suckers.wav

Peak level 98.4 %
Track quality 100.0 %
Test CRC 6851FCFC
Copy CRC 6851FCFC
Copy OK

Track 8

Filename C:\Documents and Settings\Desktop\skacoustic\08 - Where Have You Been .wav

Peak level 98.4 %
Track quality 100.0 %
Test CRC 68C1D55F
Copy CRC 68C1D55F
Copy OK

Track 9

Filename C:\Documents and Settings\Desktop\skacoustic\09 - Don't Start A Band.wav

Peak level 98.4 %
Track quality 100.0 %
Test CRC E9DDE2D6
Copy CRC E9DDE2D6
Copy OK

Track 10

Filename C:\Documents and Settings\Desktop\skacoustic\10 - S.R..wav

Peak level 98.3 %
Track quality 100.0 %
Test CRC 15126DFB
Copy CRC 15126DFB
Copy OK

Track 11

Filename C:\Documents and Settings\Desktop\skacoustic\11 - 241.wav

Peak level 98.4 %
Track quality 100.0 %
Test CRC 3B095F06
Copy CRC 3B095F06
Copy OK

Track 12

Filename C:\Documents and Settings\Desktop\skacoustic\12 - The Kids Don't Like It.wav

Peak level 98.4 %
Track quality 99.9 %
Test CRC EA2E7C5D
Copy CRC EA2E7C5D
Copy OK

Track 13

Filename C:\Documents and Settings\Desktop\skacoustic\13 - Scott's A Dork.wav

Pre-gap length 0:00:00.74

Peak level 98.4 %
Track quality 100.0 %
Test CRC 471A4892
Copy CRC 471A4892
Copy OK

Track 14

Filename C:\Documents and Settings\Desktop\skacoustic\14 - Nothin'.wav

Pre-gap length 0:00:01.74

Peak level 98.3 %
Track quality 100.0 %
Test CRC 0205CDA3
Copy CRC 0205CDA3
Copy OK

No errors occurred

End of status report
01. Everyone Else is an Asshole (4:11)
02. Punisher (4:01)
03. She's Not the End of the World (3:43)
04. Don't Let Me Down Gently (2:25)
05. I Know You Too Well to Like You Anymore (4:25)
06. Hiding in My Headphones (4:47)
07. I Dare You to Break My Heart (5:15)
08. Your Girlfriend Sucks (3:30)
09. Don't Stop Skankin' (4:00)
10. Famous Last Words (3:50)
11. Lost Cause (4:21)
12. I Love / You Suck (3:13)
13. P.S. I Hate You (4:05)
14. The Promise (3:15)
Exact Audio Copy V1.0 beta 3 from 29. August 2011 

EAC extraction logfile from 18. July 2012, 0:55

Reel Big Fish / Candy Coated Fury

Used drive : HL-DT-STBD-RE UH10LS20 Adapter: 3 ID: 1

Read mode : Secure
Utilize accurate stream : Yes
Defeat audio cache : Yes
Make use of C2 pointers : No

Read offset correction : 667
Overread into Lead-In and Lead-Out : No
Fill up missing offset samples with silence : Yes
Delete leading and trailing silent blocks : No
Null samples used in CRC calculations : Yes
Used interface : Native Win32 interface for Win NT & 2000
Gap handling : Appended to previous track

Used output format : User Defined Encoder
Selected bitrate : 1024 kBit/s
Quality : High
Add ID3 tag : No
Command line compressor : C:\Program Files\Exact Audio Copy\Flac\flac.exe
Additional command line options : -8 -V -T "ARTIST=%artist%" -T "TITLE=%title%" -T "ALBUM=%albumtitle%" -T "DATE=%year%" -T "TRACKNUMBER=%tracknr%" -T "GENRE=%genre%" -T "PERFORMER=%albuminterpret%" -T "COMPOSER=%composer%" %haslyrics%--tag-from-file=LYRICS="%lyricsfile%"%haslyrics% -T "ALBUMARTIST=%albumartist%" -T "DISCNUMBER=%cdnumber%" -T "TOTALDISCS=%totalcds%" -T "TOTALTRACKS=%numtracks%" -T "COMMENT=%comment%" %source% -o %dest%

TOC of the extracted CD

Track | Start | Length | Start sector | End sector
---------------------------------------------------------
1 | 0:00.00 | 4:11.07 | 0 | 18831
2 | 4:11.07 | 4:00.41 | 18832 | 36872
3 | 8:11.48 | 3:42.46 | 36873 | 53568
4 | 11:54.19 | 2:25.21 | 53569 | 64464
5 | 14:19.40 | 4:25.05 | 64465 | 84344
6 | 18:44.45 | 4:47.08 | 84345 | 105877
7 | 23:31.53 | 5:15.11 | 105878 | 129513
8 | 28:46.64 | 3:30.04 | 129514 | 145267
9 | 32:16.68 | 3:59.59 | 145268 | 163251
10 | 36:16.52 | 3:50.29 | 163252 | 180530
11 | 40:07.06 | 4:20.69 | 180531 | 200099
12 | 44:28.00 | 3:13.35 | 200100 | 214609
13 | 47:41.35 | 4:04.71 | 214610 | 232980
14 | 51:46.31 | 3:14.45 | 232981 | 247575

Track 1

Filename E:\FLAC Albums\Reel Big Fish\Reel Big Fish - 2012 - Candy Coated Fury\01 - Everyone Else is an Asshole.wav

Pre-gap length 0:00:02.00

Peak level 100.0 %
Extraction speed 1.1 X
Track quality 100.0 %
Test CRC 2F309CCF
Copy CRC 2F309CCF
Track not present in AccurateRip database
Copy OK

Track 2

Filename E:\FLAC Albums\Reel Big Fish\Reel Big Fish - 2012 - Candy Coated Fury\02 - Punisher.wav

Pre-gap length 0:00:02.00

Peak level 100.0 %
Extraction speed 1.3 X
Track quality 100.0 %
Test CRC 2D45EF77
Copy CRC 2D45EF77
Track not present in AccurateRip database
Copy OK

Track 3

Filename E:\FLAC Albums\Reel Big Fish\Reel Big Fish - 2012 - Candy Coated Fury\03 - She's Not the End of the World.wav

Pre-gap length 0:00:02.00

Peak level 100.0 %
Extraction speed 1.4 X
Track quality 100.0 %
Test CRC EC36164C
Copy CRC EC36164C
Track not present in AccurateRip database
Copy OK

Track 4

Filename E:\FLAC Albums\Reel Big Fish\Reel Big Fish - 2012 - Candy Coated Fury\04 - Don't Let Me Down Gently.wav

Pre-gap length 0:00:02.00

Peak level 100.0 %
Extraction speed 1.3 X
Track quality 100.0 %
Test CRC 102A9A41
Copy CRC 102A9A41
Track not present in AccurateRip database
Copy OK

Track 5

Filename E:\FLAC Albums\Reel Big Fish\Reel Big Fish - 2012 - Candy Coated Fury\05 - I Know You Too Well to Like You Anymore.wav

Pre-gap length 0:00:02.00

Peak level 100.0 %
Extraction speed 1.6 X
Track quality 100.0 %
Test CRC F7C51E14
Copy CRC F7C51E14
Track not present in AccurateRip database
Copy OK

Track 6

Filename E:\FLAC Albums\Reel Big Fish\Reel Big Fish - 2012 - Candy Coated Fury\06 - Hiding in My Headphones.wav

Pre-gap length 0:00:02.00

Peak level 100.0 %
Extraction speed 1.7 X
Track quality 100.0 %
Test CRC CB39BD9A
Copy CRC CB39BD9A
Track not present in AccurateRip database
Copy OK

Track 7

Filename E:\FLAC Albums\Reel Big Fish\Reel Big Fish - 2012 - Candy Coated Fury\07 - I Dare You to Break My Heart.wav

Pre-gap length 0:00:02.00

Peak level 100.0 %
Extraction speed 1.8 X
Track quality 100.0 %
Test CRC 4070AD8C
Copy CRC 4070AD8C
Track not present in AccurateRip database
Copy OK

Track 8

Filename E:\FLAC Albums\Reel Big Fish\Reel Big Fish - 2012 - Candy Coated Fury\08 - Your Girlfriend Sucks.wav

Pre-gap length 0:00:02.00

Peak level 100.0 %
Extraction speed 1.8 X
Track quality 100.0 %
Test CRC 22E1CE1E
Copy CRC 22E1CE1E
Track not present in AccurateRip database
Copy OK

Track 9

Filename E:\FLAC Albums\Reel Big Fish\Reel Big Fish - 2012 - Candy Coated Fury\09 - Don't Stop Skankin'.wav

Pre-gap length 0:00:02.00

Peak level 100.0 %
Extraction speed 1.9 X
Track quality 100.0 %
Test CRC E4C7784B
Copy CRC E4C7784B
Track not present in AccurateRip database
Copy OK

Track 10

Filename E:\FLAC Albums\Reel Big Fish\Reel Big Fish - 2012 - Candy Coated Fury\10 - Famous Last Words.wav

Pre-gap length 0:00:02.00

Peak level 100.0 %
Extraction speed 1.7 X
Track quality 99.9 %
Test CRC 90D77BDB
Copy CRC 90D77BDB
Track not present in AccurateRip database
Copy OK

Track 11

Filename E:\FLAC Albums\Reel Big Fish\Reel Big Fish - 2012 - Candy Coated Fury\11 - Lost Cause.wav

Pre-gap length 0:00:02.00

Peak level 100.0 %
Extraction speed 1.8 X
Track quality 99.9 %
Test CRC 552E806D
Copy CRC 552E806D
Track not present in AccurateRip database
Copy OK

Track 12

Filename E:\FLAC Albums\Reel Big Fish\Reel Big Fish - 2012 - Candy Coated Fury\12 - I Love , You Suck.wav

Pre-gap length 0:00:02.00

Peak level 100.0 %
Extraction speed 2.0 X
Track quality 100.0 %
Test CRC 28AA2DB6
Copy CRC 28AA2DB6
Track not present in AccurateRip database
Copy OK

Track 13

Filename E:\FLAC Albums\Reel Big Fish\Reel Big Fish - 2012 - Candy Coated Fury\13 - P.S. I Hate You.wav

Pre-gap length 0:00:02.00

Peak level 100.0 %
Extraction speed 2.2 X
Track quality 100.0 %
Test CRC 572AEF53
Copy CRC 572AEF53
Track not present in AccurateRip database
Copy OK

Track 14

Filename E:\FLAC Albums\Reel Big Fish\Reel Big Fish - 2012 - Candy Coated Fury\14 - The Promise.wav

Pre-gap length 0:00:02.00

Peak level 100.0 %
Extraction speed 2.1 X
Track quality 100.0 %
Test CRC 08E09A23
Copy CRC 08E09A23
Track not present in AccurateRip database
Copy OK

None of the tracks are present in the AccurateRip database

No errors occurred

End of status report

---- CUETools DB Plugin V2.1.3

[CTDB TOCID: jWIpY9Lc4tH60gU1tv8hVX36FvA-] found, Submit result: jWIpY9Lc4tH60gU1tv8hVX36FvA- has been confirmed
[1d0c6ab6] (1/1) Accurately ripped

==== Log checksum E84919C26135E7564781AFF7875FB8F5FBA36E08551CD89119FD4609E63FAAF3 ====
REM GENRE Ska 
REM DATE 2012
REM DISCID C20CE50E
REM COMMENT "ExactAudioCopy v1.0b3"
FILE "01 - Everyone Else is an Asshole.flac" WAVE
TRACK 01 AUDIO
INDEX 01 00:00:00
FILE "02 - Punisher.flac" WAVE
TRACK 02 AUDIO
INDEX 01 00:00:00
FILE "03 - She's Not the End of the World.flac" WAVE
TRACK 03 AUDIO
INDEX 01 00:00:00
FILE "04 - Don't Let Me Down Gently.flac" WAVE
TRACK 04 AUDIO
INDEX 01 00:00:00
FILE "05 - I Know You Too Well to Like You Anymore.flac" WAVE
TRACK 05 AUDIO
INDEX 01 00:00:00
FILE "06 - Hiding in My Headphones.flac" WAVE
TRACK 06 AUDIO
INDEX 01 00:00:00
FILE "07 - I Dare You to Break My Heart.flac" WAVE
TRACK 07 AUDIO
INDEX 01 00:00:00
FILE "08 - Your Girlfriend Sucks.flac" WAVE
TRACK 08 AUDIO
INDEX 01 00:00:00
FILE "09 - Don't Stop Skankin'.flac" WAVE
TRACK 09 AUDIO
INDEX 01 00:00:00
FILE "10 - Famous Last Words.flac" WAVE
TRACK 10 AUDIO
INDEX 01 00:00:00
FILE "11 - Lost Cause.flac" WAVE
TRACK 11 AUDIO
INDEX 01 00:00:00
FILE "12 - I Love , You Suck.flac" WAVE
TRACK 12 AUDIO
INDEX 01 00:00:00
FILE "13 - P.S. I Hate You.flac" WAVE
TRACK 13 AUDIO
INDEX 01 00:00:00
FILE "14 - The Promise.flac" WAVE
TRACK 14 AUDIO
INDEX 01 00:00:00
info [Профиль]  [ЛС] 

The Royal

Пол: Пол:Муж

Стаж: 11 лет

Сообщений: 673

Россия
Рейтинг

post 06-Ноя-2012 19:16 (спустя 8 месяцев 21 день) [-]0[+]

[Цитировать] 

Добавил 2012 - Candy Coated Fury
info [Профиль]  [ЛС] 

saabb

Пол: Пол:Муж

Стаж: 9 лет 4 месяца

Сообщений: 99

Россия
Рейтинг

post 18-Ноя-2012 08:02 (спустя 11 дней) [-]2[+]

[Цитировать] 

спасибо
info [Профиль]  [ЛС] 
Показать сообщения:    
Ответить на тему

Текущее время: 13-Май 15:50

Часовой пояс: GMT + 4



Вы не можете начинать темы
Вы не можете отвечать на сообщения
Вы не можете редактировать свои сообщения
Вы не можете удалять свои сообщения
Вы не можете голосовать в опросах
Вы не можете прикреплять файлы к сообщениям
Вы не можете скачивать файлы