Ошибка

(Electronic, Progressive trance) Hybrid - Morning Sci-Fi - 2003, FLAC (tracks+.cue), lossless

Ответить на тему
 
Автор Сообщение

SilverTea

Пол: Пол:Муж

Стаж: 13 лет

Сообщений: 80

Рейтинг

post 21-Авг-2011 20:37 0[+]

[Цитировать] 

Hybrid - Morning Sci-Fi

Жанр: Electronic, Progressive trance
Происхождение исполнителя: Swansea, Wales, United Kingdom
Год первого издания: 2003
Лейбл: Distinct'ive Records
Каталоговый номер: DISNCD100
Страна-производитель носителя: United Kingdom
Тип релиза: tracks+.cue
Аудио кодек: FLAC
Битрейт аудио: lossless
Продолжительность: 01:17:57
Источник: What.CD (jdp)

Треклист:
скрытый трек
00. Lights Go Down Knives Come Out

01. This Is What It Means
02. True to Form
03. Know Your Enemy
04. Marrakech
05. I'm Still Awake
06. Visible Noise
07. We Are in Control
08. Higher Than a Skyscraper
09. Steal You Away
10. Gravastar
11. Out of the Dark
12. Blackout

Код:

Exact Audio Copy V0.99 prebeta 4 from 23. January 2008

EAC extraction logfile from 2. December 2008, 4:17

Hybrid / Morning Sci-Fi

Used drive  : HL-DT-STDVD-RW GSA-H11N   Adapter: 0  ID: 0

Read mode               : Secure
Utilize accurate stream : Yes
Defeat audio cache      : Yes
Make use of C2 pointers : No

Read offset correction                      : 667
Overread into Lead-In and Lead-Out          : No
Fill up missing offset samples with silence : Yes
Delete leading and trailing silent blocks   : No
Null samples used in CRC calculations       : Yes
Used interface                              : Installed external ASPI interface
Gap handling                                : Appended to previous track

Used output format              : User Defined Encoder
Selected bitrate                : 320 kBit/s
Quality                         : High
Add ID3 tag                     : No
Command line compressor         : C:\Program Files\Exact Audio Copy\Flac\flac.exe
Additional command line options : -V -8 -T "artist=%a" -T "title=%t" -T "album=%g" -T "date=%y" -T "tracknumber=%n" -T "genre=%m" %s

TOC of the extracted CD

     Track |   Start  |  Length  | Start sector | End sector
    ---------------------------------------------------------
        1  |  6:05.70 |  1:20.26 |     27445    |    33470   
        2  |  7:26.21 |  9:14.70 |     33471    |    75090   
        3  | 16:41.16 |  5:58.10 |     75091    |   101950   
        4  | 22:39.26 |  5:45.46 |    101951    |   127871   
        5  | 28:24.72 |  6:24.06 |    127872    |   156677   
        6  | 34:49.03 |  7:12.25 |    156678    |   189102   
        7  | 42:01.28 |  6:03.48 |    189103    |   216375   
        8  | 48:05.01 |  5:34.44 |    216376    |   241469   
        9  | 53:39.45 |  5:26.28 |    241470    |   265947   
       10  | 59:05.73 |  5:01.62 |    265948    |   288584   
       11  | 64:07.60 |  7:17.53 |    288585    |   321412   
       12  | 71:25.38 |  6:31.43 |    321413    |   350780   

Track  1

     Filename C:\josh\Hybrid - Morning Sci-Fi\01 - This Is What It Means.wav

     Pre-gap length  0:06:07.93

     Peak level 89.1 %
     Track quality 99.8 %
     Test CRC 4164C16A
     Copy CRC 4164C16A
     Accurately ripped (confidence 11)  [C858AB8D]
     Copy OK

Track  2

     Filename C:\josh\Hybrid - Morning Sci-Fi\02 - True To Form.wav

     Peak level 93.3 %
     Track quality 100.0 %
     Test CRC 7A0E03D7
     Copy CRC 7A0E03D7
     Accurately ripped (confidence 11)  [AFEDB443]
     Copy OK

Track  3

     Filename C:\josh\Hybrid - Morning Sci-Fi\03 - Know Your Enemy.wav

     Peak level 100.0 %
     Track quality 100.0 %
     Test CRC 63328193
     Copy CRC 63328193
     Accurately ripped (confidence 11)  [7CAE694D]
     Copy OK

Track  4

     Filename C:\josh\Hybrid - Morning Sci-Fi\04 - Marrakech.wav

     Peak level 100.0 %
     Track quality 100.0 %
     Test CRC 39805FE3
     Copy CRC 39805FE3
     Accurately ripped (confidence 11)  [5970B5E3]
     Copy OK

Track  5

     Filename C:\josh\Hybrid - Morning Sci-Fi\05 - I'm Still Awake.wav

     Peak level 93.3 %
     Track quality 100.0 %
     Test CRC 4A989282
     Copy CRC 4A989282
     Accurately ripped (confidence 11)  [82276144]
     Copy OK

Track  6

     Filename C:\josh\Hybrid - Morning Sci-Fi\06 - Visible Noise.wav

     Peak level 100.0 %
     Track quality 99.9 %
     Test CRC 69022A2F
     Copy CRC 69022A2F
     Accurately ripped (confidence 10)  [E3F29FDC]
     Copy OK

Track  7

     Filename C:\josh\Hybrid - Morning Sci-Fi\07 - We Are In Control.wav

     Peak level 100.0 %
     Track quality 100.0 %
     Test CRC 48D8E814
     Copy CRC 48D8E814
     Accurately ripped (confidence 11)  [75AA71E4]
     Copy OK

Track  8

     Filename C:\josh\Hybrid - Morning Sci-Fi\08 - Higher Than A Skyscraper.wav

     Peak level 100.0 %
     Track quality 100.0 %
     Test CRC F5819041
     Copy CRC F5819041
     Accurately ripped (confidence 11)  [D302C073]
     Copy OK

Track  9

     Filename C:\josh\Hybrid - Morning Sci-Fi\09 - Steal You Away.wav

     Peak level 100.0 %
     Track quality 100.0 %
     Test CRC 3B4FA834
     Copy CRC 3B4FA834
     Accurately ripped (confidence 11)  [877D8A92]
     Copy OK

Track 10

     Filename C:\josh\Hybrid - Morning Sci-Fi\10 - Gravastar.wav

     Peak level 100.0 %
     Track quality 99.9 %
     Test CRC 6117DB28
     Copy CRC 6117DB28
     Accurately ripped (confidence 11)  [A969E750]
     Copy OK

Track 11

     Filename C:\josh\Hybrid - Morning Sci-Fi\11 - Out Of The Dark.wav

     Peak level 89.1 %
     Track quality 100.0 %
     Test CRC 1EB314AC
     Copy CRC 1EB314AC
     Accurately ripped (confidence 9)  [80B6688C]
     Copy OK

Track 12

     Filename C:\josh\Hybrid - Morning Sci-Fi\12 - Blackout.wav

     Peak level 100.0 %
     Track quality 100.0 %
     Test CRC BC4A90F5
     Copy CRC BC4A90F5
     Accurately ripped (confidence 9)  [0F7187DF]
     Copy OK

All tracks accurately ripped

No errors occurred

End of status report

------------------------------------------------------------

Exact Audio Copy V0.99 prebeta 4 from 23. January 2008

EAC extraction logfile from 2. December 2008, 4:22

Hybrid / Morning Sci-Fi

Used drive  : HL-DT-STDVD-RW GSA-H11N   Adapter: 0  ID: 0

Read mode               : Secure
Utilize accurate stream : Yes
Defeat audio cache      : Yes
Make use of C2 pointers : No

Read offset correction                      : 667
Overread into Lead-In and Lead-Out          : No
Fill up missing offset samples with silence : Yes
Delete leading and trailing silent blocks   : No
Null samples used in CRC calculations       : Yes
Used interface                              : Installed external ASPI interface

Used output format              : User Defined Encoder
Selected bitrate                : 320 kBit/s
Quality                         : High
Add ID3 tag                     : No
Command line compressor         : C:\Program Files\Exact Audio Copy\Flac\flac.exe
Additional command line options : -V -8 -T "artist=%a" -T "title=%t" -T "album=%g" -T "date=%y" -T "tracknumber=%n" -T "genre=%m" %s

TOC of the extracted CD

     Track |   Start  |  Length  | Start sector | End sector
    ---------------------------------------------------------
        1  |  6:05.70 |  1:20.26 |     27445    |    33470   
        2  |  7:26.21 |  9:14.70 |     33471    |    75090   
        3  | 16:41.16 |  5:58.10 |     75091    |   101950   
        4  | 22:39.26 |  5:45.46 |    101951    |   127871   
        5  | 28:24.72 |  6:24.06 |    127872    |   156677   
        6  | 34:49.03 |  7:12.25 |    156678    |   189102   
        7  | 42:01.28 |  6:03.48 |    189103    |   216375   
        8  | 48:05.01 |  5:34.44 |    216376    |   241469   
        9  | 53:39.45 |  5:26.28 |    241470    |   265947   
       10  | 59:05.73 |  5:01.62 |    265948    |   288584   
       11  | 64:07.60 |  7:17.53 |    288585    |   321412   
       12  | 71:25.38 |  6:31.43 |    321413    |   350780   

Range status and errors

Selected range   (Sectors 0-27444)

     Filename C:\josh\Hybrid - Morning Sci-Fi\00 - Lights Go Down Knives Come Out.wav

     Peak level 100.0 %
     Range quality 99.9 %
     Copy CRC 78E7EEF6
     Copy OK

No errors occurred

 
AccurateRip summary
 
 

No tracks could be verified as accurate

End of status report

------------------------------------------------------------

Exact Audio Copy V0.99 prebeta 4 from 23. January 2008

EAC extraction logfile from 2. December 2008, 4:26

Hybrid / Morning Sci-Fi

Used drive  : HL-DT-STDVD-RW GSA-H11N   Adapter: 0  ID: 0

Read mode               : Secure
Utilize accurate stream : Yes
Defeat audio cache      : Yes
Make use of C2 pointers : No

Read offset correction                      : 667
Overread into Lead-In and Lead-Out          : No
Fill up missing offset samples with silence : Yes
Delete leading and trailing silent blocks   : No
Null samples used in CRC calculations       : Yes
Used interface                              : Installed external ASPI interface

Used output format              : User Defined Encoder
Selected bitrate                : 320 kBit/s
Quality                         : High
Add ID3 tag                     : No
Command line compressor         : C:\Program Files\Exact Audio Copy\Flac\flac.exe
Additional command line options : -V -8 -T "artist=%a" -T "title=%t" -T "album=%g" -T "date=%y" -T "tracknumber=%n" -T "genre=%m" %s

TOC of the extracted CD

     Track |   Start  |  Length  | Start sector | End sector
    ---------------------------------------------------------
        1  |  6:05.70 |  1:20.26 |     27445    |    33470   
        2  |  7:26.21 |  9:14.70 |     33471    |    75090   
        3  | 16:41.16 |  5:58.10 |     75091    |   101950   
        4  | 22:39.26 |  5:45.46 |    101951    |   127871   
        5  | 28:24.72 |  6:24.06 |    127872    |   156677   
        6  | 34:49.03 |  7:12.25 |    156678    |   189102   
        7  | 42:01.28 |  6:03.48 |    189103    |   216375   
        8  | 48:05.01 |  5:34.44 |    216376    |   241469   
        9  | 53:39.45 |  5:26.28 |    241470    |   265947   
       10  | 59:05.73 |  5:01.62 |    265948    |   288584   
       11  | 64:07.60 |  7:17.53 |    288585    |   321412   
       12  | 71:25.38 |  6:31.43 |    321413    |   350780   

Range status and errors

Selected range   (Sectors 0-27444)

     Filename C:\josh\Hybrid - Morning Sci-Fi\00 - Lights Go Down Knives Come Out.wav

     Peak level 100.0 %
     Range quality 99.9 %
     Copy CRC 78E7EEF6
     Copy OK

No errors occurred

 
AccurateRip summary
 
 

No tracks could be verified as accurate

End of status report

Код:

REM GENRE Electronic
REM DATE 2003
REM DISCID B610D80C
REM COMMENT "ExactAudioCopy v0.99pb4"
PERFORMER "Hybrid"
TITLE "Morning Sci-Fi"
FILE "00 - Lights Go Down Knives Come Out.wav" WAVE
  TRACK 01 AUDIO
    TITLE "True To Form"
    PERFORMER "Hybrid"
    INDEX 00 00:00:00
FILE "01 - This Is What It Means.wav" WAVE
    INDEX 01 00:00:00
FILE "02 - True To Form.wav" WAVE
  TRACK 02 AUDIO
    TITLE "True To Form"
    PERFORMER "Hybrid"
    INDEX 01 00:00:00
FILE "03 - Know Your Enemy.wav" WAVE
  TRACK 03 AUDIO
    TITLE "Know Your Enemy"
    PERFORMER "Hybrid"
    INDEX 01 00:00:00
FILE "04 - Marrakech.wav" WAVE
  TRACK 04 AUDIO
    TITLE "Marrakech"
    PERFORMER "Hybrid"
    INDEX 01 00:00:00
FILE "05 - I'm Still Awake.wav" WAVE
  TRACK 05 AUDIO
    TITLE "I'm Still Awake"
    PERFORMER "Hybrid"
    INDEX 01 00:00:00
FILE "06 - Visible Noise.wav" WAVE
  TRACK 06 AUDIO
    TITLE "Visible Noise"
    PERFORMER "Hybrid"
    INDEX 01 00:00:00
FILE "07 - We Are In Control.wav" WAVE
  TRACK 07 AUDIO
    TITLE "We Are In Control"
    PERFORMER "Hybrid"
    INDEX 01 00:00:00
FILE "08 - Higher Than A Skyscraper.wav" WAVE
  TRACK 08 AUDIO
    TITLE "Higher Than A Skyscraper"
    PERFORMER "Hybrid"
    INDEX 01 00:00:00
FILE "09 - Steal You Away.wav" WAVE
  TRACK 09 AUDIO
    TITLE "Steal You Away"
    PERFORMER "Hybrid"
    INDEX 01 00:00:00
FILE "10 - Gravastar.wav" WAVE
  TRACK 10 AUDIO
    TITLE "Gravastar"
    PERFORMER "Hybrid"
    INDEX 01 00:00:00
FILE "11 - Out Of The Dark.wav" WAVE
  TRACK 11 AUDIO
    TITLE "Out Of The Dark"
    PERFORMER "Hybrid"
    INDEX 01 00:00:00
FILE "12 - Blackout.wav" WAVE
  TRACK 12 AUDIO
    TITLE "Blackout"
    PERFORMER "Hybrid"
    INDEX 01 00:00:00

Код:

AUDIOCHECKER v2.0 beta (build 457) - by Dester - opdester@freemail.hu
~~~~~~~~~~~~~~~~~~~~~~~~~~~~~~~~~~
-=== НЕ РЕДАКТИРУЙТЕ ЭТОТ ФАЙЛ! ===-

Путь: ...\Hybrid - Morning Sci-Fi

01 -=- 00 - Lights Go Down Knives Come Out.flac -=- CDDA (99%)
02 -=- 01 - This Is What It Means.flac -=- CDDA (100%)
03 -=- 02 - True To Form.flac -=- CDDA (100%)
04 -=- 03 - Know Your Enemy.flac -=- CDDA (100%)
05 -=- 04 - Marrakech.flac -=- CDDA (100%)
06 -=- 05 - I'm Still Awake.flac -=- CDDA (99%)
07 -=- 06 - Visible Noise.flac -=- CDDA (100%)
08 -=- 07 - We Are In Control.flac -=- CDDA (100%)
09 -=- 08 - Higher Than A Skyscraper.flac -=- CDDA (100%)
10 -=- 09 - Steal You Away.flac -=- CDDA (100%)
11 -=- 10 - Gravastar.flac -=- CDDA (100%)
12 -=- 11 - Out Of The Dark.flac -=- CDDA (100%)
13 -=- 12 - Blackout.flac -=- CDDA (100%)

Сводка 99,85% CDDA

201833156
info [Профиль]  [ЛС] 
Показать сообщения:    
Ответить на тему

Текущее время: 23-Май 00:26

Часовой пояс: GMT + 4



Вы не можете начинать темы
Вы не можете отвечать на сообщения
Вы не можете редактировать свои сообщения
Вы не можете удалять свои сообщения
Вы не можете голосовать в опросах
Вы не можете прикреплять файлы к сообщениям
Вы не можете скачивать файлы