Ошибка

(Trance, Progressive Trance, Progressive House) Armin van Buuren - Mirage - The Remixes - 2011, FLAC (tracks+.cue), lossless

Ответить на тему
 
Автор Сообщение

kossmos

Пол: Пол:Муж

Стаж: 12 лет

Сообщений: 269

Украина
Рейтинг

post 30-Июн-2011 01:58 0[+]

[Цитировать] 

Armin van Buuren - Mirage - The Remixes

Жанр: Trance, Progressive Trance, Progressive House
Год издания данного носителя: 2011
Тип релиза: tracks+.cue
Аудио кодек: FLAC
Битрейт аудио: lossless
Продолжительность: 02:39:01
01. Armin van Buuren feat. Laura V - Drowning (Avicii Remix) [7:52]
02. Armin van Buuren feat. Nadia Ali - Feels So Good (Tristan Garner Remix) [6:11]
03. Armin van Buuren feat. Adam Young - Youtopia (Blake Jarrell Remix) [6:09]
04. Armin van Buuren vs Ferry Corsten - Minack (Ørjan Nilsen SuperChunk Remix) [6:50]
05. Armin van Buuren vs Sophie Ellis-Bextor - Not Giving Up On Love (Dash Berlin 4AM Mix) [7:07]
06. Armin van Buuren feat. Winter Kills - Take A Moment (Shogun Remix) [7:26]
07. Armin van Buuren - Orbion (Max Graham vs Protoculture Remix) [7:54]
08. Armin van Buuren feat. BT - These Silent Hearts (Ralphie B Remix) [9:28]
09. Armin van Buuren - Full Focus (Ummet Ozcan Remix) [7:03]
10. Armin van Buuren feat. Sophie - Virtual Friend (BT Remix) [9:19]
11. Armin van Buuren feat. Christian Burns - This Light Between Us (Orchestral Version) [4:02]
01. Armin van Buuren feat. Sophie - Virtual Friend (16 Bit Lolitas Remix) [8:18]
02. Armin van Buuren feat. Ana Criado - Down To Love (Kyau & Albert Remix) [7:34]
03. Armin van Buuren - Mirage (Alexander Popov Remix) [7:24]
04. Armin van Buuren feat. Christian Burns - This Light Between Us (Armin van Buuren's Great Strings Mix) [7:22]
05. Armin van Buuren - I Don't Own You (Andy Moor Remix) [8:53]
06. Armin van Buuren feat. Winter Kills - Take A Moment (Alex M.O.R.P.H. Remix) [7:34]
07. Armin van Buuren feat. Cathy Burton - I Surrender (Sebastian Brandt Remix) [7:49]
08. Armin van Buuren feat. VanVelzen - Take Me Where I Wanna Go (Giuseppe Ottaviani Remix) [7:48]
09. Armin van Buuren - Coming Home (Arctic Moon Remix) [8:36]
10. Armin van Buuren feat. Christian Burns & Bagga Bownz - Neon Hero (Original Mix) [8:22]

Код:

[spoiler="CD1"]
Exact Audio Copy V1.0 beta 1 from 15. November 2010
EAC extraction logfile from 28. June 2011, 11:19
Armin van Buuren / Mirage The Remixes CD1
Used drive  : TSSTcorpCDDVDW SH-S223C   Adapter: 2  ID: 1
Read mode               : Secure
Utilize accurate stream : Yes
Defeat audio cache      : Yes
Make use of C2 pointers : No
Read offset correction                      : 697
Overread into Lead-In and Lead-Out          : No
Fill up missing offset samples with silence : Yes
Delete leading and trailing silent blocks   : No
Null samples used in CRC calculations       : Yes
Used interface                              : Native Win32 interface for Win NT & 2000
Gap handling                                : Appended to previous track
Used output format              : User Defined Encoder
Selected bitrate                : 320 kBit/s
Quality                         : High
Add ID3 tag                     : No
Command line compressor         : C:\Program Files (x86)\Exact Audio Copy\Flac\flac.exe
Additional command line options : -V -8 -T "artist=%a" -T "title=%t" -T "album=%g" -T "date=%y" -T "tracknumber=%n" -T "genre=%m" %s
TOC of the extracted CD
     Track |   Start  |  Length  | Start sector | End sector
    ---------------------------------------------------------
        1  |  0:00.00 |  7:55.44 |         0    |    35668
        2  |  7:55.44 |  6:12.41 |     35669    |    63609
        3  | 14:08.10 |  6:11.30 |     63610    |    91464
        4  | 20:19.40 |  6:52.18 |     91465    |   122382
        5  | 27:11.58 |  7:04.19 |    122383    |   154201
        6  | 34:16.02 |  7:28.28 |    154202    |   187829
        7  | 41:44.30 |  7:55.66 |    187830    |   223520
        8  | 49:40.21 |  9:30.26 |    223521    |   266296
        9  | 59:10.47 |  7:05.10 |    266297    |   298181
       10  | 66:15.57 |  9:21.31 |    298182    |   340287
       11  | 75:37.13 |  4:01.61 |    340288    |   358423
Track  1
     Filename D:\Armin van Buuren - Mirage The Remixes CD1 [flac]\01. Armin van Buuren - Drowning (Avicii Remix).wav
     Pre-gap length  0:00:02.00
     Peak level 96.6 %
     Extraction speed 2.2 X
     Track quality 100.0 %
     Test CRC 2A5EE1E1
     Copy CRC 2A5EE1E1
     Track not present in AccurateRip database
     Copy OK
Track  2
     Filename D:\Armin van Buuren - Mirage The Remixes CD1 [flac]\02. Armin van Buuren - Feels So Good (Tristan Garner Remix).wav
     Pre-gap length  0:00:02.00
     Peak level 96.6 %
     Extraction speed 2.2 X
     Track quality 99.9 %
     Test CRC 7D7251A7
     Copy CRC 7D7251A7
     Track not present in AccurateRip database
     Copy OK
Track  3
     Filename D:\Armin van Buuren - Mirage The Remixes CD1 [flac]\03. Armin van Buuren - Youtopia (Blake Jarrell Remix).wav
     Pre-gap length  0:00:02.00
     Peak level 96.6 %
     Extraction speed 2.7 X
     Track quality 100.0 %
     Test CRC 454621E4
     Copy CRC 454621E4
     Track not present in AccurateRip database
     Copy OK
Track  4
     Filename D:\Armin van Buuren - Mirage The Remixes CD1 [flac]\04. Armin van Buuren - Minack (Orjan Nilsen Remix).wav
     Pre-gap length  0:00:02.00
     Peak level 81.8 %
     Extraction speed 3.0 X
     Track quality 100.0 %
     Test CRC C53D8F77
     Copy CRC C53D8F77
     Track not present in AccurateRip database
     Copy OK
Track  5
     Filename D:\Armin van Buuren - Mirage The Remixes CD1 [flac]\05. Armin van Buuren - Not Giving Up On Love (Dash Berlin 4AM Mix).wav
     Pre-gap length  0:00:02.00
     Peak level 79.2 %
     Extraction speed 3.3 X
     Track quality 100.0 %
     Test CRC 3FA19074
     Copy CRC 3FA19074
     Track not present in AccurateRip database
     Copy OK
Track  6
     Filename D:\Armin van Buuren - Mirage The Remixes CD1 [flac]\06. Armin van Buuren - Take A Moment (Shogun Remix).wav
     Pre-gap length  0:00:02.00
     Peak level 96.6 %
     Extraction speed 3.5 X
     Track quality 100.0 %
     Test CRC 7FEFE27B
     Copy CRC 7FEFE27B
     Track not present in AccurateRip database
     Copy OK
Track  7
     Filename D:\Armin van Buuren - Mirage The Remixes CD1 [flac]\07. Armin van Buuren - Orbion (Max Graham vs. Protoculture Remix).wav
     Pre-gap length  0:00:02.00
     Peak level 96.6 %
     Extraction speed 3.7 X
     Track quality 100.0 %
     Test CRC 3F48D522
     Copy CRC 3F48D522
     Track not present in AccurateRip database
     Copy OK
Track  8
     Filename D:\Armin van Buuren - Mirage The Remixes CD1 [flac]\08. Armin van Buuren - These Silent Hearts (Ralphie B Remix).wav
     Pre-gap length  0:00:02.00
     Peak level 90.7 %
     Extraction speed 4.0 X
     Track quality 100.0 %
     Test CRC EF86620D
     Copy CRC EF86620D
     Track not present in AccurateRip database
     Copy OK
Track  9
     Filename D:\Armin van Buuren - Mirage The Remixes CD1 [flac]\09. Armin van Buuren - Full Focus (Ummet Ozcan Remix).wav
     Pre-gap length  0:00:02.00
     Peak level 96.6 %
     Extraction speed 4.1 X
     Track quality 100.0 %
     Test CRC C825C19D
     Copy CRC C825C19D
     Track not present in AccurateRip database
     Copy OK
Track 10
     Filename D:\Armin van Buuren - Mirage The Remixes CD1 [flac]\10. Armin van Buuren - Virtual Friend (BT Remix).wav
     Pre-gap length  0:00:02.00
     Peak level 96.6 %
     Extraction speed 4.4 X
     Track quality 100.0 %
     Test CRC F80BA2A7
     Copy CRC F80BA2A7
     Track not present in AccurateRip database
     Copy OK
Track 11
     Filename D:\Armin van Buuren - Mirage The Remixes CD1 [flac]\11. Armin van Buuren - This Light Between Us (Orchestral Version).wav
     Pre-gap length  0:00:02.00
     Peak level 96.6 %
     Extraction speed 4.2 X
     Track quality 100.0 %
     Test CRC 79EC4BB6
     Copy CRC 79EC4BB6
     Track not present in AccurateRip database
     Copy OK
None of the tracks are present in the AccurateRip database
No errors occurred
End of status report
==== Log checksum 26484E97C8DD9345373FD0D97628CFD50B0EFFAE1DA6179143A8B79B6D998925 ====

[свернуть]
CD2

Exact Audio Copy V1.0 beta 1 from 15. November 2010
EAC extraction logfile from 28. June 2011, 12:12
Armin van Buuren / Mirage The Remixes CD2
Used drive  : TSSTcorpCDDVDW SH-S223C   Adapter: 2  ID: 1
Read mode               : Secure
Utilize accurate stream : Yes
Defeat audio cache      : Yes
Make use of C2 pointers : No
Read offset correction                      : 697
Overread into Lead-In and Lead-Out          : No
Fill up missing offset samples with silence : Yes
Delete leading and trailing silent blocks   : No
Null samples used in CRC calculations       : Yes
Used interface                              : Native Win32 interface for Win NT & 2000
Gap handling                                : Appended to previous track
Used output format              : User Defined Encoder
Selected bitrate                : 320 kBit/s
Quality                         : High
Add ID3 tag                     : No
Command line compressor         : C:\Program Files (x86)\Exact Audio Copy\Flac\flac.exe
Additional command line options : -V -8 -T "artist=%a" -T "title=%t" -T "album=%g" -T "date=%y" -T "tracknumber=%n" -T "genre=%m" %s
TOC of the extracted CD
     Track |   Start  |  Length  | Start sector | End sector
    ---------------------------------------------------------
        1  |  0:00.00 |  8:18.62 |         0    |    37411
        2  |  8:18.62 |  7:35.08 |     37412    |    71544
        3  | 15:53.70 |  7:24.70 |     71545    |   104914
        4  | 23:18.65 |  7:21.59 |    104915    |   138048
        5  | 30:40.49 |  8:53.52 |    138049    |   178075
        6  | 39:34.26 |  7:34.66 |    178076    |   212191
        7  | 47:09.17 |  7:50.29 |    212192    |   247470
        8  | 54:59.46 |  7:48.44 |    247471    |   282614
        9  | 62:48.15 |  8:36.53 |    282615    |   321367
       10  | 71:24.68 |  8:21.65 |    321368    |   359007
Track  1
     Filename D:\Armin van Buuren - Mirage The Remixes CD2 [flac]\01. Armin van Buuren - Virtual Friend (16 Bit Lolitas Remix).wav
     Pre-gap length  0:00:02.00
     Peak level 96.6 %
     Extraction speed 2.2 X
     Track quality 100.0 %
     Test CRC 7E69C9E4
     Copy CRC 7E69C9E4
     Track not present in AccurateRip database
     Copy OK
Track  2
     Filename D:\Armin van Buuren - Mirage The Remixes CD2 [flac]\02. Armin van Buuren - Down To Love (Kyau & Albert Remix).wav
     Pre-gap length  0:00:01.00
     Peak level 96.6 %
     Extraction speed 2.6 X
     Track quality 100.0 %
     Test CRC 07416B61
     Copy CRC 07416B61
     Track not present in AccurateRip database
     Copy OK
Track  3
     Filename D:\Armin van Buuren - Mirage The Remixes CD2 [flac]\03. Armin van Buuren - Mirage (Alexander Popov Remix).wav
     Pre-gap length  0:00:01.00
     Peak level 96.6 %
     Extraction speed 2.9 X
     Track quality 100.0 %
     Test CRC E7D99FFB
     Copy CRC E7D99FFB
     Track not present in AccurateRip database
     Copy OK
Track  4
     Filename D:\Armin van Buuren - Mirage The Remixes CD2 [flac]\04. Armin van Buuren - This Light Between Us (Armin van Buuren's Great Strings Mix).wav
     Pre-gap length  0:00:01.00
     Peak level 96.6 %
     Extraction speed 3.1 X
     Track quality 100.0 %
     Test CRC 3A5F58AF
     Copy CRC 3A5F58AF
     Track not present in AccurateRip database
     Copy OK
Track  5
     Filename D:\Armin van Buuren - Mirage The Remixes CD2 [flac]\05. Armin van Buuren - I Don't Own You (Andy Moor Remix).wav
     Pre-gap length  0:00:01.00
     Peak level 96.6 %
     Extraction speed 3.4 X
     Track quality 100.0 %
     Test CRC 06324D1F
     Copy CRC 06324D1F
     Track not present in AccurateRip database
     Copy OK
Track  6
     Filename D:\Armin van Buuren - Mirage The Remixes CD2 [flac]\06. Armin van Buuren - Take A Moment (Alex M.O.R.P.H. Remix).wav
     Pre-gap length  0:00:01.00
     Peak level 96.6 %
     Extraction speed 3.6 X
     Track quality 100.0 %
     Test CRC B9836BFC
     Copy CRC B9836BFC
     Track not present in AccurateRip database
     Copy OK
Track  7
     Filename D:\Armin van Buuren - Mirage The Remixes CD2 [flac]\07. Armin van Buuren - I Surrender (Sebastian Brandt Remix).wav
     Pre-gap length  0:00:01.00
     Peak level 96.6 %
     Extraction speed 3.9 X
     Track quality 100.0 %
     Test CRC 4B610AED
     Copy CRC 4B610AED
     Track not present in AccurateRip database
     Copy OK
Track  8
     Filename D:\Armin van Buuren - Mirage The Remixes CD2 [flac]\08. Armin van Buuren - Take Me Where I Wanna Go (Giuseppe Ottaviani Remix).wav
     Pre-gap length  0:00:01.00
     Peak level 96.6 %
     Extraction speed 4.1 X
     Track quality 100.0 %
     Test CRC C15411E1
     Copy CRC C15411E1
     Track not present in AccurateRip database
     Copy OK
Track  9
     Filename D:\Armin van Buuren - Mirage The Remixes CD2 [flac]\09. Armin van Buuren - Coming Home (Arctic Moon Remix).wav
     Pre-gap length  0:00:01.00
     Peak level 96.6 %
     Extraction speed 4.2 X
     Track quality 100.0 %
     Test CRC 458D9863
     Copy CRC 458D9863
     Track not present in AccurateRip database
     Copy OK
Track 10
     Filename D:\Armin van Buuren - Mirage The Remixes CD2 [flac]\10. Armin van Buuren - Neon Hero (Original Mix).wav
     Pre-gap length  0:00:01.00
     Peak level 96.6 %
     Extraction speed 4.5 X
     Track quality 100.0 %
     Test CRC E6220096
     Copy CRC E6220096
     Track not present in AccurateRip database
     Copy OK
None of the tracks are present in the AccurateRip database
No errors occurred
End of status report
==== Log checksum 405981325F38D3BB1A4EBAD88A0449CDB3394373D5B1A2CE6DCBDA7233D25400 ====

[/spoiler]
[spoiler=CD2"]
Exact Audio Copy V1.0 beta 1 from 15. November 2010
EAC extraction logfile from 28. June 2011, 12:12
Armin van Buuren / Mirage The Remixes CD2
Used drive  : TSSTcorpCDDVDW SH-S223C   Adapter: 2  ID: 1
Read mode               : Secure
Utilize accurate stream : Yes
Defeat audio cache      : Yes
Make use of C2 pointers : No
Read offset correction                      : 697
Overread into Lead-In and Lead-Out          : No
Fill up missing offset samples with silence : Yes
Delete leading and trailing silent blocks   : No
Null samples used in CRC calculations       : Yes
Used interface                              : Native Win32 interface for Win NT & 2000
Gap handling                                : Appended to previous track
Used output format              : User Defined Encoder
Selected bitrate                : 320 kBit/s
Quality                         : High
Add ID3 tag                     : No
Command line compressor         : C:\Program Files (x86)\Exact Audio Copy\Flac\flac.exe
Additional command line options : -V -8 -T "artist=%a" -T "title=%t" -T "album=%g" -T "date=%y" -T "tracknumber=%n" -T "genre=%m" %s
TOC of the extracted CD
     Track |   Start  |  Length  | Start sector | End sector
    ---------------------------------------------------------
        1  |  0:00.00 |  8:18.62 |         0    |    37411
        2  |  8:18.62 |  7:35.08 |     37412    |    71544
        3  | 15:53.70 |  7:24.70 |     71545    |   104914
        4  | 23:18.65 |  7:21.59 |    104915    |   138048
        5  | 30:40.49 |  8:53.52 |    138049    |   178075
        6  | 39:34.26 |  7:34.66 |    178076    |   212191
        7  | 47:09.17 |  7:50.29 |    212192    |   247470
        8  | 54:59.46 |  7:48.44 |    247471    |   282614
        9  | 62:48.15 |  8:36.53 |    282615    |   321367
       10  | 71:24.68 |  8:21.65 |    321368    |   359007
Track  1
     Filename D:\Armin van Buuren - Mirage The Remixes CD2 [flac]\01. Armin van Buuren - Virtual Friend (16 Bit Lolitas Remix).wav
     Pre-gap length  0:00:02.00
     Peak level 96.6 %
     Extraction speed 2.2 X
     Track quality 100.0 %
     Test CRC 7E69C9E4
     Copy CRC 7E69C9E4
     Track not present in AccurateRip database
     Copy OK
Track  2
     Filename D:\Armin van Buuren - Mirage The Remixes CD2 [flac]\02. Armin van Buuren - Down To Love (Kyau & Albert Remix).wav
     Pre-gap length  0:00:01.00
     Peak level 96.6 %
     Extraction speed 2.6 X
     Track quality 100.0 %
     Test CRC 07416B61
     Copy CRC 07416B61
     Track not present in AccurateRip database
     Copy OK
Track  3
     Filename D:\Armin van Buuren - Mirage The Remixes CD2 [flac]\03. Armin van Buuren - Mirage (Alexander Popov Remix).wav
     Pre-gap length  0:00:01.00
     Peak level 96.6 %
     Extraction speed 2.9 X
     Track quality 100.0 %
     Test CRC E7D99FFB
     Copy CRC E7D99FFB
     Track not present in AccurateRip database
     Copy OK
Track  4
     Filename D:\Armin van Buuren - Mirage The Remixes CD2 [flac]\04. Armin van Buuren - This Light Between Us (Armin van Buuren's Great Strings Mix).wav
     Pre-gap length  0:00:01.00
     Peak level 96.6 %
     Extraction speed 3.1 X
     Track quality 100.0 %
     Test CRC 3A5F58AF
     Copy CRC 3A5F58AF
     Track not present in AccurateRip database
     Copy OK
Track  5
     Filename D:\Armin van Buuren - Mirage The Remixes CD2 [flac]\05. Armin van Buuren - I Don't Own You (Andy Moor Remix).wav
     Pre-gap length  0:00:01.00
     Peak level 96.6 %
     Extraction speed 3.4 X
     Track quality 100.0 %
     Test CRC 06324D1F
     Copy CRC 06324D1F
     Track not present in AccurateRip database
     Copy OK
Track  6
     Filename D:\Armin van Buuren - Mirage The Remixes CD2 [flac]\06. Armin van Buuren - Take A Moment (Alex M.O.R.P.H. Remix).wav
     Pre-gap length  0:00:01.00
     Peak level 96.6 %
     Extraction speed 3.6 X
     Track quality 100.0 %
     Test CRC B9836BFC
     Copy CRC B9836BFC
     Track not present in AccurateRip database
     Copy OK
Track  7
     Filename D:\Armin van Buuren - Mirage The Remixes CD2 [flac]\07. Armin van Buuren - I Surrender (Sebastian Brandt Remix).wav
     Pre-gap length  0:00:01.00
     Peak level 96.6 %
     Extraction speed 3.9 X
     Track quality 100.0 %
     Test CRC 4B610AED
     Copy CRC 4B610AED
     Track not present in AccurateRip database
     Copy OK
Track  8
     Filename D:\Armin van Buuren - Mirage The Remixes CD2 [flac]\08. Armin van Buuren - Take Me Where I Wanna Go (Giuseppe Ottaviani Remix).wav
     Pre-gap length  0:00:01.00
     Peak level 96.6 %
     Extraction speed 4.1 X
     Track quality 100.0 %
     Test CRC C15411E1
     Copy CRC C15411E1
     Track not present in AccurateRip database
     Copy OK
Track  9
     Filename D:\Armin van Buuren - Mirage The Remixes CD2 [flac]\09. Armin van Buuren - Coming Home (Arctic Moon Remix).wav
     Pre-gap length  0:00:01.00
     Peak level 96.6 %
     Extraction speed 4.2 X
     Track quality 100.0 %
     Test CRC 458D9863
     Copy CRC 458D9863
     Track not present in AccurateRip database
     Copy OK
Track 10
     Filename D:\Armin van Buuren - Mirage The Remixes CD2 [flac]\10. Armin van Buuren - Neon Hero (Original Mix).wav
     Pre-gap length  0:00:01.00
     Peak level 96.6 %
     Extraction speed 4.5 X
     Track quality 100.0 %
     Test CRC E6220096
     Copy CRC E6220096
     Track not present in AccurateRip database
     Copy OK
None of the tracks are present in the AccurateRip database
No errors occurred
End of status report
==== Log checksum 405981325F38D3BB1A4EBAD88A0449CDB3394373D5B1A2CE6DCBDA7233D25400 ====
[spoiler]

Код:

[spoiler="CD1"]
REM GENRE Trance
REM DATE 2011
REM DISCID A312AA0B
REM COMMENT "ExactAudioCopy v1.0b1"
PERFORMER "Armin van Buuren"
TITLE "Mirage The Remixes CD1"
FILE "01. Armin van Buuren - Drowning (Avicii Remix).wav" WAVE
  TRACK 01 AUDIO
    TITLE "Drowning (Avicii Remix)"
    PERFORMER "Armin van Buuren"
    INDEX 01 00:00:00
  TRACK 02 AUDIO
    TITLE "Feels So Good (Tristan Garner Remix)"
    PERFORMER "Armin van Buuren"
    INDEX 00 07:53:44
FILE "02. Armin van Buuren - Feels So Good (Tristan Garner Remix).wav" WAVE
    INDEX 01 00:00:00
  TRACK 03 AUDIO
    TITLE "Youtopia (Blake Jarrell Remix)"
    PERFORMER "Armin van Buuren"
    INDEX 00 06:10:41
FILE "03. Armin van Buuren - Youtopia (Blake Jarrell Remix).wav" WAVE
    INDEX 01 00:00:00
  TRACK 04 AUDIO
    TITLE "Minack (Orjan Nilsen Remix)"
    PERFORMER "Armin van Buuren"
    INDEX 00 06:09:30
FILE "04. Armin van Buuren - Minack (Orjan Nilsen Remix).wav" WAVE
    INDEX 01 00:00:00
  TRACK 05 AUDIO
    TITLE "Not Giving Up On Love (Dash Berlin 4AM Mix)"
    PERFORMER "Armin van Buuren"
    INDEX 00 06:50:18
FILE "05. Armin van Buuren - Not Giving Up On Love (Dash Berlin 4AM Mix).wav" WAVE
    INDEX 01 00:00:00
  TRACK 06 AUDIO
    TITLE "Take A Moment (Shogun Remix)"
    PERFORMER "Armin van Buuren"
    INDEX 00 07:02:19
FILE "06. Armin van Buuren - Take A Moment (Shogun Remix).wav" WAVE
    INDEX 01 00:00:00
  TRACK 07 AUDIO
    TITLE "Orbion (Max Graham vs. Protoculture Remix)"
    PERFORMER "Armin van Buuren"
    INDEX 00 07:26:28
FILE "07. Armin van Buuren - Orbion (Max Graham vs. Protoculture Remix).wav" WAVE
    INDEX 01 00:00:00
  TRACK 08 AUDIO
    TITLE "These Silent Hearts (Ralphie B Remix)"
    PERFORMER "Armin van Buuren"
    INDEX 00 07:53:66
FILE "08. Armin van Buuren - These Silent Hearts (Ralphie B Remix).wav" WAVE
    INDEX 01 00:00:00
  TRACK 09 AUDIO
    TITLE "Full Focus (Ummet Ozcan Remix)"
    PERFORMER "Armin van Buuren"
    INDEX 00 09:28:26
FILE "09. Armin van Buuren - Full Focus (Ummet Ozcan Remix).wav" WAVE
    INDEX 01 00:00:00
  TRACK 10 AUDIO
    TITLE "Virtual Friend (BT Remix)"
    PERFORMER "Armin van Buuren"
    INDEX 00 07:03:10
FILE "10. Armin van Buuren - Virtual Friend (BT Remix).wav" WAVE
    INDEX 01 00:00:00
  TRACK 11 AUDIO
    TITLE "This Light Between Us (Orchestral Version)"
    PERFORMER "Armin van Buuren"
    INDEX 00 09:19:31
FILE "11. Armin van Buuren - This Light Between Us (Orchestral Version).wav" WAVE
    INDEX 01 00:00:00
[/spoiler]
[spoiler="CD2"]
REM GENRE Trance
REM DATE 2011
REM DISCID 7A12B20A
REM COMMENT "ExactAudioCopy v1.0b1"
PERFORMER "Armin van Buuren"
TITLE "Mirage The Remixes CD2"
FILE "01. Armin van Buuren - Virtual Friend (16 Bit Lolitas Remix).wav" WAVE
  TRACK 01 AUDIO
    TITLE "Virtual Friend (16 Bit Lolitas Remix)"
    PERFORMER "Armin van Buuren"
    INDEX 01 00:00:00
  TRACK 02 AUDIO
    TITLE "Down To Love (Kyau & Albert Remix)"
    PERFORMER "Armin van Buuren"
    INDEX 00 08:17:62
FILE "02. Armin van Buuren - Down To Love (Kyau & Albert Remix).wav" WAVE
    INDEX 01 00:00:00
  TRACK 03 AUDIO
    TITLE "Mirage (Alexander Popov Remix)"
    PERFORMER "Armin van Buuren"
    INDEX 00 07:34:08
FILE "03. Armin van Buuren - Mirage (Alexander Popov Remix).wav" WAVE
    INDEX 01 00:00:00
  TRACK 04 AUDIO
    TITLE "This Light Between Us (Armin van Buuren's Great Strings Mix)"
    PERFORMER "Armin van Buuren"
    INDEX 00 07:23:70
FILE "04. Armin van Buuren - This Light Between Us (Armin van Buuren's Great Strings Mix).wav" WAVE
    INDEX 01 00:00:00
  TRACK 05 AUDIO
    TITLE "I Don't Own You (Andy Moor Remix)"
    PERFORMER "Armin van Buuren"
    INDEX 00 07:20:59
FILE "05. Armin van Buuren - I Don't Own You (Andy Moor Remix).wav" WAVE
    INDEX 01 00:00:00
  TRACK 06 AUDIO
    TITLE "Take A Moment (Alex M.O.R.P.H. Remix)"
    PERFORMER "Armin van Buuren"
    INDEX 00 08:52:52
FILE "06. Armin van Buuren - Take A Moment (Alex M.O.R.P.H. Remix).wav" WAVE
    INDEX 01 00:00:00
  TRACK 07 AUDIO
    TITLE "I Surrender (Sebastian Brandt Remix)"
    PERFORMER "Armin van Buuren"
    INDEX 00 07:33:66
FILE "07. Armin van Buuren - I Surrender (Sebastian Brandt Remix).wav" WAVE
    INDEX 01 00:00:00
  TRACK 08 AUDIO
    TITLE "Take Me Where I Wanna Go (Giuseppe Ottaviani Remix)"
    PERFORMER "Armin van Buuren"
    INDEX 00 07:49:29
FILE "08. Armin van Buuren - Take Me Where I Wanna Go (Giuseppe Ottaviani Remix).wav" WAVE
    INDEX 01 00:00:00
  TRACK 09 AUDIO
    TITLE "Coming Home (Arctic Moon Remix)"
    PERFORMER "Armin van Buuren"
    INDEX 00 07:47:44
FILE "09. Armin van Buuren - Coming Home (Arctic Moon Remix).wav" WAVE
    INDEX 01 00:00:00
  TRACK 10 AUDIO
    TITLE "Neon Hero (Original Mix)"
    PERFORMER "Armin van Buuren"
    INDEX 00 08:35:53
FILE "10. Armin van Buuren - Neon Hero (Original Mix).wav" WAVE
    INDEX 01 00:00:00
[/spoiler]
Полиграфия: отсутствует
Лейбл: Armada Music
Каталоговый номер: ARMA298
Тип рипа: tracks+.cue
info [Профиль]  [ЛС] 
Показать сообщения:    
Ответить на тему

Текущее время: 19-Май 22:16

Часовой пояс: GMT + 4



Вы не можете начинать темы
Вы не можете отвечать на сообщения
Вы не можете редактировать свои сообщения
Вы не можете удалять свои сообщения
Вы не можете голосовать в опросах
Вы не можете прикреплять файлы к сообщениям
Вы не можете скачивать файлы