Ошибка

(Trance, House) Chicane - Giants - 2010, FLAC (tracks+.cue)+covers, lossless

Ответить на тему
 
Автор Сообщение

Mosya

Пол: Пол:Муж

Стаж: 12 лет

Сообщений: 162

Рейтинг

post 20-Ноя-2010 07:41 0[+]

[Цитировать] 

Chicane - Giants



Жанр: Trance, House
Происхождение исполнителя: UK
Год издания данного носителя: 2010
Страна-производитель носителя: UK
Тип релиза: tracks+.cue
Аудио кодек: FLAC
Битрейт аудио: lossless
Продолжительность: 01:12:37
Треклист:
[06:04] 01. Chicane - Barefoot
[05:52] 02. Chicane - Middledistancerunner
[07:26] 03. Chicane - Come Back
[03:43] 04. Chicane - What Am I Doing Here? Prt 1
[07:00] 05. Chicane - Giants
[05:04] 06. Chicane - Poppiholla (5AM)
[05:36] 07. Chicane - So Far Out To Sea
[04:31] 08. Chicane - Where Do I Start?
[06:37] 09. Chicane - From Where I Stand
[05:41] 10. Chicane - Hiding All The Stars
[06:24] 11. Chicane - What Am I Doing Here? Prt 2
[04:21] 12. Chicane - Titles
[03:53] 13. Chicane - Middledistancerunner (DC Rework Edit)

Код:

Exact Audio Copy V0.99 prebeta 5 from 4. May 2009
EAC extraction logfile from 3. September 2010, 21:19
Chicane / Giants
Used drive  : HL-DT-STDVDRAM GH22NS50   Adapter: 7  ID: 0
Read mode               : Secure
Utilize accurate stream : Yes
Defeat audio cache      : Yes
Make use of C2 pointers : No
Read offset correction                      : 667
Overread into Lead-In and Lead-Out          : No
Fill up missing offset samples with silence : Yes
Delete leading and trailing silent blocks   : No
Null samples used in CRC calculations       : Yes
Used interface                              : Installed external ASPI interface
Gap handling                                : Appended to previous track
Used output format              : User Defined Encoder
Selected bitrate                : 128 kBit/s
Quality                         : Low
Add ID3 tag                     : No
Command line compressor         : C:\Program Files\Exact Audio Copy\Flac\flac.exe
Additional command line options : -8 -V -T "ARTIST=%a" -T "TITLE=%t" -T "ALBUM=%g" -T "DATE=%y" -T "TRACKNUMBER=%n" -T "GENRE=%m" -T "COMMENT=ripped by DrStandBy" %s
TOC of the extracted CD
     Track |   Start  |  Length  | Start sector | End sector
    ---------------------------------------------------------
        1  |  0:00.00 |  6:04.63 |         0    |    27362
        2  |  6:04.63 |  5:52.60 |     27363    |    53822
        3  | 11:57.48 |  7:28.61 |     53823    |    87483
        4  | 19:26.34 |  3:45.51 |     87484    |   104409
        5  | 23:12.10 |  7:01.27 |    104410    |   136011
        6  | 30:13.37 |  5:06.37 |    136012    |   158998
        7  | 35:19.74 |  5:37.71 |    158999    |   184344
        8  | 40:57.70 |  4:31.68 |    184345    |   204737
        9  | 45:29.63 |  6:37.71 |    204738    |   234583
       10  | 52:07.59 |  5:43.02 |    234584    |   260310
       11  | 57:50.61 |  6:26.50 |    260311    |   289310
       12  | 64:17.36 |  4:26.24 |    289311    |   309284
       13  | 68:43.60 |  3:53.21 |    309285    |   326780
Track  1
     Filename E:\Chicane\Album\2010 - Giants (MODENACD4)\01. Chicane - Barefoot.wav
     Pre-gap length  0:00:02.00
     Peak level 89.1 %
     Track quality 100.0 %
     Test CRC B6ECAA60
     Copy CRC B6ECAA60
     Accurately ripped (confidence 1)  [9075FB95]
     Copy OK
Track  2
     Filename E:\Chicane\Album\2010 - Giants (MODENACD4)\02. Chicane - Middledistancerunner.wav
     Pre-gap length  0:00:00.68
     Peak level 96.6 %
     Track quality 100.0 %
     Test CRC 2B03AEA5
     Copy CRC 2B03AEA5
     Accurately ripped (confidence 1)  [B0F8AA75]
     Copy OK
Track  3
     Filename E:\Chicane\Album\2010 - Giants (MODENACD4)\03. Chicane - Come Back.wav
     Pre-gap length  0:00:00.68
     Peak level 100.0 %
     Track quality 100.0 %
     Test CRC 42BE0A87
     Copy CRC 42BE0A87
     Accurately ripped (confidence 1)  [F0A10B9C]
     Copy OK
Track  4
     Filename E:\Chicane\Album\2010 - Giants (MODENACD4)\04. Chicane - What Am I Doing Here  Prt 1.wav
     Pre-gap length  0:00:02.13
     Peak level 100.0 %
     Track quality 100.0 %
     Test CRC 30D4C392
     Copy CRC 30D4C392
     Accurately ripped (confidence 1)  [94B37C6B]
     Copy OK
Track  5
     Filename E:\Chicane\Album\2010 - Giants (MODENACD4)\05. Chicane - Giants.wav
     Pre-gap length  0:00:02.24
     Peak level 100.0 %
     Track quality 99.9 %
     Test CRC CC442DAE
     Copy CRC CC442DAE
     Accurately ripped (confidence 1)  [E373EE27]
     Copy OK
Track  6
     Filename E:\Chicane\Album\2010 - Giants (MODENACD4)\06. Chicane - Poppiholla (5AM).wav
     Pre-gap length  0:00:00.68
     Peak level 100.0 %
     Track quality 99.9 %
     Test CRC 33F3AFEB
     Copy CRC 33F3AFEB
     Accurately ripped (confidence 1)  [CFFE1BCA]
     Copy OK
Track  7
     Filename E:\Chicane\Album\2010 - Giants (MODENACD4)\07. Chicane - So Far Out To Sea.wav
     Pre-gap length  0:00:02.36
     Peak level 100.0 %
     Track quality 100.0 %
     Test CRC 979E5F0A
     Copy CRC 979E5F0A
     Accurately ripped (confidence 1)  [C858298E]
     Copy OK
Track  8
     Filename E:\Chicane\Album\2010 - Giants (MODENACD4)\08. Chicane - Where Do I Start .wav
     Pre-gap length  0:00:01.12
     Peak level 100.0 %
     Track quality 100.0 %
     Test CRC 73B0C777
     Copy CRC 73B0C777
     Accurately ripped (confidence 1)  [80836480]
     Copy OK
Track  9
     Filename E:\Chicane\Album\2010 - Giants (MODENACD4)\09. Chicane - From Where I Stand.wav
     Pre-gap length  0:00:00.62
     Peak level 100.0 %
     Track quality 100.0 %
     Test CRC 7BC9020E
     Copy CRC 7BC9020E
     Accurately ripped (confidence 1)  [3D3581BD]
     Copy OK
Track 10
     Filename E:\Chicane\Album\2010 - Giants (MODENACD4)\10. Chicane - Hiding All The Stars.wav
     Pre-gap length  0:00:00.61
     Peak level 98.8 %
     Track quality 99.9 %
     Test CRC 3203541F
     Copy CRC 3203541F
     Accurately ripped (confidence 1)  [5BDED95E]
     Copy OK
Track 11
     Filename E:\Chicane\Album\2010 - Giants (MODENACD4)\11. Chicane - What Am I Doing Here  Prt 2.wav
     Pre-gap length  0:00:01.45
     Peak level 100.0 %
     Track quality 100.0 %
     Test CRC 8B6E36B3
     Copy CRC 8B6E36B3
     Accurately ripped (confidence 1)  [D92F9097]
     Copy OK
Track 12
     Filename E:\Chicane\Album\2010 - Giants (MODENACD4)\12. Chicane - Titles.wav
     Pre-gap length  0:00:02.13
     Peak level 89.1 %
     Track quality 99.9 %
     Test CRC 02662ADD
     Copy CRC 02662ADD
     Accurately ripped (confidence 1)  [365D9A97]
     Copy OK
Track 13
     Filename E:\Chicane\Album\2010 - Giants (MODENACD4)\13. Chicane - Middledistancerunner (DC Rework Edit).wav
     Pre-gap length  0:00:04.84
     Peak level 94.4 %
     Track quality 100.0 %
     Test CRC 2B0723B8
     Copy CRC 2B0723B8
     Cannot be verified as accurate (confidence 1)  [DFDE0B6D], AccurateRip returned [715E1CCA]
     Copy OK
12 track(s) accurately ripped
 1 track(s) could not be verified as accurate
Some tracks could not be verified as accurate
No errors occurred
End of status report

Код:

REM GENRE "Trance, House"
REM DATE 2010
REM DISCID BD11050D
REM COMMENT "ExactAudioCopy v0.99pb5"
PERFORMER "Chicane"
TITLE "Giants"
FILE "01. Chicane - Barefoot.wav" WAVE
  TRACK 01 AUDIO
    TITLE "Barefoot"
    PERFORMER "Chicane"
    ISRC GBRDU1000007
    INDEX 01 00:00:00
  TRACK 02 AUDIO
    TITLE "Middledistancerunner"
    PERFORMER "Chicane"
    ISRC GBRDU1000008
    INDEX 00 06:04:12
FILE "02. Chicane - Middledistancerunner.wav" WAVE
    INDEX 01 00:00:00
  TRACK 03 AUDIO
    TITLE "Come Back"
    PERFORMER "Chicane"
    ISRC GBRDU1000009
    INDEX 00 05:52:09
FILE "03. Chicane - Come Back.wav" WAVE
    INDEX 01 00:00:00
  TRACK 04 AUDIO
    TITLE "What Am I Doing Here? Prt 1"
    PERFORMER "Chicane"
    ISRC GBRDU1000010
    INDEX 00 07:26:51
FILE "04. Chicane - What Am I Doing Here  Prt 1.wav" WAVE
    INDEX 01 00:00:00
  TRACK 05 AUDIO
    TITLE "Giants"
    PERFORMER "Chicane"
    ISRC GBRDU1000011
    INDEX 00 03:43:33
FILE "05. Chicane - Giants.wav" WAVE
    INDEX 01 00:00:00
  TRACK 06 AUDIO
    TITLE "Poppiholla (5AM)"
    PERFORMER "Chicane"
    ISRC GBRDU1000012
    INDEX 00 07:00:51
FILE "06. Chicane - Poppiholla (5AM).wav" WAVE
    INDEX 01 00:00:00
  TRACK 07 AUDIO
    TITLE "So Far Out To Sea"
    PERFORMER "Chicane"
    ISRC GBRDU1000013
    INDEX 00 05:04:10
FILE "07. Chicane - So Far Out To Sea.wav" WAVE
    INDEX 01 00:00:00
  TRACK 08 AUDIO
    TITLE "Where Do I Start?"
    PERFORMER "Chicane"
    ISRC GBRDU1000014
    INDEX 00 05:36:62
FILE "08. Chicane - Where Do I Start .wav" WAVE
    INDEX 01 00:00:00
  TRACK 09 AUDIO
    TITLE "From Where I Stand"
    PERFORMER "Chicane"
    ISRC GBRDU1000015
    INDEX 00 04:31:21
FILE "09. Chicane - From Where I Stand.wav" WAVE
    INDEX 01 00:00:00
  TRACK 10 AUDIO
    TITLE "Hiding All The Stars "
    PERFORMER "Chicane"
    ISRC GBRDU1000016
    INDEX 00 06:37:25
FILE "10. Chicane - Hiding All The Stars.wav" WAVE
    INDEX 01 00:00:00
  TRACK 11 AUDIO
    TITLE "What Am I Doing Here? Prt 2"
    PERFORMER "Chicane"
    ISRC GBRDU1000017
    INDEX 00 05:41:43
FILE "11. Chicane - What Am I Doing Here  Prt 2.wav" WAVE
    INDEX 01 00:00:00
  TRACK 12 AUDIO
    TITLE "Titles"
    PERFORMER "Chicane"
    ISRC GBRDU1000018
    INDEX 00 06:24:40
FILE "12. Chicane - Titles.wav" WAVE
    INDEX 01 00:00:00
  TRACK 13 AUDIO
    TITLE "Middledistancerunner (DC Rework Edit)"
    PERFORMER "Chicane"
    ISRC GBRDU1000019
    INDEX 00 04:21:36
FILE "13. Chicane - Middledistancerunner (DC Rework Edit).wav" WAVE
    INDEX 01 00:00:00
Полиграфия: присутствует
info [Профиль]  [ЛС] 

Ruddya

Пол: Пол:Муж

Стаж: 11 лет

Сообщений: 1

Предупреждений: 1

Белоруссия
Рейтинг

post 21-Ноя-2010 11:38 (спустя 1 день 3 часа) [-]0[+]

[Цитировать] 

Вчера в очередной раз прослушал этот альбом. Фирменный стиль Chicane. Просто офигенно Улыбаюсь
info [Профиль]  [ЛС] 
Показать сообщения:    
Ответить на тему

Текущее время: 19-Май 22:33

Часовой пояс: GMT + 4



Вы не можете начинать темы
Вы не можете отвечать на сообщения
Вы не можете редактировать свои сообщения
Вы не можете удалять свои сообщения
Вы не можете голосовать в опросах
Вы не можете прикреплять файлы к сообщениям
Вы не можете скачивать файлы