Ошибка

(Progressive Rock) Of The I - Balance Instars - 2008, FLAC (tracks+.cue), lossless

Ответить на тему
 
Автор Сообщение

TheMrMafiozi

Пол: Пол:Муж

Стаж: 10 лет

Сообщений: 859

СССР
Рейтинг

post 25-Сен-2010 20:14 0[+]

[Цитировать] 

Of The I - Balance Instars

pic="http://s53.radikal.ru/i141/1008/98/cc1a8edbefd4.jpg"


Жанр: Progressive Rock
Год выпуска диска: 2008
Производитель диска: UK
Аудио кодек: FLAC
Тип рипа: tracks+.cue
Битрейт аудио: lossless
Продолжительность: 59:33
Треклист:

1. Entrance
2. Cold
3. Single Units
4. Between Being and Ego
5. Cathexis
6. Instars
7. Mercenary
8. Ascend
9. Modern Equivalent
10. Stopping the World
Exact Audio Copy V0.99 prebeta 3 from 28. July 2007 

EAC extraction logfile from 12. April 2010, 14:57

Of the I / Balance Instars

Used drive : PLDS DVD+-RW DL-8ATS Adapter: 1 ID: 0

Read mode : Secure
Utilize accurate stream : Yes
Defeat audio cache : Yes
Make use of C2 pointers : No

Read offset correction : 6
Overread into Lead-In and Lead-Out : No
Fill up missing offset samples with silence : Yes
Delete leading and trailing silent blocks : No
Null samples used in CRC calculations : Yes
Used interface : Native Win32 interface for Win NT & 2000
Gap handling : Appended to previous track

Used output format : User Defined Encoder
Selected bitrate : 128 kBit/s
Quality : High
Add ID3 tag : No
Command line compressor : C:\Program Files\Exact Audio Copy\Flac\flac.exe
Additional command line options : -V -8 -T "artist=%a" -T "title=%t" -T "album=%g" -T "date=%y" -T "tracknumber=%n" -T "genre=%m" %s

TOC of the extracted CD

Track | Start | Length | Start sector | End sector
---------------------------------------------------------
1 | 0:00.00 | 1:13.40 | 0 | 5514
2 | 1:13.40 | 7:23.35 | 5515 | 38774
3 | 8:37.00 | 4:29.74 | 38775 | 59023
4 | 13:06.74 | 6:13.65 | 59024 | 87063
5 | 19:20.64 | 8:15.56 | 87064 | 124244
6 | 27:36.45 | 8:05.49 | 124245 | 160668
7 | 35:42.19 | 7:15.55 | 160669 | 193348
8 | 42:57.74 | 4:45.46 | 193349 | 214769
9 | 47:43.45 | 4:58.00 | 214770 | 237119
10 | 52:41.45 | 6:51.66 | 237120 | 268010

Track 1

Filename C:\music\EAC Rips\01 - Entrance.wav

Pre-gap length 0:00:02.00

Peak level 33.5 %
Track quality 100.0 %
Test CRC 57BD0303
Copy CRC 57BD0303
Accurately ripped (confidence 2) [AA0F351E]
Copy OK

Track 2

Filename C:\music\EAC Rips\02 - Cold.wav

Peak level 98.7 %
Track quality 100.0 %
Test CRC 25EC1535
Copy CRC 25EC1535
Accurately ripped (confidence 2) [500B53A4]
Copy OK

Track 3

Filename C:\music\EAC Rips\03 - Single Units.wav

Pre-gap length 0:01:07.00

Peak level 97.7 %
Track quality 99.9 %
Test CRC 98E32A15
Copy CRC 98E32A15
Accurately ripped (confidence 2) [9F1DD1B5]
Copy OK

Track 4

Filename C:\music\EAC Rips\04 - Between Being and Ego.wav

Pre-gap length 0:01:08.98

Peak level 98.3 %
Track quality 100.0 %
Test CRC 4011B1C6
Copy CRC 4011B1C6
Accurately ripped (confidence 2) [1461FF29]
Copy OK

Track 5

Filename C:\music\EAC Rips\05 - Cathexis.wav

Pre-gap length 0:00:48.46

Peak level 98.7 %
Track quality 99.9 %
Test CRC CEC75434
Copy CRC CEC75434
Accurately ripped (confidence 2) [10E8C2EA]
Copy OK

Track 6

Filename C:\music\EAC Rips\06 - Instars.wav

Peak level 99.9 %
Track quality 100.0 %
Test CRC 7F38C57D
Copy CRC 7F38C57D
Accurately ripped (confidence 2) [BF620F27]
Copy OK

Track 7

Filename C:\music\EAC Rips\07 - Mercenary.wav

Pre-gap length 0:00:34.25

Peak level 99.5 %
Track quality 100.0 %
Test CRC C37F71D9
Copy CRC C37F71D9
Accurately ripped (confidence 2) [CEAC6B8B]
Copy OK

Track 8

Filename C:\music\EAC Rips\08 - Ascend.wav

Pre-gap length 0:01:18.98

Peak level 98.3 %
Track quality 100.0 %
Test CRC CA7532B9
Copy CRC CA7532B9
Accurately ripped (confidence 2) [BC8D0CD7]
Copy OK

Track 9

Filename C:\music\EAC Rips\09 - Modern Equivalent.wav

Peak level 99.5 %
Track quality 100.0 %
Test CRC 4736D355
Copy CRC 4736D355
Accurately ripped (confidence 2) [B81EC28D]
Copy OK

Track 10

Filename C:\music\EAC Rips\10 - Stopping the World.wav

Pre-gap length 0:00:42.60

Peak level 98.3 %
Track quality 100.0 %
Test CRC 835664AD
Copy CRC 835664AD
Accurately ripped (confidence 2) [8E5568B4]
Copy OK

All tracks accurately ripped

No errors occurred

End of status report
REM GENRE "Progressive Rock"
REM DATE 2008
REM DISCID 960DF50A
REM COMMENT "ExactAudioCopy v0.99pb3"
PERFORMER "Of the I"
TITLE "Balance Instars"
FILE "01 - Entrance.wav" WAVE
TRACK 01 AUDIO
TITLE "Entrance"
PERFORMER "Of the I"
INDEX 01 00:00:00
FILE "02 - Cold.wav" WAVE
TRACK 02 AUDIO
TITLE "Cold"
PERFORMER "Of the I"
INDEX 01 00:00:00
TRACK 03 AUDIO
TITLE "Single Units"
PERFORMER "Of the I"
INDEX 00 06:16:35
FILE "03 - Single Units.wav" WAVE
INDEX 01 00:00:00
TRACK 04 AUDIO
TITLE "Between Being and Ego"
PERFORMER "Of the I"
INDEX 00 03:21:00
FILE "04 - Between Being and Ego.wav" WAVE
INDEX 01 00:00:00
TRACK 05 AUDIO
TITLE "Cathexis"
PERFORMER "Of the I"
INDEX 00 05:25:30
FILE "05 - Cathexis.wav" WAVE
INDEX 01 00:00:00
FILE "06 - Instars.wav" WAVE
TRACK 06 AUDIO
TITLE "Instars"
PERFORMER "Of the I"
INDEX 01 00:00:00
TRACK 07 AUDIO
TITLE "Mercenary"
PERFORMER "Of the I"
INDEX 00 07:31:30
FILE "07 - Mercenary.wav" WAVE
INDEX 01 00:00:00
TRACK 08 AUDIO
TITLE "Ascend"
PERFORMER "Of the I"
INDEX 00 05:56:56
FILE "08 - Ascend.wav" WAVE
INDEX 01 00:00:00
FILE "09 - Modern Equivalent.wav" WAVE
TRACK 09 AUDIO
TITLE "Modern Equivalent"
PERFORMER "Of the I"
INDEX 01 00:00:00
TRACK 10 AUDIO
TITLE "Stopping the World"
PERFORMER "Of the I"
INDEX 00 04:15:30
FILE "10 - Stopping the World.wav" WAVE
INDEX 01 00:00:00
info [Профиль]  [ЛС] 

FantasticMrFox

Пол: Пол:Муж

Стаж: 11 лет

Сообщений: 710

Россия
Рейтинг

post 26-Сен-2010 09:40 (спустя 13 часов) [-]0[+]

[Цитировать] 

Mafiozi
Спасибо, но с разделом малость ошибся - в рок бы.
info [Профиль]  [ЛС] 

TheMrMafiozi

Пол: Пол:Муж

Стаж: 10 лет

Сообщений: 859

СССР
Рейтинг

post 26-Сен-2010 10:32 (спустя 52 минуты) [-]0[+]

[Цитировать] 

FantasticMrFox
Угу
перепутал с Progressive metal

_________________
観自在菩薩行深般若波羅蜜多時、照見五蘊皆空、度一切苦厄。舎利子
も自由にお使いく
言語の科
info [Профиль]  [ЛС] 
Показать сообщения:    
Ответить на тему

Текущее время: 12-Июл 23:54

Часовой пояс: GMT + 4



Вы не можете начинать темы
Вы не можете отвечать на сообщения
Вы не можете редактировать свои сообщения
Вы не можете удалять свои сообщения
Вы не можете голосовать в опросах
Вы не можете прикреплять файлы к сообщениям
Вы не можете скачивать файлы