Ошибка

(Modern Classical, Trip-Hop, Ambient) Rob Dougan - Furious Angels [Special Limited Edition] - 2003, FLAC (tracks+.cue), lossless

Ответить на тему
 
Автор Сообщение

DJ Andreyka

Пол: Пол:Муж

Стаж: 12 лет

Сообщений: 535

Предупреждений: 3

Россия
Рейтинг

post 21-Авг-2010 19:23 0[+]

[Цитировать] 

Rob Dougan - Furious Angels [Special Limited Edition]



Жанр: Modern Classical, Trip-Hop, Ambient
Происхождение исполнителя: Australia, Sydney
Год издания данного носителя: 2003
Страна-производитель носителя: USA
Полиграфия: отсутствует
Тип релиза: tracks+.cue
Аудио кодек: FLAC
Битрейт аудио: lossless
Продолжительность: 02:04:51
Треклист:
[Disc One]
01. Prelude
02. Furious Angels
03. Will You Follow Me?
04. Left Me For Dead
05. I'm Not Driving Anymore
06. Clubbed To Death [Kurayamino Variation]
07. There's Only Me
08. Instrumental
09. Nothing At All
10. Born Yesterday
11. Speed Me Towards Death
12. Drinking Song
13. Pause
14. One And The Same [Coda]
+
15. Clubbed To Death 2

[Disc Two - Instrumental Version]
01. Will You Follow Me?
02. Furious Angels
03. Left Me For Dead
04. I'm Not Driving Anymore
05. There's Only Me
06. Instrumental
07. Nothing At All
08. Born Yesterday
09. Speed Me Towards Death
10. One And The Same
REM ACCURATERIPID 0025a06c-01b2f85a-c110ac0f 
REM GENRE "Modern Classical/Trip-Hop"
REM DATE 2003
REM DISCID C110AC0F
REM COMMENT "ExactAudioCopy v0.99pb4"
CATALOG 0093624843023
PERFORMER "Rob Dougan"
TITLE "Furious Angels [Special Limited Edition][Disc One]"
REM DISCNUMBER 01
REM TOTALDISCS 02
FILE "01. Prelude.flac" WAVE
TRACK 01 AUDIO
TITLE "Prelude"
PERFORMER "Rob Dougan"
ISRC GBBXH0200009
FLAGS DCP
INDEX 01 00:00:00
TRACK 02 AUDIO
TITLE "Furious Angels"
PERFORMER "Rob Dougan"
ISRC GBBXH9820016
FLAGS DCP
INDEX 00 00:42:49
FILE "02. Furious Angels.flac" WAVE
INDEX 01 00:00:00
TRACK 03 AUDIO
TITLE "Will You Follow Me?"
PERFORMER "Rob Dougan"
ISRC GBBXH0100126
FLAGS DCP
INDEX 00 05:56:12
FILE "03. Will You Follow Me.flac" WAVE
INDEX 01 00:00:00
TRACK 04 AUDIO
TITLE "Left Me For Dead"
PERFORMER "Rob Dougan"
ISRC GBBXH0100129
FLAGS DCP
INDEX 00 03:49:36
FILE "04. Left Me For Dead.flac" WAVE
INDEX 01 00:00:00
FILE "05. I'm Not Driving Anymore.flac" WAVE
TRACK 05 AUDIO
TITLE "I'm Not Driving Anymore"
PERFORMER "Rob Dougan"
ISRC GBBXH0100127
FLAGS DCP
INDEX 01 00:00:00
FILE "06. Clubbed To Death [Kurayamino Variation].flac" WAVE
TRACK 06 AUDIO
TITLE "Clubbed To Death [Kurayamino Variation]"
PERFORMER "Rob Dougan"
ISRC GBAQH9500703
FLAGS DCP
INDEX 01 00:00:00
TRACK 07 AUDIO
TITLE "There's Only Me"
PERFORMER "Rob Dougan"
ISRC GBBXH0100128
FLAGS DCP
INDEX 00 07:27:32
FILE "07. There's Only Me.flac" WAVE
INDEX 01 00:00:00
FILE "08. Instrumental.flac" WAVE
TRACK 08 AUDIO
TITLE "Instrumental"
PERFORMER "Rob Dougan"
ISRC GBBXH0100130
FLAGS DCP
INDEX 01 00:00:00
FILE "09. Nothing At All.flac" WAVE
TRACK 09 AUDIO
TITLE "Nothing At All"
PERFORMER "Rob Dougan"
ISRC GBBXH0100130
FLAGS DCP
INDEX 01 00:00:00
FILE "10. Born Yesterday.flac" WAVE
TRACK 10 AUDIO
TITLE "Born Yesterday"
PERFORMER "Rob Dougan"
ISRC GBBXH0100131
FLAGS DCP
INDEX 01 00:00:00
TRACK 11 AUDIO
TITLE "Speed Me Towards Death"
PERFORMER "Rob Dougan"
ISRC GBBXH0100132
FLAGS DCP
INDEX 00 05:18:23
FILE "11. Speed Me Towards Death.flac" WAVE
INDEX 01 00:00:00
TRACK 12 AUDIO
TITLE "Drinking Song"
PERFORMER "Rob Dougan"
ISRC GBBXH0100133
FLAGS DCP
INDEX 00 04:31:68
FILE "12. Drinking Song.flac" WAVE
INDEX 01 00:00:00
FILE "13. Pause.flac" WAVE
TRACK 13 AUDIO
TITLE "Pause"
PERFORMER "Rob Dougan"
ISRC USRE10300489
FLAGS DCP
INDEX 01 00:00:00
FILE "14. One And The Same [Coda].flac" WAVE
TRACK 14 AUDIO
TITLE "One And The Same [Coda]"
PERFORMER "Rob Dougan"
ISRC GBBXH0200010
FLAGS DCP
INDEX 01 00:00:00
FILE "15. Clubbed To Death 2 [Exclusive Track].flac" WAVE
TRACK 15 AUDIO
TITLE "Clubbed To Death 2 [Exclusive Track]"
PERFORMER "Rob Dougan"
ISRC GBBXH0200008
FLAGS DCP
INDEX 01 00:00:00
REM ACCURATERIPID 001563a9-00b16917-9212550b 
REM GENRE "Modern Classical/Trip-Hop"
REM DATE 2003
REM DISCID 9212550B
REM COMMENT "ExactAudioCopy v0.99pb4"
CATALOG 0093624843023
PERFORMER "Rob Dougan"
TITLE "Furious Angels [Special Limited Edition][Disc Two - Instrumental Version]"
REM DISCNUMBER 02
REM TOTALDISCS 02
FILE "01. Will You Follow Me [Instrumental].flac" WAVE
TRACK 01 AUDIO
TITLE "Will You Follow Me? [Instrumental]"
PERFORMER "Rob Dougan"
ISRC GBBXH0100150
FLAGS DCP
INDEX 01 00:00:00
TRACK 02 AUDIO
TITLE "Furious Angels [Instrumental]"
PERFORMER "Rob Dougan"
ISRC GBBXH9820083
FLAGS DCP
INDEX 00 04:32:20
FILE "02. Furious Angels [Instrumental].flac" WAVE
INDEX 01 00:00:00
TRACK 03 AUDIO
TITLE "Left Me For Dead [Instrumental]"
PERFORMER "Rob Dougan"
ISRC GBBXH0100151
FLAGS DCP
INDEX 00 06:02:34
FILE "03. Left Me For Dead [Instrumental].flac" WAVE
INDEX 01 00:00:00
TRACK 04 AUDIO
TITLE "I'm Not Driving Anymore [Instrumental]"
PERFORMER "Rob Dougan"
ISRC GBBXH0100152
FLAGS DCP
INDEX 00 04:41:40
FILE "04. I'm Not Driving Anymore [Instrumental].flac" WAVE
INDEX 01 00:00:00
TRACK 05 AUDIO
TITLE "There's Only Me [Instrumental]"
PERFORMER "Rob Dougan"
ISRC GBBXH0100153
INDEX 00 04:32:61
FILE "05. There's Only Me [Instrumental].flac" WAVE
INDEX 01 00:00:00
TRACK 06 AUDIO
TITLE "Instrumental [Instrumental]"
PERFORMER "Rob Dougan"
ISRC GBBXH0100130
FLAGS DCP
INDEX 00 05:37:20
FILE "06. Instrumental [Instrumental].flac" WAVE
INDEX 01 00:00:00
TRACK 07 AUDIO
TITLE "Nothing At All [Instrumental]"
PERFORMER "Rob Dougan"
ISRC GBBXH0100154
FLAGS DCP
INDEX 00 04:29:38
FILE "07. Nothing At All [Instrumental].flac" WAVE
INDEX 01 00:00:00
TRACK 08 AUDIO
TITLE "Born Yesterday [Instrumental]"
PERFORMER "Rob Dougan"
ISRC GBBXH0100155
FLAGS DCP
INDEX 00 05:52:53
FILE "08. Born Yesterday [Instrumental].flac" WAVE
INDEX 01 00:00:00
TRACK 09 AUDIO
TITLE "Speed Me Towards Death [Instrumental]"
PERFORMER "Rob Dougan"
ISRC GBBXH0100156
FLAGS DCP
INDEX 00 07:32:43
FILE "09. Speed Me Towards Death [Instrumental].flac" WAVE
INDEX 01 00:00:00
TRACK 10 AUDIO
TITLE "One And The Same [Instrumental]"
PERFORMER "Rob Dougan"
ISRC GBBXH0100157
FLAGS DCP
INDEX 00 04:28:52
FILE "10. One And The Same [Instrumental].flac" WAVE
INDEX 01 00:00:00
TRACK 11 MODEx/2xxx
TITLE "Data Track"
PERFORMER "Rob Dougan"
INDEX 00 05:44:64
Exact Audio Copy V0.99 prebeta 4 from 23. January 2008 

EAC extraction logfile from 7. July 2009, 17:51

Rob Dougan / Furious Angels (Disc 01)

Used drive : LITE-ON DVD SOHD-16P9S Adapter: 3 ID: 0

Read mode : Secure
Utilize accurate stream : Yes
Defeat audio cache : Yes
Make use of C2 pointers : No

Read offset correction : 6
Overread into Lead-In and Lead-Out : No
Fill up missing offset samples with silence : Yes
Delete leading and trailing silent blocks : No
Null samples used in CRC calculations : Yes
Used interface : Native Win32 interface for Win NT & 2000
Gap handling : Appended to previous track

Used output format : User Defined Encoder
Selected bitrate : 768 kBit/s
Quality : High
Add ID3 tag : No
Command line compressor : C:\Program Files\Exact Audio Copy\FLAC\FLAC.EXE
Additional command line options : -6 -V -T "ARTIST=%a" -T "TITLE=%t" -T "ALBUM=%g" -T "DATE=%y" -T "TRACKNUMBER=%n" -T "GENRE=%m" -T "COMMENT=%e" %s -o %d

TOC of the extracted CD

Track | Start | Length | Start sector | End sector
---------------------------------------------------------
1 | 0:00.00 | 0:43.01 | 0 | 3225
2 | 0:43.01 | 5:56.19 | 3226 | 29944
3 | 6:39.20 | 3:50.36 | 29945 | 47230
4 | 10:29.56 | 4:39.66 | 47231 | 68221
5 | 15:09.47 | 4:34.08 | 68222 | 88779
6 | 19:43.55 | 7:29.41 | 88780 | 122495
7 | 27:13.21 | 5:36.70 | 122496 | 147765
8 | 32:50.16 | 4:28.38 | 147766 | 167903
9 | 37:18.54 | 6:32.10 | 167904 | 197313
10 | 43:50.64 | 5:19.71 | 197314 | 221309
11 | 49:10.60 | 4:32.67 | 221310 | 241776
12 | 53:43.52 | 3:58.61 | 241777 | 259687
13 | 57:42.38 | 0:31.72 | 259688 | 262084
14 | 58:14.35 | 5:46.05 | 262085 | 288039
15 | 64:00.40 | 7:07.51 | 288040 | 320115

Track 1

Filename C:\Downloads\01 - Prelude.wav

Pre-gap length 0:00:02.00

Peak level 44.2 %
Track quality 100.0 %
Test CRC 3956707F
Copy CRC 3956707F
Accurately ripped (confidence 30) [E901036A]
Copy OK

Track 2

Filename C:\Downloads\02 - Furious Angels.wav

Pre-gap length 0:00:00.27

Peak level 98.6 %
Track quality 100.0 %
Test CRC 4350D1C5
Copy CRC 4350D1C5
Accurately ripped (confidence 30) [D850C17A]
Copy OK

Track 3

Filename C:\Downloads\03 - Will You Follow Me .wav

Pre-gap length 0:00:00.07

Peak level 99.3 %
Track quality 99.9 %
Test CRC 7E490384
Copy CRC 7E490384
Accurately ripped (confidence 31) [326015F2]
Copy OK

Track 4

Filename C:\Downloads\04 - Left Me For Dead.wav

Pre-gap length 0:00:01.00

Peak level 98.6 %
Track quality 100.0 %
Test CRC D2B06F7A
Copy CRC D2B06F7A
Accurately ripped (confidence 31) [7A8A3A91]
Copy OK

Track 5

Filename C:\Downloads\05 - I'm Not Driving Anymore.wav

Peak level 96.5 %
Track quality 100.0 %
Test CRC 1CCD867D
Copy CRC 1CCD867D
Accurately ripped (confidence 31) [3D7A6207]
Copy OK

Track 6

Filename C:\Downloads\06 - Clubbed To Death (Kurayamino Variation).wav

Peak level 94.5 %
Track quality 100.0 %
Test CRC 064E0A5B
Copy CRC 064E0A5B
Exact Audio Copy V0.99 prebeta 4 from 23. January 2008 

EAC extraction logfile from 7. July 2009, 18:15

Rob Dougan / Furious Angels (Disc 02)

Used drive : LITE-ON DVD SOHD-16P9S Adapter: 3 ID: 0

Read mode : Secure
Utilize accurate stream : Yes
Defeat audio cache : Yes
Make use of C2 pointers : No

Read offset correction : 6
Overread into Lead-In and Lead-Out : No
Fill up missing offset samples with silence : Yes
Delete leading and trailing silent blocks : No
Null samples used in CRC calculations : Yes
Used interface : Native Win32 interface for Win NT & 2000
Gap handling : Appended to previous track

Used output format : User Defined Encoder
Selected bitrate : 768 kBit/s
Quality : High
Add ID3 tag : No
Command line compressor : C:\Program Files\Exact Audio Copy\FLAC\FLAC.EXE
Additional command line options : -6 -V -T "ARTIST=%a" -T "TITLE=%t" -T "ALBUM=%g" -T "DATE=%y" -T "TRACKNUMBER=%n" -T "GENRE=%m" -T "COMMENT=%e" %s -o %d

TOC of the extracted CD

Track | Start | Length | Start sector | End sector
---------------------------------------------------------
1 | 0:00.00 | 4:32.73 | 0 | 20472
2 | 4:32.73 | 6:03.36 | 20473 | 47733
3 | 10:36.34 | 4:42.59 | 47734 | 68942
4 | 15:19.18 | 4:34.08 | 68943 | 89500
5 | 19:53.26 | 5:38.21 | 89501 | 114871
6 | 25:31.47 | 4:30.18 | 114872 | 135139
7 | 30:01.65 | 5:53.30 | 135140 | 161644
8 | 35:55.20 | 7:32.65 | 161645 | 195609
9 | 43:28.10 | 4:30.14 | 195610 | 215873
10 | 47:58.24 | 5:44.64 | 215874 | 241737
11 | 56:15.13 | 21:57.64 | 253138 | 351976

Track 1

Filename C:\Downloads\01 - Will You Follow Me .wav

Pre-gap length 0:00:02.00

Peak level 99.3 %
Track quality 100.0 %
Test CRC 3E0A1CD6
Copy CRC 3E0A1CD6
Accurately ripped (confidence 32) [097C81F4]
Copy OK

Track 2

Filename C:\Downloads\02 - Furious Angels.wav

Pre-gap length 0:00:00.53

Peak level 98.6 %
Track quality 100.0 %
Test CRC 6C34BF4C
Copy CRC 6C34BF4C
Accurately ripped (confidence 34) [10F203D1]
Copy OK

Track 3

Filename C:\Downloads\03 - Left Me For Dead.wav

Pre-gap length 0:00:01.02

Peak level 98.6 %
Track quality 100.0 %
Test CRC 80BC55C7
Copy CRC 80BC55C7
Accurately ripped (confidence 34) [FD643E38]
Copy OK

Track 4

Filename C:\Downloads\04 - I'm Not Driving Anymore.wav

Pre-gap length 0:00:01.19

Peak level 98.6 %
Track quality 100.0 %
Test CRC 3DF17D69
Copy CRC 3DF17D69
Accurately ripped (confidence 34) [D3F4B203]
Copy OK

Track 5

Filename C:\Downloads\05 - There's Only Me.wav

Pre-gap length 0:00:01.22

Peak level 98.6 %
Track quality 100.0 %
Test CRC B2E1279A
Copy CRC B2E1279A
Accurately ripped (confidence 34) [2082019C]
Copy OK

Track 6

Filename C:\Downloads\06 - Instrumental.wav

Pre-gap length 0:00:01.01

Peak level 98.3 %
Track quality 100.0 %
Test CRC E260ADCE
Copy CRC E260ADCE
Accurately ripped (confidence 33) [D526295F]
Copy OK

Track 7

Filename C:\Downloads\07 - Nothing At All.wav

Pre-gap length 0:00:00.55

Peak level 95.1 %
Track quality 100.0 %
Test CRC 9F429BF2
Copy CRC 9F429BF2
Accurately ripped (confidence 34) [7930F250]
Copy OK

Track 8

Filename C:\Downloads\08 - Born Yesterday.wav

Pre-gap length 0:00:00.52

Peak level 99.3 %
Track quality 100.0 %
Test CRC 0DF3AA56
Copy CRC 0DF3AA56
Accurately ripped (confidence 34) [9743FF33]
Copy OK

Track 9

Filename C:\Downloads\09 - Speed Me Towards Death.wav

Pre-gap length 0:00:00.22

Peak level 99.3 %
Track quality 100.0 %
Test CRC 5DC3D80B
Copy CRC 5DC3D80B
Accurately ripped (confidence 34) [A5A221F2]
Copy OK

Track 10

Filename C:\Downloads\10 - One And The Same.wav

Pre-gap length 0:00:01.37

Peak level 99.3 %
Track quality 100.0 %
Test CRC 289E3D3E
Copy CRC 289E3D3E
Accurately ripped (confidence 33) [68B83C72]
Copy OK

All tracks accurately ripped

No errors occurred

End of status report
info [Профиль]  [ЛС] 

ManDrake

Пол: Пол:Муж

Стаж: 12 лет

Сообщений: 141

Россия
Рейтинг

post 21-Авг-2010 21:13 (спустя 1 час 50 минут) [-]0[+]

[Цитировать] 

Огроменное спасибо!

_________________
"Выживает не тот, кто умеет жить "на пять",
А тот, кто просто не умеет умирать..."

info [Профиль]  [ЛС] 

theronin

Пол: Пол:Муж

Стаж: 12 лет

Сообщений: 7

Россия
Рейтинг

post 21-Авг-2010 21:49 (спустя 36 минут) [-]0[+]

[Цитировать] 

kolob_117 kolob_117 kolob_117
info [Профиль]  [ЛС] 

Wolfrus

Стаж: 13 лет

Сообщений: 10

Рейтинг

post 21-Ноя-2010 13:29 (спустя 2 месяца 30 дней) [-]0[+]

[Цитировать] 

о0)))Огромное спасибо)))
info [Профиль]  [ЛС] 

Naizutsu

Стаж: 5 лет 1 месяц

Сообщений: 37

Россия
Рейтинг

post 05-Июн-2017 15:40 (спустя 6 лет 6 месяцев) [-]0[+]

[Цитировать] 

Спасибо, великий музыкант!
info [Профиль]  [ЛС] 
Показать сообщения:    
Ответить на тему

Текущее время: 19-Май 22:29

Часовой пояс: GMT + 4



Вы не можете начинать темы
Вы не можете отвечать на сообщения
Вы не можете редактировать свои сообщения
Вы не можете удалять свои сообщения
Вы не можете голосовать в опросах
Вы не можете прикреплять файлы к сообщениям
Вы не можете скачивать файлы