Ошибка

(Tango, Electronica, Nu jazz, Dub, Trip-hop, Nuevo Tango) Gotan Project - Дискография (2001-2010) - 1289, FLAC (tracks+.cue)+covers, lossless

Ответить на тему
 
Автор Сообщение

Fokich

Пол: Пол:Муж

Стаж: 12 лет

Сообщений: 259

Россия
Рейтинг

post 17-Авг-2010 14:43 1[+]

[Цитировать] 

Gotan Project - Дискография (2001-2010)

Жанр: Tango, Electronica, Nu jazz, Dub, Trip-hop, Nuevo Tango
Происхождение исполнителя: Paris, France
Год издания данного носителя: 2001-2010
Страна-производитель носителя: France
Тип релиза: tracks+.cue
Аудио кодек: FLAC
Битрейт аудио: lossless
Продолжительность: большая
Полиграфия: присутствует



CD1:

01. Queremos paz (5:16)
02. Época (4:29)
03. Chunga's Revenge (5:02)
04. Tríptico (8:26)
05. Santa María (del buen ayre) (5:58)
06. Una música brutal (4:12)
07. El capitalismo foráneo (6:13)
08. Last Tango in Paris (5:51)
09. La del ruso (6:22)
10. Vuelvo al sur (7:00)

Duration: 00:58:47

CD2 - Bonus CD:

01. Tríptico (Peter Kruder Mix) (10:11)
02. Santa María (Tom Middleton's Cosmos Mix) (8:20)
03. El Capitalismo Foráneo (Antipop Consortium Mix) (3:55)
04. Santa María (Pepe Braddock Mix) (7:06)

Duration: 00:29:33

Код:

CUERipper v2.0.9 Copyright (C) 2008-10 Gregory S. Chudov

EAC extraction logfile from 16. July 2010, 23:47

Gotan Project / La revancha del tango

Used drive  : HL-DT-ST DVDRAM GSA-4163B   Adapter: 1  ID: 0

Read mode               : Secure
Utilize accurate stream : Yes
Defeat audio cache      : Yes
Make use of C2 pointers : No

Read offset correction                      : 667
Overread into Lead-In and Lead-Out          : No
Fill up missing offset samples with silence : Yes
Delete leading and trailing silent blocks   : No
Null samples used in CRC calculations       : Yes
Used interface                              : Native Win32 interface for Win NT & 2000
Gap handling                                : Appended to previous track

Used output format : Internal WAV Routines
Sample format      : 44.100 Hz; 16 Bit; Stereo

TOC of the extracted CD

     Track |   Start  |  Length  | Start sector | End sector
    ---------------------------------------------------------
        1  |  0:00.00 |  5:15.62 |         0    |    23686   
        2  |  5:15.62 |  4:28.38 |     23687    |    43824   
        3  |  9:44.25 |  5:02.10 |     43825    |    66484   
        4  | 14:46.35 |  8:26.27 |     66485    |   104461   
        5  | 23:12.62 |  5:57.68 |    104462    |   131304   
        6  | 29:10.55 |  4:11.60 |    131305    |   150189   
        7  | 33:22.40 |  6:12.70 |    150190    |   178159   
        8  | 39:35.35 |  5:50.50 |    178160    |   204459   
        9  | 45:26.10 |  6:22.07 |    204460    |   233116   
       10  | 51:48.17 |  6:59.45 |    233117    |   264586   

Track  1

     Filename E:\Gotan Project\2001 - La revancha del tango\01. Queremos paz.wav

     Pre-gap length  0:00:02.00

     Peak level 100.0 %
     Track quality 100.0 %
     Test CRC EC75B2D1
     Copy CRC EC75B2D1
     Accurately ripped (confidence 28)  [50EAC485]
     Copy OK

Track  2

     Filename E:\Gotan Project\2001 - La revancha del tango\02. Epoca.wav

     Peak level 100.0 %
     Track quality 100.0 %
     Test CRC ED757658
     Copy CRC ED757658
     Accurately ripped (confidence 28)  [2ACB9B6B]
     Copy OK

Track  3

     Filename E:\Gotan Project\2001 - La revancha del tango\03. Chunga's Revenge.wav

     Peak level 100.0 %
     Track quality 100.0 %
     Test CRC DC1AB550
     Copy CRC DC1AB550
     Accurately ripped (confidence 28)  [13EFE5E1]
     Copy OK

Track  4

     Filename E:\Gotan Project\2001 - La revancha del tango\04. Triptico.wav

     Peak level 100.0 %
     Track quality 100.0 %
     Test CRC D6DFA9F2
     Copy CRC D6DFA9F2
     Accurately ripped (confidence 28)  [3EE24A0B]
     Copy OK

Track  5

     Filename E:\Gotan Project\2001 - La revancha del tango\05. Santa Maria (del buen ayre).wav

     Peak level 100.0 %
     Track quality 100.0 %
     Test CRC 967C869D
     Copy CRC 967C869D
     Accurately ripped (confidence 28)  [70398450]
     Copy OK

Track  6

     Filename E:\Gotan Project\2001 - La revancha del tango\06. Una musica brutal.wav

     Peak level 100.0 %
     Track quality 100.0 %
     Test CRC 95E604DC
     Copy CRC 95E604DC
     Accurately ripped (confidence 28)  [82A77095]
     Copy OK

Track  7

     Filename E:\Gotan Project\2001 - La revancha del tango\07. El capitalismo foraneo.wav

     Peak level 100.0 %
     Track quality 100.0 %
     Test CRC 0BAB422F
     Copy CRC 0BAB422F
     Accurately ripped (confidence 28)  [7DD9CF98]
     Copy OK

Track  8

     Filename E:\Gotan Project\2001 - La revancha del tango\08. Last Tango in Paris.wav

     Peak level 100.0 %
     Track quality 100.0 %
     Test CRC A8102732
     Copy CRC A8102732
     Accurately ripped (confidence 28)  [0A56AFEB]
     Copy OK

Track  9

     Filename E:\Gotan Project\2001 - La revancha del tango\09. La del ruso.wav

     Peak level 100.0 %
     Track quality 100.0 %
     Test CRC B55BE864
     Copy CRC B55BE864
     Accurately ripped (confidence 28)  [78C92C9B]
     Copy OK

Track 10

     Filename E:\Gotan Project\2001 - La revancha del tango\10. Vuelvo al sur.wav

     Peak level 100.0 %
     Track quality 100.0 %
     Test CRC 240052FB
     Copy CRC 240052FB
     Accurately ripped (confidence 29)  [2F8D2C57]
     Copy OK

All tracks accurately ripped

No errors occurred

End of status report

Код:

Exact Audio Copy V0.99 prebeta 3 from 28. July 2007

EAC extraction logfile from 23. August 2009, 21:20

Gotan Project / La Revancha Del Tango (Bonus Disc)

Used drive  : HL-DT-STDVDRAM GH15F   Adapter: 3  ID: 3

Read mode               : Secure
Utilize accurate stream : Yes
Defeat audio cache      : Yes
Make use of C2 pointers : No

Read offset correction                      : 667
Overread into Lead-In and Lead-Out          : No
Fill up missing offset samples with silence : Yes
Delete leading and trailing silent blocks   : No
Null samples used in CRC calculations       : Yes
Used interface                              : Native Win32 interface for Win NT & 2000
Gap handling                                : Appended to previous track

Used output format              : User Defined Encoder
Selected bitrate                : 192 kBit/s
Quality                         : High
Add ID3 tag                     : No
Command line compressor         : C:\Program Files\Exact Audio Copy\Flac\flac.exe
Additional command line options : -8 -A tukey(0.25) -A gauss(0.1875) -b 4096 -V -T "artist=%a" -T "title=%t" -T "album=%g" -T "date=%y" -T "tracknumber=%n" -T "genre=%m" %s --sector-align

TOC of the extracted CD

     Track |   Start  |  Length  | Start sector | End sector
    ---------------------------------------------------------
        1  |  0:00.00 | 10:11.35 |         0    |    45859   
        2  | 10:11.35 |  8:20.02 |     45860    |    83361   
        3  | 18:31.37 |  3:55.33 |     83362    |   101019   
        4  | 22:26.70 |  7:06.32 |    101020    |   133001   
        5  | 32:05.27 | 10:25.44 |    144402    |   191320   

Track  1

     Filename D:\EAC rips\Gotan Project - 2003 - La Revancha Del Tango (Bonus Disc)\01 - Trнptico (Peter Kruder Mix).wav

     Pre-gap length  0:00:02.00

     Peak level 100.0 %
     Track quality 100.0 %
     Test CRC 5D47EE1E
     Copy CRC 5D47EE1E
     Accurately ripped (confidence 17)  [D6C2EA6B]
     Copy OK

Track  2

     Filename D:\EAC rips\Gotan Project - 2003 - La Revancha Del Tango (Bonus Disc)\02 - Santa Marнa (Tom Middleton's Cosmos Mix).wav

     Peak level 100.0 %
     Track quality 100.0 %
     Test CRC 9E50CA25
     Copy CRC 9E50CA25
     Accurately ripped (confidence 17)  [70175059]
     Copy OK

Track  3

     Filename D:\EAC rips\Gotan Project - 2003 - La Revancha Del Tango (Bonus Disc)\03 - El Capitalismo Forбneo (Antipop Consortium Mix).wav

     Peak level 79.4 %
     Track quality 99.9 %
     Test CRC 87294497
     Copy CRC 87294497
     Accurately ripped (confidence 17)  [3417081B]
     Copy OK

Track  4

     Filename D:\EAC rips\Gotan Project - 2003 - La Revancha Del Tango (Bonus Disc)\04 - Santa Marнa (Pepe Braddock Mix).wav

     Peak level 100.0 %
     Track quality 100.0 %
     Test CRC A8A6E994
     Copy CRC A8A6E994
     Accurately ripped (confidence 17)  [B418FD0B]
     Copy OK

All tracks accurately ripped

No errors occurred

End of status report

Код:

REM ACCURATERIPID 00155dd6-00aca09b-890dc70a
REM DISCID 890DC70A
REM COMMENT "ExactAudioCopy v0.99pb4"
REM DATE 2001
PERFORMER "Gotan Project"
TITLE "La revancha del tango"
FILE "01. Queremos paz.flac" WAVE
  TRACK 01 AUDIO
    TITLE "Queremos paz"
    PERFORMER "Gotan Project"
    INDEX 01 00:00:00
FILE "02. Epoca.flac" WAVE
  TRACK 02 AUDIO
    TITLE "Epoca"
    PERFORMER "Gotan Project"
    INDEX 01 00:00:00
FILE "03. Chunga's Revenge.flac" WAVE
  TRACK 03 AUDIO
    TITLE "Chunga's Revenge"
    PERFORMER "Gotan Project"
    INDEX 01 00:00:00
FILE "04. Triptico.flac" WAVE
  TRACK 04 AUDIO
    TITLE "Triptico"
    PERFORMER "Gotan Project"
    INDEX 01 00:00:00
FILE "05. Santa Maria (del buen ayre).flac" WAVE
  TRACK 05 AUDIO
    TITLE "Santa Maria (del buen ayre)"
    PERFORMER "Gotan Project"
    INDEX 01 00:00:00
FILE "06. Una musica brutal.flac" WAVE
  TRACK 06 AUDIO
    TITLE "Una musica brutal"
    PERFORMER "Gotan Project"
    INDEX 01 00:00:00
FILE "07. El capitalismo foraneo.flac" WAVE
  TRACK 07 AUDIO
    TITLE "El capitalismo foraneo"
    PERFORMER "Gotan Project"
    INDEX 01 00:00:00
FILE "08. Last Tango in Paris.flac" WAVE
  TRACK 08 AUDIO
    TITLE "Last Tango in Paris"
    PERFORMER "Gotan Project"
    INDEX 01 00:00:00
FILE "09. La del ruso.flac" WAVE
  TRACK 09 AUDIO
    TITLE "La del ruso"
    PERFORMER "Gotan Project"
    INDEX 01 00:00:00
FILE "10. Vuelvo al sur.flac" WAVE
  TRACK 10 AUDIO
    TITLE "Vuelvo al sur"
    PERFORMER "Gotan Project"
    INDEX 01 00:00:00

Код:

REM GENRE Electronic
REM DATE 2003
REM DISCID 3509F605
REM COMMENT "ExactAudioCopy v0.99pb3"
PERFORMER "Gotan Project"
TITLE "La Revancha Del Tango (Bonus Disc)"
FILE "Gotan Project - 2003 - La Revancha Del Tango (Bonus Disc)\01 - Trнptico (Peter Kruder Mix).wav" WAVE
  TRACK 01 AUDIO
    TITLE "Trнptico (Peter Kruder Mix)"
    PERFORMER "Gotan Project"
    INDEX 01 00:00:00
FILE "Gotan Project - 2003 - La Revancha Del Tango (Bonus Disc)\02 - Santa Marнa (Tom Middleton's Cosmos Mix).wav" WAVE
  TRACK 02 AUDIO
    TITLE "Santa Marнa (Tom Middleton's Cosmos Mix)"
    PERFORMER "Gotan Project"
    INDEX 01 00:00:00
FILE "Gotan Project - 2003 - La Revancha Del Tango (Bonus Disc)\03 - El Capitalismo Forбneo (Antipop Consortium Mix).wav" WAVE
  TRACK 03 AUDIO
    TITLE "El Capitalismo Forбneo (Antipop Consortium Mix)"
    PERFORMER "Gotan Project"
    INDEX 01 00:00:00
FILE "Gotan Project - 2003 - La Revancha Del Tango (Bonus Disc)\04 - Santa Marнa (Pepe Braddock Mix).wav" WAVE
  TRACK 04 AUDIO
    TITLE "Santa Marнa (Pepe Braddock Mix)"
    PERFORMER "Gotan Project"
    INDEX 01 00:00:00
  TRACK 05 MODEx/2xxx
    TITLE "video: Santa Marнa "
    PERFORMER "Gotan Project"
    INDEX 00 07:06:32


CD1:

01. La Cumparsita (0:33)
02. Cité Tango (3:55)
03. Round About Midnight (7:09)
04. Confianzas (5:28)
05. The Man (El Hombre Remix) (7:12)
06. Percusion (part 1) (4:14)
07. La Del Ruso (Calexico Version) (7:01)
08. El Capitalismo Foráneo (Antipop Consortium Remix) (3:27)
09. Tres Y Dos (Tango) (2:53)
10. M.A.T.H. (2:56)
11. Tríptico (Peter Kruder Trip De Luxe) (10:10)
12. Santa María (Del Buen Ayre) (Pepe Bradock Wider Remix) (6:18)

Duration: 01:01:14

CD2 - Bonus CD:

01. La Cruz Del Sur (5:33)

Duration: 00:05:33

Код:

CUERipper v2.0.9 Copyright (C) 2008-10 Gregory S. Chudov

EAC extraction logfile from 17. July 2010, 0:10

Gotan Project / Inspiracion · Espiracion

Used drive  : HL-DT-ST DVDRAM GSA-4163B   Adapter: 1  ID: 0

Read mode               : Secure
Utilize accurate stream : Yes
Defeat audio cache      : Yes
Make use of C2 pointers : No

Read offset correction                      : 667
Overread into Lead-In and Lead-Out          : No
Fill up missing offset samples with silence : Yes
Delete leading and trailing silent blocks   : No
Null samples used in CRC calculations       : Yes
Used interface                              : Native Win32 interface for Win NT & 2000
Gap handling                                : Appended to previous track

Used output format : Internal WAV Routines
Sample format      : 44.100 Hz; 16 Bit; Stereo

TOC of the extracted CD

     Track |   Start  |  Length  | Start sector | End sector
    ---------------------------------------------------------
        1  |  0:00.00 |  0:32.51 |         0    |     2450   
        2  |  0:32.51 |  3:54.40 |      2451    |    20040   
        3  |  4:27.16 |  7:09.14 |     20041    |    52229   
        4  | 11:36.30 |  5:28.15 |     52230    |    76844   
        5  | 17:04.45 |  7:12.21 |     76845    |   109265   
        6  | 24:16.66 |  4:14.13 |    109266    |   128328   
        7  | 28:31.04 |  7:01.04 |    128329    |   159907   
        8  | 35:32.08 |  3:26.40 |    159908    |   175397   
        9  | 38:58.48 |  2:52.39 |    175398    |   188336   
       10  | 41:51.12 |  2:55.41 |    188337    |   201502   
       11  | 44:46.53 | 10:09.55 |    201503    |   247232   
       12  | 54:56.33 |  6:17.48 |    247233    |   275555   

Track  1

     Filename E:\Gotan Project\2004 - Inspiracion · Espiracion\01. La Cumparsita.wav

     Pre-gap length  0:00:02.00

     Peak level 92.9 %
     Track quality 100.0 %
     Test CRC 5594FBC0
     Copy CRC 5594FBC0
     Accurately ripped (confidence 13)  [13BC38D2]
     Copy OK

Track  2

     Filename E:\Gotan Project\2004 - Inspiracion · Espiracion\02. Cite Tango.wav

     Peak level 98.7 %
     Track quality 100.0 %
     Test CRC 150F8E06
     Copy CRC 150F8E06
     Accurately ripped (confidence 13)  [CE1E6AF8]
     Copy OK

Track  3

     Filename E:\Gotan Project\2004 - Inspiracion · Espiracion\03. Round About Midnight.wav

     Peak level 87.4 %
     Track quality 100.0 %
     Test CRC A8E1FD1C
     Copy CRC A8E1FD1C
     Accurately ripped (confidence 13)  [CED379C9]
     Copy OK

Track  4

     Filename E:\Gotan Project\2004 - Inspiracion · Espiracion\04. Confianzas.wav

     Peak level 89.0 %
     Track quality 100.0 %
     Test CRC CE675899
     Copy CRC CE675899
     Accurately ripped (confidence 13)  [824D6D0E]
     Copy OK

Track  5

     Filename E:\Gotan Project\2004 - Inspiracion · Espiracion\05. The Man (El Hombre Remix).wav

     Peak level 97.3 %
     Track quality 100.0 %
     Test CRC 95FB29F5
     Copy CRC 95FB29F5
     Accurately ripped (confidence 13)  [8FC9A9AA]
     Copy OK

Track  6

     Filename E:\Gotan Project\2004 - Inspiracion · Espiracion\06. Percusion (part 1).wav

     Peak level 98.3 %
     Track quality 100.0 %
     Test CRC BF6713E7
     Copy CRC BF6713E7
     Accurately ripped (confidence 12)  [6DE8ED62]
     Copy OK

Track  7

     Filename E:\Gotan Project\2004 - Inspiracion · Espiracion\07. La Del Ruso (Calexico Version).wav

     Peak level 99.9 %
     Track quality 100.0 %
     Test CRC 094FA9A3
     Copy CRC 094FA9A3
     Accurately ripped (confidence 13)  [BAC1BC09]
     Copy OK

Track  8

     Filename E:\Gotan Project\2004 - Inspiracion · Espiracion\08. El Capitalismo Foraneo (Antipop Consortium Remix).wav

     Peak level 98.4 %
     Track quality 100.0 %
     Test CRC 542CA180
     Copy CRC 542CA180
     Accurately ripped (confidence 13)  [0C0D6330]
     Copy OK

Track  9

     Filename E:\Gotan Project\2004 - Inspiracion · Espiracion\09. Tres Y Dos (Tango).wav

     Peak level 80.3 %
     Track quality 100.0 %
     Test CRC F571BE3B
     Copy CRC F571BE3B
     Accurately ripped (confidence 13)  [A19CB473]
     Copy OK

Track 10

     Filename E:\Gotan Project\2004 - Inspiracion · Espiracion\10. M.A.T.H..wav

     Peak level 95.9 %
     Track quality 100.0 %
     Test CRC E8B23A4F
     Copy CRC E8B23A4F
     Accurately ripped (confidence 13)  [68EDC0CC]
     Copy OK

Track 11

     Filename E:\Gotan Project\2004 - Inspiracion · Espiracion\11. Triptico (Peter Kruder Trip De Luxe).wav

     Peak level 99.9 %
     Track quality 100.0 %
     Test CRC 4119ADED
     Copy CRC 4119ADED
     Accurately ripped (confidence 13)  [6C5A4791]
     Copy OK

Track 12

     Filename E:\Gotan Project\2004 - Inspiracion · Espiracion\12. Santa Maria (Del Buen Ayre) (Pepe Bradock Wider Remix).wav

     Peak level 99.0 %
     Track quality 100.0 %
     Test CRC 5C6A37AD
     Copy CRC 5C6A37AD
     Accurately ripped (confidence 13)  [133914E7]
     Copy OK

All tracks accurately ripped

No errors occurred

End of status report

Код:

CUERipper v2.0.9 Copyright (C) 2008-10 Gregory S. Chudov

EAC extraction logfile from 17. July 2010, 0:25

Gotan Project / Inspiracion - Espiracion (A Gotan Project DJ Set) (Bonus CD)

Used drive  : HL-DT-ST DVDRAM GSA-4163B   Adapter: 1  ID: 0

Read mode               : Secure
Utilize accurate stream : Yes
Defeat audio cache      : Yes
Make use of C2 pointers : No

Read offset correction                      : 667
Overread into Lead-In and Lead-Out          : No
Fill up missing offset samples with silence : Yes
Delete leading and trailing silent blocks   : No
Null samples used in CRC calculations       : Yes
Used interface                              : Native Win32 interface for Win NT & 2000
Gap handling                                : Appended to previous track

Used output format : Internal WAV Routines
Sample format      : 44.100 Hz; 16 Bit; Stereo

TOC of the extracted CD

     Track |   Start  |  Length  | Start sector | End sector
    ---------------------------------------------------------
        1  |  0:00.00 |  5:33.03 |         0    |    24977   

Track  1

     Filename E:\Gotan Project\2000 - Inspiracion - Espiracion (A Gotan Project DJ Set) (Bonus CD)\01. La Cruz Del Sur.wav

     Pre-gap length  0:00:02.00

     Peak level 73.7 %
     Track quality 100.0 %
     Test CRC D354655B
     Copy CRC D354655B
     Cannot be verified as accurate (confidence 1)  [A0F472F5], AccurateRip returned [E2B750E4]
     Copy OK

No tracks could be verified as accurate
You may have a different pressing from the one(s) in the database

No errors occurred

End of status report

Код:

REM ACCURATERIPID 0018fae9-00efd9bb-a40e5a0c
REM DISCID A40E5A0C
REM COMMENT "ExactAudioCopy v0.99pb4"
REM DATE 2004
REM GENRE "Tango"
PERFORMER "Gotan Project"
TITLE "Inspiracion · Espiracion"
FILE "01. La Cumparsita.flac" WAVE
  TRACK 01 AUDIO
    TITLE "La Cumparsita"
    PERFORMER "Gotan Project"
    ISRC GBBKS0462446
    INDEX 01 00:00:00
FILE "02. Cite Tango.flac" WAVE
  TRACK 02 AUDIO
    TITLE "Cite Tango"
    PERFORMER "Gotan Project"
    ISRC ITB267711810
    INDEX 01 00:00:00
FILE "03. Round About Midnight.flac" WAVE
  TRACK 03 AUDIO
    TITLE "Round About Midnight"
    PERFORMER "Gotan Project"
    ISRC GBBKS0462447
    INDEX 01 00:00:00
FILE "04. Confianzas.flac" WAVE
  TRACK 04 AUDIO
    TITLE "Confianzas"
    PERFORMER "Gotan Project"
    ISRC FR99S0300005
    INDEX 01 00:00:00
FILE "05. The Man (El Hombre Remix).flac" WAVE
  TRACK 05 AUDIO
    TITLE "The Man (El Hombre Remix)"
    PERFORMER "Gotan Project"
    ISRC DEG930200174
    INDEX 01 00:00:00
FILE "06. Percusion (part 1).flac" WAVE
  TRACK 06 AUDIO
    TITLE "Percusion (part 1)"
    PERFORMER "Gotan Project"
    ISRC GBBKS0462448
    INDEX 01 00:00:00
FILE "07. La Del Ruso (Calexico Version).flac" WAVE
  TRACK 07 AUDIO
    TITLE "La Del Ruso (Calexico Version)"
    PERFORMER "Gotan Project"
    ISRC FR99S0400003
    INDEX 01 00:00:00
FILE "08. El Capitalismo Foraneo (Antipop Consortium Remix).flac" WAVE
  TRACK 08 AUDIO
    TITLE "El Capitalismo Foraneo (Antipop Consortium Remix)"
    PERFORMER "Gotan Project"
    ISRC FR99S0100008
    INDEX 01 00:00:00
FILE "09. Tres Y Dos (Tango).flac" WAVE
  TRACK 09 AUDIO
    TITLE "Tres Y Dos (Tango)"
    PERFORMER "Gotan Project"
    ISRC GBBKS0462449
    INDEX 01 00:00:00
FILE "10. M.A.T.H..flac" WAVE
  TRACK 10 AUDIO
    TITLE "M.A.T.H."
    PERFORMER "Gotan Project"
    ISRC GBBKS0462450
    INDEX 01 00:00:00
FILE "11. Triptico (Peter Kruder Trip De Luxe).flac" WAVE
  TRACK 11 AUDIO
    TITLE "Triptico (Peter Kruder Trip De Luxe)"
    PERFORMER "Gotan Project"
    ISRC FR99S0100003
    INDEX 01 00:00:00
FILE "12. Santa Maria (Del Buen Ayre) (Pepe Bradock Wider Remix).flac" WAVE
  TRACK 12 AUDIO
    TITLE "Santa Maria (Del Buen Ayre) (Pepe Bradock Wider Remix)"
    PERFORMER "Gotan Project"
    ISRC FR99S0200008
    INDEX 01 00:00:00

Код:

REM ACCURATERIPID 00006192-0000c325-02014d01
REM DISCID 02014D01
REM COMMENT "ExactAudioCopy v0.99pb4"
REM DATE 2000
PERFORMER "Gotan Project"
TITLE "Inspiracion - Espiracion (A Gotan Project DJ Set) (Bonus CD)"
REM GENRE "Techno"
FILE "01. La Cruz Del Sur.flac" WAVE
  TRACK 01 AUDIO
    TITLE "La Cruz Del Sur"
    PERFORMER "Gotan Project"
    INDEX 01 00:00:00


Tracklisting:

01. Diferente (Radio Edit) (3:39)
02. Diferente (Album version) (5:23)
03. Domingo (4:17)

Duration: 00:13:19

Код:

CUERipper v2.0.9 Copyright (C) 2008-10 Gregory S. Chudov

EAC extraction logfile from 17. July 2010, 0:38

Gotan Project / Diferente (CDS)

Used drive  : HL-DT-ST DVDRAM GSA-4163B   Adapter: 1  ID: 0

Read mode               : Secure
Utilize accurate stream : Yes
Defeat audio cache      : Yes
Make use of C2 pointers : No

Read offset correction                      : 667
Overread into Lead-In and Lead-Out          : No
Fill up missing offset samples with silence : Yes
Delete leading and trailing silent blocks   : No
Null samples used in CRC calculations       : Yes
Used interface                              : Native Win32 interface for Win NT & 2000
Gap handling                                : Appended to previous track

Used output format : Internal WAV Routines
Sample format      : 44.100 Hz; 16 Bit; Stereo

TOC of the extracted CD

     Track |   Start  |  Length  | Start sector | End sector
    ---------------------------------------------------------
        1  |  0:00.00 |  3:39.28 |         0    |    16452   
        2  |  3:39.28 |  5:23.19 |     16453    |    40696   
        3  |  9:02.47 |  4:17.15 |     40697    |    59986   

Track  1

     Filename E:\Gotan Project\Diferente (CDS)\01. Diferente (Radio Edit).wav

     Pre-gap length  0:00:02.00

     Peak level 100.0 %
     Track quality 100.0 %
     Test CRC 5915D0E5
     Copy CRC 5915D0E5
     Accurately ripped (confidence 1)  [7207D524]
     Copy OK

Track  2

     Filename E:\Gotan Project\Diferente (CDS)\02. Diferente (Album version).wav

     Pre-gap length  0:00:02.00

     Peak level 100.0 %
     Track quality 100.0 %
     Test CRC 9144C601
     Copy CRC 9144C601
     Accurately ripped (confidence 1)  [CF46A4C5]
     Copy OK

Track  3

     Filename E:\Gotan Project\Diferente (CDS)\03. Domingo.wav

     Pre-gap length  0:00:02.00

     Peak level 100.0 %
     Track quality 100.0 %
     Test CRC 38DC7E1E
     Copy CRC 38DC7E1E
     Accurately ripped (confidence 1)  [810AB2B3]
     Copy OK

All tracks accurately ripped

No errors occurred

End of status report

Код:

REM ACCURATERIPID 0001c991-000606c2-14031f03
REM DISCID 14031F03
REM COMMENT "ExactAudioCopy v0.99pb4"
REM GENRE "2006"
PERFORMER "Gotan Project"
TITLE "Diferente (CDS)"
FILE "01. Diferente (Radio Edit).flac" WAVE
  TRACK 01 AUDIO
    TITLE "Diferente (Radio Edit)"
    PERFORMER "Gotan Project"
    INDEX 01 00:00:00
  TRACK 02 AUDIO
    TITLE "Diferente (Album version)"
    PERFORMER "Gotan Project"
    INDEX 00 03:37:28
FILE "02. Diferente (Album version).flac" WAVE
    INDEX 01 00:00:00
  TRACK 03 AUDIO
    TITLE "Domingo"
    PERFORMER "Gotan Project"
    INDEX 00 05:21:19
FILE "03. Domingo.flac" WAVE
    INDEX 01 00:00:00


CD1:

01. Amor Porteño (feat. Calexico) (5:08)
02. Notas (feat. Juan Carlos Cáceres) (4:21)
03. Diferente (5:23)
04. Celos (5:31)
05. Lunático (3:00)
06. Mi Confesión (feat. Koxmoz) (4:20)
07. Tango Canción (4:23)
08. La Vigüela (5:00)
09. Criminal (3:35)
10. Arrabal (3:58)
11. Domingo (feat. Jimi Santos) (4:14)
12. Paris, Texas (6:46)

Duration: 00:55:38

CD2 - El Norte (Bonus CD):

01. El Norte (4:36)
02. Santa Maria (Del Buen Ayre) (live) (4:54)
03. Arrabal (Haaksman & Haaksman remix) (feat. Ras Donovan) (5:56)

Duration: 00:15:26

Код:

CUERipper v2.0.9 Copyright (C) 2008-10 Gregory S. Chudov

EAC extraction logfile from 17. July 2010, 1:05

Gotan Project / Lunatico

Used drive  : HL-DT-ST DVDRAM GSA-4163B   Adapter: 1  ID: 0

Read mode               : Secure
Utilize accurate stream : Yes
Defeat audio cache      : Yes
Make use of C2 pointers : No

Read offset correction                      : 667
Overread into Lead-In and Lead-Out          : No
Fill up missing offset samples with silence : Yes
Delete leading and trailing silent blocks   : No
Null samples used in CRC calculations       : Yes
Used interface                              : Native Win32 interface for Win NT & 2000
Gap handling                                : Appended to previous track

Used output format : Internal WAV Routines
Sample format      : 44.100 Hz; 16 Bit; Stereo

TOC of the extracted CD

     Track |   Start  |  Length  | Start sector | End sector
    ---------------------------------------------------------
        1  |  0:00.00 |  5:07.49 |         0    |    23073   
        2  |  5:07.49 |  4:20.52 |     23074    |    42625   
        3  |  9:28.26 |  5:23.08 |     42626    |    66858   
        4  | 14:51.34 |  5:30.57 |     66859    |    91665   
        5  | 20:22.16 |  2:59.62 |     91666    |   105152   
        6  | 23:22.03 |  4:20.36 |    105153    |   124688   
        7  | 27:42.39 |  4:23.17 |    124689    |   144430   
        8  | 32:05.56 |  5:00.28 |    144431    |   166958   
        9  | 37:06.09 |  3:35.05 |    166959    |   183088   
       10  | 40:41.14 |  3:57.42 |    183089    |   200905   
       11  | 44:38.56 |  4:13.68 |    200906    |   219948   
       12  | 48:52.49 |  6:45.71 |    219949    |   250394   

Track  1

     Filename E:\Gotan Project\2006 - Lunatico\01. Amor Porteno (feat. Calexico).wav

     Pre-gap length  0:00:02.00

     Peak level 100.0 %
     Track quality 100.0 %
     Test CRC F93DD4A5
     Copy CRC F93DD4A5
     Accurately ripped (confidence 77)  [CC4F03F6]
     Copy OK

Track  2

     Filename E:\Gotan Project\2006 - Lunatico\02. Notas (feat. Juan Carlos Caceres).wav

     Peak level 100.0 %
     Track quality 100.0 %
     Test CRC 1FD57379
     Copy CRC 1FD57379
     Accurately ripped (confidence 79)  [03E90B44]
     Copy OK

Track  3

     Filename E:\Gotan Project\2006 - Lunatico\03. Diferente.wav

     Peak level 100.0 %
     Track quality 100.0 %
     Test CRC 7316A121
     Copy CRC 7316A121
     Accurately ripped (confidence 79)  [350043AC]
     Copy OK

Track  4

     Filename E:\Gotan Project\2006 - Lunatico\04. Celos.wav

     Pre-gap length  0:00:03.13

     Peak level 100.0 %
     Track quality 100.0 %
     Test CRC A691DD90
     Copy CRC A691DD90
     Accurately ripped (confidence 80)  [C9F65172]
     Copy OK

Track  5

     Filename E:\Gotan Project\2006 - Lunatico\05. Lunatico.wav

     Peak level 100.0 %
     Track quality 100.0 %
     Test CRC 9F4222BC
     Copy CRC 9F4222BC
     Accurately ripped (confidence 79)  [25256E00]
     Copy OK

Track  6

     Filename E:\Gotan Project\2006 - Lunatico\06. Mi Confesion (feat. Koxmoz).wav

     Pre-gap length  0:00:00.92

     Peak level 100.0 %
     Track quality 100.0 %
     Test CRC 91E5AFA1
     Copy CRC 91E5AFA1
     Accurately ripped (confidence 79)  [CAF99B15]
     Copy OK

Track  7

     Filename E:\Gotan Project\2006 - Lunatico\07. Tango Cancion.wav

     Peak level 100.0 %
     Track quality 100.0 %
     Test CRC 00D2D47F
     Copy CRC 00D2D47F
     Accurately ripped (confidence 80)  [A72AE90B]
     Copy OK

Track  8

     Filename E:\Gotan Project\2006 - Lunatico\08. La Viguela.wav

     Peak level 100.0 %
     Track quality 100.0 %
     Test CRC 8E8DA2C2
     Copy CRC 8E8DA2C2
     Accurately ripped (confidence 78)  [6973FC5F]
     Copy OK

Track  9

     Filename E:\Gotan Project\2006 - Lunatico\09. Criminal.wav

     Peak level 100.0 %
     Track quality 100.0 %
     Test CRC 4C1F0FE0
     Copy CRC 4C1F0FE0
     Accurately ripped (confidence 80)  [68CF3090]
     Copy OK

Track 10

     Filename E:\Gotan Project\2006 - Lunatico\10. Arrabal.wav

     Peak level 100.0 %
     Track quality 100.0 %
     Test CRC D4B4025A
     Copy CRC D4B4025A
     Accurately ripped (confidence 78)  [563DA33F]
     Copy OK

Track 11

     Filename E:\Gotan Project\2006 - Lunatico\11. Domingo (feat. Jimi Santos).wav

     Peak level 100.0 %
     Track quality 100.0 %
     Test CRC 354A2CF5
     Copy CRC 354A2CF5
     Accurately ripped (confidence 77)  [396C93BA]
     Copy OK

Track 12

     Filename E:\Gotan Project\2006 - Lunatico\12. Paris, Texas.wav

     Peak level 100.0 %
     Track quality 100.0 %
     Test CRC 4191986D
     Copy CRC 4191986D
     Accurately ripped (confidence 78)  [12ADF691]
     Copy OK

All tracks accurately ripped

No errors occurred

End of status report

Код:

CUERipper v2.0.9 Copyright (C) 2008-10 Gregory S. Chudov

EAC extraction logfile from 17. July 2010, 9:25

Gotan Project / El Norte

Used drive  : HL-DT-ST DVDRAM GSA-4163B   Adapter: 1  ID: 0

Read mode               : Secure
Utilize accurate stream : Yes
Defeat audio cache      : Yes
Make use of C2 pointers : No

Read offset correction                      : 667
Overread into Lead-In and Lead-Out          : No
Fill up missing offset samples with silence : Yes
Delete leading and trailing silent blocks   : No
Null samples used in CRC calculations       : Yes
Used interface                              : Native Win32 interface for Win NT & 2000
Gap handling                                : Appended to previous track

Used output format : Internal WAV Routines
Sample format      : 44.100 Hz; 16 Bit; Stereo

TOC of the extracted CD

     Track |   Start  |  Length  | Start sector | End sector
    ---------------------------------------------------------
        1  |  0:00.00 |  4:36.21 |         0    |    20720   
        2  |  4:36.21 |  4:54.08 |     20721    |    42778   
        3  |  9:30.29 |  5:56.12 |     42779    |    69490   

Track  1

     Filename E:\Gotan Project\2006 - El Norte\01. El Norte.wav

     Pre-gap length  0:00:02.00

     Peak level 100.0 %
     Track quality 100.0 %
     Test CRC 13A3E69E
     Copy CRC 13A3E69E
     Cannot be verified as accurate (confidence 1)  [87153DC9], AccurateRip returned [F088AD3D]
     Copy OK

Track  2

     Filename E:\Gotan Project\2006 - El Norte\02. Santa Maria (Del Buen Ayre) (live).wav

     Peak level 100.0 %
     Track quality 100.0 %
     Test CRC 2110345E
     Copy CRC 2110345E
     Cannot be verified as accurate (confidence 1)  [5594F72A], AccurateRip returned [6F2E9926]
     Copy OK

Track  3

     Filename E:\Gotan Project\2006 - El Norte\03. Arrabal (Haaksman & Haaksman remix) (feat. Ras Donovan).wav

     Peak level 100.0 %
     Track quality 100.0 %
     Test CRC DCA29536
     Copy CRC DCA29536
     Cannot be verified as accurate (confidence 1)  [7BEE39D8], AccurateRip returned [AFE88160]
     Copy OK

No tracks could be verified as accurate
You may have a different pressing from the one(s) in the database

No errors occurred

End of status report

Код:

REM ACCURATERIPID 0018b754-00e4d600-a10d0a0c
REM DISCID A10D0A0C
REM COMMENT "ExactAudioCopy v0.99pb4"
REM DATE 2006
PERFORMER "Gotan Project"
TITLE "Lunatico"
FILE "01. Amor Porteno (feat. Calexico).flac" WAVE
  TRACK 01 AUDIO
    TITLE "Amor Porteno (feat. Calexico)"
    PERFORMER "Gotan Project"
    INDEX 01 00:00:00
FILE "02. Notas (feat. Juan Carlos Caceres).flac" WAVE
  TRACK 02 AUDIO
    TITLE "Notas (feat. Juan Carlos Caceres)"
    PERFORMER "Gotan Project"
    INDEX 01 00:00:00
FILE "03. Diferente.flac" WAVE
  TRACK 03 AUDIO
    TITLE "Diferente"
    PERFORMER "Gotan Project"
    INDEX 01 00:00:00
  TRACK 04 AUDIO
    TITLE "Celos"
    PERFORMER "Gotan Project"
    INDEX 00 05:19:73
FILE "04. Celos.flac" WAVE
    INDEX 01 00:00:00
FILE "05. Lunatico.flac" WAVE
  TRACK 05 AUDIO
    TITLE "Lunatico"
    PERFORMER "Gotan Project"
    INDEX 01 00:00:00
  TRACK 06 AUDIO
    TITLE "Mi Confesion (feat. Koxmoz)"
    PERFORMER "Gotan Project"
    INDEX 00 02:58:68
FILE "06. Mi Confesion (feat. Koxmoz).flac" WAVE
    INDEX 01 00:00:00
FILE "07. Tango Cancion.flac" WAVE
  TRACK 07 AUDIO
    TITLE "Tango Cancion"
    PERFORMER "Gotan Project"
    INDEX 01 00:00:00
FILE "08. La Viguela.flac" WAVE
  TRACK 08 AUDIO
    TITLE "La Viguela"
    PERFORMER "Gotan Project"
    INDEX 01 00:00:00
FILE "09. Criminal.flac" WAVE
  TRACK 09 AUDIO
    TITLE "Criminal"
    PERFORMER "Gotan Project"
    INDEX 01 00:00:00
FILE "10. Arrabal.flac" WAVE
  TRACK 10 AUDIO
    TITLE "Arrabal"
    PERFORMER "Gotan Project"
    INDEX 01 00:00:00
FILE "11. Domingo (feat. Jimi Santos).flac" WAVE
  TRACK 11 AUDIO
    TITLE "Domingo (feat. Jimi Santos)"
    PERFORMER "Gotan Project"
    INDEX 01 00:00:00
FILE "12. Paris, Texas.flac" WAVE
  TRACK 12 AUDIO
    TITLE "Paris, Texas"
    PERFORMER "Gotan Project"
    INDEX 01 00:00:00

Код:

REM ACCURATERIPID 0002077f-0006d500-21039e03
REM DISCID 21039E03
REM COMMENT "ExactAudioCopy v0.99pb4"
REM DATE 2006
PERFORMER "Gotan Project"
TITLE "El Norte"
FILE "01. El Norte.flac" WAVE
  TRACK 01 AUDIO
    TITLE "El Norte"
    PERFORMER "Gotan Project"
    INDEX 01 00:00:00
FILE "02. Santa Maria (Del Buen Ayre) (live).flac" WAVE
  TRACK 02 AUDIO
    TITLE "Santa Maria (Del Buen Ayre) (live)"
    PERFORMER "Gotan Project"
    INDEX 01 00:00:00
FILE "03. Arrabal (Haaksman & Haaksman remix) (feat. Ras Donovan).flac" WAVE
  TRACK 03 AUDIO
    TITLE "Arrabal (Haaksman & Haaksman remix) (feat. Ras Donovan)"
    PERFORMER "Gotan Project"
    INDEX 01 00:00:00


CD1:

01. Live Intro (1:32)
02. Queremos Paz (4:14)
03. Vuelvo Al Sur (6:03)
04. El Capitalismo Foranéo (5:47)
05. La Del Ruso (6:30)
06. Santa María (del Buen Ayre) (8:26)
07. Nocturna (2:49)
08. Tríptico (9:36)
09. Chunga's Revenge (5:17)
10. Last Tango In Paris (6:19)
11. Sola (7:10)
12. Santa María (version orquestal) (2:57)

Duration: 01:06:40

CD2:

01. Diferente (6:28)
02. La viguela (5:36)
03. Amor porteno (5:24)
04. Epoca (4:57)
05. Notas (4:29)
06. Lunatico (3:17)
07. Che bandoneon (Interlude) (1:21)
08. Una musica brutal (4:02)
09. Santa Maria (del Buel Ayre) (4:57)
10. Arrabal (4:52)
11. El norte (5:14)
12. Criminal (3:46)
13. Triptico (9:26)
14. Diferente (version orquestal) (4:00)

Duration: 01:07:47

Код:

Exact Audio Copy V0.99 prebeta 4 from 23. January 2008

EAC extraction logfile from 7. January 2009, 21:13

Gotan Project / Live

Used drive  : HL-DT-STBDDVDRW GGC-H20L   Adapter: 1  ID: 0

Read mode               : Secure
Utilize accurate stream : Yes
Defeat audio cache      : Yes
Make use of C2 pointers : No

Read offset correction                      : 667
Overread into Lead-In and Lead-Out          : No
Fill up missing offset samples with silence : Yes
Delete leading and trailing silent blocks   : No
Null samples used in CRC calculations       : Yes
Used interface                              : Native Win32 interface for Win NT & 2000
Gap handling                                : Appended to previous track

Used output format              : User Defined Encoder
Selected bitrate                : 32 kBit/s
Quality                         : High
Add ID3 tag                     : No
Command line compressor         : C:\Program Files (x86)\FLAC\flac.exe
Additional command line options : -V -8 -T "artist=%a" -T "title=%t" -T "album=%g" -T "date=%y" -T "tracknumber=%n" -T "genre=%m" %s

TOC of the extracted CD

     Track |   Start  |  Length  | Start sector | End sector
    ---------------------------------------------------------
        1  |  0:00.00 |  1:32.19 |         0    |     6918   
        2  |  1:32.19 |  4:14.08 |      6919    |    25976   
        3  |  5:46.27 |  6:02.56 |     25977    |    53182   
        4  | 11:49.08 |  5:47.28 |     53183    |    79235   
        5  | 17:36.36 |  6:29.72 |     79236    |   108482   
        6  | 24:06.33 |  8:26.09 |    108483    |   146441   
        7  | 32:32.42 |  2:48.71 |    146442    |   159112   
        8  | 35:21.38 |  9:36.05 |    159113    |   202317   
        9  | 44:57.43 |  5:17.04 |    202318    |   226096   
       10  | 50:14.47 |  6:19.22 |    226097    |   254543   
       11  | 56:33.69 |  7:09.46 |    254544    |   286764   
       12  | 63:43.40 |  2:56.66 |    286765    |   300030   

Track  1

     Filename Z:\music\Gotan Project\Gotan Project - Live (2008) [FLAC]\Disc 1\01 - Live Intro.wav

     Pre-gap length  0:00:02.00

     Peak level 89.8 %
     Track quality 100.0 %
     Test CRC 49CC3DB3
     Copy CRC 49CC3DB3
     Track not present in AccurateRip database
     Copy OK

Track  2

     Filename Z:\music\Gotan Project\Gotan Project - Live (2008) [FLAC]\Disc 1\02 - Queremos Paz.wav

     Peak level 100.0 %
     Track quality 100.0 %
     Test CRC 3DA4333F
     Copy CRC 3DA4333F
     Track not present in AccurateRip database
     Copy OK

Track  3

     Filename Z:\music\Gotan Project\Gotan Project - Live (2008) [FLAC]\Disc 1\03 - Vuelvo Al Sur.wav

     Peak level 100.0 %
     Track quality 100.0 %
     Test CRC 2411597D
     Copy CRC 2411597D
     Track not present in AccurateRip database
     Copy OK

Track  4

     Filename Z:\music\Gotan Project\Gotan Project - Live (2008) [FLAC]\Disc 1\04 - El Capitalismo Foraneo.wav

     Peak level 100.0 %
     Track quality 100.0 %
     Test CRC CE246850
     Copy CRC CE246850
     Track not present in AccurateRip database
     Copy OK

Track  5

     Filename Z:\music\Gotan Project\Gotan Project - Live (2008) [FLAC]\Disc 1\05 - La Del Ruso.wav

     Peak level 100.0 %
     Track quality 100.0 %
     Test CRC C09B9DB9
     Copy CRC C09B9DB9
     Track not present in AccurateRip database
     Copy OK

Track  6

     Filename Z:\music\Gotan Project\Gotan Project - Live (2008) [FLAC]\Disc 1\06 - Santa Maria (del Buen Ayre).wav

     Peak level 100.0 %
     Track quality 100.0 %
     Test CRC 53A9F52C
     Copy CRC 53A9F52C
     Track not present in AccurateRip database
     Copy OK

Track  7

     Filename Z:\music\Gotan Project\Gotan Project - Live (2008) [FLAC]\Disc 1\07 - Nocturna.wav

     Peak level 96.2 %
     Track quality 100.0 %
     Test CRC 48E98E35
     Copy CRC 48E98E35
     Track not present in AccurateRip database
     Copy OK

Track  8

     Filename Z:\music\Gotan Project\Gotan Project - Live (2008) [FLAC]\Disc 1\08 - Triptico.wav

     Peak level 100.0 %
     Track quality 100.0 %
     Test CRC 4EE9973E
     Copy CRC 4EE9973E
     Track not present in AccurateRip database
     Copy OK

Track  9

     Filename Z:\music\Gotan Project\Gotan Project - Live (2008) [FLAC]\Disc 1\09 - Chunga's Revenge.wav

     Peak level 99.9 %
     Track quality 100.0 %
     Test CRC 9B222DFB
     Copy CRC 9B222DFB
     Track not present in AccurateRip database
     Copy OK

Track 10

     Filename Z:\music\Gotan Project\Gotan Project - Live (2008) [FLAC]\Disc 1\10 - Last Tango In Paris.wav

     Peak level 100.0 %
     Track quality 100.0 %
     Test CRC D762D77C
     Copy CRC D762D77C
     Track not present in AccurateRip database
     Copy OK

Track 11

     Filename Z:\music\Gotan Project\Gotan Project - Live (2008) [FLAC]\Disc 1\11 - Sola.wav

     Peak level 99.9 %
     Track quality 100.0 %
     Test CRC 81ABCEA0
     Copy CRC 81ABCEA0
     Track not present in AccurateRip database
     Copy OK

Track 12

     Filename Z:\music\Gotan Project\Gotan Project - Live (2008) [FLAC]\Disc 1\12 - Santa Maria (version orquestal).wav

     Peak level 70.7 %
     Track quality 100.0 %
     Test CRC 71264D71
     Copy CRC 71264D71
     Track not present in AccurateRip database
     Copy OK

None of the tracks are present in the AccurateRip database

No errors occurred

End of status report

Код:

Exact Audio Copy V0.99 prebeta 4 from 23. January 2008

EAC extraction logfile from 7. January 2009, 22:16

Gotan Project / Live

Used drive  : HL-DT-STBDDVDRW GGC-H20L   Adapter: 1  ID: 0

Read mode               : Secure
Utilize accurate stream : Yes
Defeat audio cache      : Yes
Make use of C2 pointers : No

Read offset correction                      : 667
Overread into Lead-In and Lead-Out          : No
Fill up missing offset samples with silence : Yes
Delete leading and trailing silent blocks   : No
Null samples used in CRC calculations       : Yes
Used interface                              : Native Win32 interface for Win NT & 2000
Gap handling                                : Appended to previous track

Used output format              : User Defined Encoder
Selected bitrate                : 32 kBit/s
Quality                         : High
Add ID3 tag                     : No
Command line compressor         : C:\Program Files (x86)\FLAC\flac.exe
Additional command line options : -V -8 -T "artist=%a" -T "title=%t" -T "album=%g" -T "date=%y" -T "tracknumber=%n" -T "genre=%m" %s

TOC of the extracted CD

     Track |   Start  |  Length  | Start sector | End sector
    ---------------------------------------------------------
        1  |  0:00.00 |  6:28.15 |         0    |    29114   
        2  |  6:28.15 |  5:36.11 |     29115    |    54325   
        3  | 12:04.26 |  5:23.39 |     54326    |    78589   
        4  | 17:27.65 |  4:57.20 |     78590    |   100884   
        5  | 22:25.10 |  4:29.37 |    100885    |   121096   
        6  | 26:54.47 |  3:16.59 |    121097    |   135855   
        7  | 30:11.31 |  1:21.15 |    135856    |   141945   
        8  | 31:32.46 |  4:01.43 |    141946    |   160063   
        9  | 35:34.14 |  4:56.54 |    160064    |   182317   
       10  | 40:30.68 |  4:51.71 |    182318    |   204213   
       11  | 45:22.64 |  5:13.65 |    204214    |   227753   
       12  | 50:36.54 |  3:45.55 |    227754    |   244683   
       13  | 54:22.34 |  9:25.46 |    244684    |   287104   
       14  | 63:48.05 |  3:59.58 |    287105    |   305087   

Track  1

     Filename Z:\music\Gotan Project\Gotan Project - Live (2008) [FLAC]\Disc 2\01 - Diferente.wav

     Pre-gap length  0:00:02.00

     Peak level 89.0 %
     Track quality 99.9 %
     Test CRC 4C7798F6
     Copy CRC 4C7798F6
     Track not present in AccurateRip database
     Copy OK

Track  2

     Filename Z:\music\Gotan Project\Gotan Project - Live (2008) [FLAC]\Disc 2\02 - La viguela.wav

     Peak level 89.0 %
     Track quality 100.0 %
     Test CRC 5175D1EB
     Copy CRC 5175D1EB
     Track not present in AccurateRip database
     Copy OK

Track  3

     Filename Z:\music\Gotan Project\Gotan Project - Live (2008) [FLAC]\Disc 2\03 - Amor porteno.wav

     Peak level 100.0 %
     Track quality 100.0 %
     Test CRC B34AB996
     Copy CRC B34AB996
     Track not present in AccurateRip database
     Copy OK

Track  4

     Filename Z:\music\Gotan Project\Gotan Project - Live (2008) [FLAC]\Disc 2\04 - Epoca.wav

     Pre-gap length  0:00:00.01

     Peak level 99.9 %
     Track quality 100.0 %
     Test CRC 72930654
     Copy CRC 72930654
     Track not present in AccurateRip database
     Copy OK

Track  5

     Filename Z:\music\Gotan Project\Gotan Project - Live (2008) [FLAC]\Disc 2\05 - Notas.wav

     Peak level 100.0 %
     Track quality 100.0 %
     Test CRC 70A772B2
     Copy CRC 70A772B2
     Track not present in AccurateRip database
     Copy OK

Track  6

     Filename Z:\music\Gotan Project\Gotan Project - Live (2008) [FLAC]\Disc 2\06 - Lunatico.wav

     Peak level 100.0 %
     Track quality 100.0 %
     Test CRC 57ACB534
     Copy CRC 57ACB534
     Track not present in AccurateRip database
     Copy OK

Track  7

     Filename Z:\music\Gotan Project\Gotan Project - Live (2008) [FLAC]\Disc 2\07 - Che bandoneon (Interlude).wav

     Pre-gap length  0:00:00.01

     Peak level 100.0 %
     Track quality 100.0 %
     Test CRC 9A9239CA
     Copy CRC 9A9239CA
     Track not present in AccurateRip database
     Copy OK

Track  8

     Filename Z:\music\Gotan Project\Gotan Project - Live (2008) [FLAC]\Disc 2\08 - Una musica brutal.wav

     Peak level 100.0 %
     Track quality 100.0 %
     Test CRC 197D1CA2
     Copy CRC 197D1CA2
     Track not present in AccurateRip database
     Copy OK

Track  9

     Filename Z:\music\Gotan Project\Gotan Project - Live (2008) [FLAC]\Disc 2\09 - Santa Maria (del Buel Ayre).wav

     Peak level 100.0 %
     Track quality 100.0 %
     Test CRC B0C551B7
     Copy CRC B0C551B7
     Track not present in AccurateRip database
     Copy OK

Track 10

     Filename Z:\music\Gotan Project\Gotan Project - Live (2008) [FLAC]\Disc 2\10 - Arrabal.wav

     Pre-gap length  0:00:00.01

     Peak level 100.0 %
     Track quality 100.0 %
     Test CRC E88096F3
     Copy CRC E88096F3
     Track not present in AccurateRip database
     Copy OK

Track 11

     Filename Z:\music\Gotan Project\Gotan Project - Live (2008) [FLAC]\Disc 2\11 - El norte.wav

     Peak level 100.0 %
     Track quality 100.0 %
     Test CRC 701D01B1
     Copy CRC 701D01B1
     Track not present in AccurateRip database
     Copy OK

Track 12

     Filename Z:\music\Gotan Project\Gotan Project - Live (2008) [FLAC]\Disc 2\12 - Criminal.wav

     Peak level 94.3 %
     Track quality 100.0 %
     Test CRC C0B934C8
     Copy CRC C0B934C8
     Track not present in AccurateRip database
     Copy OK

Track 13

     Filename Z:\music\Gotan Project\Gotan Project - Live (2008) [FLAC]\Disc 2\13 - Triptico.wav

     Peak level 94.3 %
     Track quality 100.0 %
     Test CRC 6D0DAD80
     Copy CRC 6D0DAD80
     Track not present in AccurateRip database
     Copy OK

Track 14

     Filename Z:\music\Gotan Project\Gotan Project - Live (2008) [FLAC]\Disc 2\14 - Diferente (version orquestal).wav

     Peak level 100.0 %
     Track quality 99.9 %
     Test CRC CFC06646
     Copy CRC CFC06646
     Track not present in AccurateRip database
     Copy OK

None of the tracks are present in the AccurateRip database

No errors occurred

End of status report

Код:

REM GENRE Tango
REM DATE 2008
REM DISCID AB0FA00C
REM COMMENT "ExactAudioCopy v0.99pb4"
PERFORMER "Gotan Project"
TITLE "Live"
FILE "01 - Live Intro.wav" WAVE
  TRACK 01 AUDIO
    TITLE "Live Intro"
    PERFORMER "Gotan Project"
    ISRC FR99S0800001
    INDEX 01 00:00:00
FILE "02 - Queremos Paz.wav" WAVE
  TRACK 02 AUDIO
    TITLE "Queremos Paz"
    PERFORMER "Gotan Project"
    ISRC FR99S0800002
    INDEX 01 00:00:00
FILE "03 - Vuelvo Al Sur.wav" WAVE
  TRACK 03 AUDIO
    TITLE "Vuelvo Al Sur"
    PERFORMER "Gotan Project"
    ISRC FR99S0800003
    INDEX 01 00:00:00
FILE "04 - El Capitalismo Foraneo.wav" WAVE
  TRACK 04 AUDIO
    TITLE "El Capitalismo Foraneo"
    PERFORMER "Gotan Project"
    ISRC FR99S0800004
    INDEX 01 00:00:00
FILE "05 - La Del Ruso.wav" WAVE
  TRACK 05 AUDIO
    TITLE "La Del Ruso"
    PERFORMER "Gotan Project"
    ISRC FR99S0800005
    INDEX 01 00:00:00
FILE "06 - Santa Maria (del Buen Ayre).wav" WAVE
  TRACK 06 AUDIO
    TITLE "Santa Maria (del Buen Ayre)"
    PERFORMER "Gotan Project"
    ISRC FR99S0800006
    INDEX 01 00:00:00
FILE "07 - Nocturna.wav" WAVE
  TRACK 07 AUDIO
    TITLE "Nocturna"
    PERFORMER "Gotan Project"
    ISRC FR99S0800007
    INDEX 01 00:00:00
FILE "08 - Triptico.wav" WAVE
  TRACK 08 AUDIO
    TITLE "Triptico"
    PERFORMER "Gotan Project"
    ISRC FR99S0800008
    INDEX 01 00:00:00
FILE "09 - Chunga's Revenge.wav" WAVE
  TRACK 09 AUDIO
    TITLE "Chunga's Revenge"
    PERFORMER "Gotan Project"
    ISRC FR99S0800009
    INDEX 01 00:00:00
FILE "10 - Last Tango In Paris.wav" WAVE
  TRACK 10 AUDIO
    TITLE "Last Tango In Paris"
    PERFORMER "Gotan Project"
    ISRC FR99S0800010
    INDEX 01 00:00:00
FILE "11 - Sola.wav" WAVE
  TRACK 11 AUDIO
    TITLE "Sola"
    PERFORMER "Gotan Project"
    ISRC FR99S0700018
    INDEX 01 00:00:00
FILE "12 - Santa Maria (version orquestal).wav" WAVE
  TRACK 12 AUDIO
    TITLE "Santa Maria (version orquestal)"
    PERFORMER "Gotan Project"
    ISRC FR99S0800025
    INDEX 01 00:00:00

Код:

REM GENRE ElectroTango
REM DATE 2008
REM DISCID BC0FE30E
REM COMMENT "ExactAudioCopy v0.99pb4"
PERFORMER "Gotan Project"
TITLE "Live"
FILE "01 - Diferente.wav" WAVE
  TRACK 01 AUDIO
    TITLE "Diferente"
    PERFORMER "Gotan Project"
    ISRC FR99S0800011
    INDEX 01 00:00:00
FILE "02 - La viguela.wav" WAVE
  TRACK 02 AUDIO
    TITLE "La viguela"
    PERFORMER "Gotan Project"
    ISRC FR99S0800012
    INDEX 01 00:00:00
FILE "03 - Amor porteno.wav" WAVE
  TRACK 03 AUDIO
    TITLE "Amor porteno"
    PERFORMER "Gotan Project"
    ISRC FR99S0800013
    INDEX 01 00:00:00
  TRACK 04 AUDIO
    TITLE "Epoca"
    PERFORMER "Gotan Project"
    ISRC FR99S0800014
    INDEX 00 05:23:38
FILE "04 - Epoca.wav" WAVE
    INDEX 01 00:00:00
FILE "05 - Notas.wav" WAVE
  TRACK 05 AUDIO
    TITLE "Notas"
    PERFORMER "Gotan Project"
    ISRC FR99S0800015
    INDEX 01 00:00:00
FILE "06 - Lunatico.wav" WAVE
  TRACK 06 AUDIO
    TITLE "Lunatico"
    PERFORMER "Gotan Project"
    ISRC FR99S0800016
    INDEX 01 00:00:00
  TRACK 07 AUDIO
    TITLE "Che bandoneon (Interlude)"
    PERFORMER "Gotan Project"
    ISRC FR99S0800017
    INDEX 00 03:16:58
FILE "07 - Che bandoneon (Interlude).wav" WAVE
    INDEX 01 00:00:00
FILE "08 - Una musica brutal.wav" WAVE
  TRACK 08 AUDIO
    TITLE "Una musica brutal"
    PERFORMER "Gotan Project"
    ISRC FR99S0800018
    INDEX 01 00:00:00
FILE "09 - Santa Maria (del Buel Ayre).wav" WAVE
  TRACK 09 AUDIO
    TITLE "Santa Maria (del Buel Ayre)"
    PERFORMER "Gotan Project"
    ISRC FR99S0800019
    INDEX 01 00:00:00
  TRACK 10 AUDIO
    TITLE "Arrabal"
    PERFORMER "Gotan Project"
    ISRC FR99S0800020
    INDEX 00 04:56:53
FILE "10 - Arrabal.wav" WAVE
    INDEX 01 00:00:00
FILE "11 - El norte.wav" WAVE
  TRACK 11 AUDIO
    TITLE "El norte"
    PERFORMER "Gotan Project"
    ISRC FR99S0800021
    INDEX 01 00:00:00
FILE "12 - Criminal.wav" WAVE
  TRACK 12 AUDIO
    TITLE "Criminal"
    PERFORMER "Gotan Project"
    ISRC FR99S0800022
    INDEX 01 00:00:00
FILE "13 - Triptico.wav" WAVE
  TRACK 13 AUDIO
    TITLE "Triptico"
    PERFORMER "Gotan Project"
    ISRC FR99S0800023
    INDEX 01 00:00:00
FILE "14 - Diferente (version orquestal).wav" WAVE
  TRACK 14 AUDIO
    TITLE "Diferente (version orquestal)"
    PERFORMER "Gotan Project"
    ISRC FR99S0800024
    INDEX 01 00:00:00


Tracklisting:

01. Tango Square (3:46)
02. Rayuela (4:27)
03. Desilusión (4:25)
04. Peligro (3:58)
05. La Gloria (3:48)
06. Mil Millones (5:50)
07. Tu Misterio (3:21)
08. De Hombre A Hombre (3:25)
09. El Mensajero (2:36)
10. Panamericana (4:33)
11. Erase Una Vez (4:21)

Duration: 00:44:28

Код:

CUERipper v2.0.9 Copyright (C) 2008-10 Gregory S. Chudov

EAC extraction logfile from 16. July 2010, 23:21

Gotan Project / Tamgo 3.0

Used drive  : HL-DT-ST DVDRAM GSA-4163B   Adapter: 1  ID: 0

Read mode               : Secure
Utilize accurate stream : Yes
Defeat audio cache      : Yes
Make use of C2 pointers : No

Read offset correction                      : 667
Overread into Lead-In and Lead-Out          : No
Fill up missing offset samples with silence : Yes
Delete leading and trailing silent blocks   : No
Null samples used in CRC calculations       : Yes
Used interface                              : Native Win32 interface for Win NT & 2000
Gap handling                                : Appended to previous track

Used output format : Internal WAV Routines
Sample format      : 44.100 Hz; 16 Bit; Stereo

TOC of the extracted CD

     Track |   Start  |  Length  | Start sector | End sector
    ---------------------------------------------------------
        1  |  0:00.00 |  3:46.04 |         0    |    16953   
        2  |  3:46.04 |  4:27.28 |     16954    |    37006   
        3  |  8:13.32 |  4:24.63 |     37007    |    56869   
        4  | 12:38.20 |  3:57.60 |     56870    |    74704   
        5  | 16:36.05 |  3:47.41 |     74705    |    91770   
        6  | 20:23.46 |  5:49.44 |     91771    |   117989   
        7  | 26:13.15 |  3:21.02 |    117990    |   133066   
        8  | 29:34.17 |  3:25.04 |    133067    |   148445   
        9  | 32:59.21 |  2:35.39 |    148446    |   160109   
       10  | 35:34.60 |  4:33.14 |    160110    |   180598   
       11  | 40:07.74 |  4:20.70 |    180599    |   200168   

Track  1

     Filename E:\Gotan Project\2010 - Tamgo 3.0\01. Tango Square.wav

     Pre-gap length  0:00:02.00

     Peak level 94.3 %
     Track quality 100.0 %
     Test CRC B5A3365C
     Copy CRC B5A3365C
     Track not present in AccurateRip database
     Copy OK

Track  2

     Filename E:\Gotan Project\2010 - Tamgo 3.0\02. Rayuela.wav

     Pre-gap length  0:00:01.96

     Peak level 92.4 %
     Track quality 100.0 %
     Test CRC 84A15C9C
     Copy CRC 84A15C9C
     Track not present in AccurateRip database
     Copy OK

Track  3

     Filename E:\Gotan Project\2010 - Tamgo 3.0\03. Desilusion.wav

     Pre-gap length  0:00:01.97

     Peak level 94.3 %
     Track quality 100.0 %
     Test CRC 6046897A
     Copy CRC 6046897A
     Track not present in AccurateRip database
     Copy OK

Track  4

     Filename E:\Gotan Project\2010 - Tamgo 3.0\04. Peligro.wav

     Pre-gap length  0:00:01.84

     Peak level 94.3 %
     Track quality 100.0 %
     Test CRC A7AA077B
     Copy CRC A7AA077B
     Track not present in AccurateRip database
     Copy OK

Track  5

     Filename E:\Gotan Project\2010 - Tamgo 3.0\05. La Gloria.wav

     Pre-gap length  0:00:01.90

     Peak level 99.3 %
     Track quality 100.0 %
     Test CRC 7CFE147E
     Copy CRC 7CFE147E
     Track not present in AccurateRip database
     Copy OK

Track  6

     Filename E:\Gotan Project\2010 - Tamgo 3.0\06. Mil Millones.wav

     Pre-gap length  0:00:01.74

     Peak level 96.2 %
     Track quality 100.0 %
     Test CRC 780493CF
     Copy CRC 780493CF
     Track not present in AccurateRip database
     Copy OK

Track  7

     Filename E:\Gotan Project\2010 - Tamgo 3.0\07. Tu Misterio.wav

     Pre-gap length  0:00:01.93

     Peak level 97.7 %
     Track quality 100.0 %
     Test CRC 5B83D5BC
     Copy CRC 5B83D5BC
     Track not present in AccurateRip database
     Copy OK

Track  8

     Filename E:\Gotan Project\2010 - Tamgo 3.0\08. De Hombre A Hombre.wav

     Pre-gap length  0:00:01.93

     Peak level 94.4 %
     Track quality 100.0 %
     Test CRC 97699689
     Copy CRC 97699689
     Track not present in AccurateRip database
     Copy OK

Track  9

     Filename E:\Gotan Project\2010 - Tamgo 3.0\09. El Mensajero.wav

     Pre-gap length  0:00:01.52

     Peak level 94.2 %
     Track quality 100.0 %
     Test CRC 086BDB38
     Copy CRC 086BDB38
     Track not present in AccurateRip database
     Copy OK

Track 10

     Filename E:\Gotan Project\2010 - Tamgo 3.0\10. Panamericana.wav

     Pre-gap length  0:00:01.92

     Peak level 98.3 %
     Track quality 100.0 %
     Test CRC 80560B13
     Copy CRC 80560B13
     Track not present in AccurateRip database
     Copy OK

Track 11

     Filename E:\Gotan Project\2010 - Tamgo 3.0\11. Erase Una Vez.wav

     Pre-gap length  0:00:03.41

     Peak level 92.6 %
     Track quality 100.0 %
     Test CRC 7826A6E4
     Copy CRC 7826A6E4
     Track not present in AccurateRip database
     Copy OK

None of the tracks are present in the AccurateRip database

No errors occurred

End of status report

Код:

REM ACCURATERIPID 00129498-00a06976-a60a6c0b
REM DISCID A60A6C0B
REM COMMENT "ExactAudioCopy v0.99pb4"
REM DATE 2010
REM GENRE "Tango"
PERFORMER "Gotan Project"
TITLE "Tamgo 3.0"
FILE "01. Tango Square.flac" WAVE
  TRACK 01 AUDIO
    TITLE "Tango Square"
    PERFORMER "Gotan Project"
    INDEX 01 00:00:00
  TRACK 02 AUDIO
    TITLE "Rayuela"
    PERFORMER "Gotan Project"
    INDEX 00 03:44:07
FILE "02. Rayuela.flac" WAVE
    INDEX 01 00:00:00
  TRACK 03 AUDIO
    TITLE "Desilusion"
    PERFORMER "Gotan Project"
    INDEX 00 04:25:30
FILE "03. Desilusion.flac" WAVE
    INDEX 01 00:00:00
  TRACK 04 AUDIO
    TITLE "Peligro"
    PERFORMER "Gotan Project"
    INDEX 00 04:23:00
FILE "04. Peligro.flac" WAVE
    INDEX 01 00:00:00
  TRACK 05 AUDIO
    TITLE "La Gloria"
    PERFORMER "Gotan Project"
    INDEX 00 03:55:67
FILE "05. La Gloria.flac" WAVE
    INDEX 01 00:00:00
  TRACK 06 AUDIO
    TITLE "Mil Millones"
    PERFORMER "Gotan Project"
    INDEX 00 03:45:60
FILE "06. Mil Millones.flac" WAVE
    INDEX 01 00:00:00
  TRACK 07 AUDIO
    TITLE "Tu Misterio"
    PERFORMER "Gotan Project"
    INDEX 00 05:47:49
FILE "07. Tu Misterio.flac" WAVE
    INDEX 01 00:00:00
  TRACK 08 AUDIO
    TITLE "De Hombre A Hombre"
    PERFORMER "Gotan Project"
    INDEX 00 03:19:07
FILE "08. De Hombre A Hombre.flac" WAVE
    INDEX 01 00:00:00
  TRACK 09 AUDIO
    TITLE "El Mensajero"
    PERFORMER "Gotan Project"
    INDEX 00 03:23:40
FILE "09. El Mensajero.flac" WAVE
    INDEX 01 00:00:00
  TRACK 10 AUDIO
    TITLE "Panamericana"
    PERFORMER "Gotan Project"
    INDEX 00 02:33:45
FILE "10. Panamericana.flac" WAVE
    INDEX 01 00:00:00
  TRACK 11 AUDIO
    TITLE "Erase Una Vez"
    PERFORMER "Gotan Project"
    INDEX 00 04:29:58
FILE "11. Erase Una Vez.flac" WAVE
    INDEX 01 00:00:00
info [Профиль]  [ЛС] 
Показать сообщения:    
Ответить на тему

Текущее время: 23-Май 00:29

Часовой пояс: GMT + 4



Вы не можете начинать темы
Вы не можете отвечать на сообщения
Вы не можете редактировать свои сообщения
Вы не можете удалять свои сообщения
Вы не можете голосовать в опросах
Вы не можете прикреплять файлы к сообщениям
Вы не можете скачивать файлы