Ошибка

(OST) Paul Ruskay - Homeworld - 1999, FLAC (tracks+.cue), lossless

Ответить на тему
 
Автор Сообщение

SilverTea

Пол: Пол:Муж

Стаж: 13 лет

Сообщений: 80

Рейтинг

post 28-Май-2010 18:18 0[+]

[Цитировать] 

Paul Ruskay - Homeworld

Жанр: OST
Год первого издания: 1999
Тип релиза: tracks+.cue
Аудио кодек: FLAC
Битрейт аудио: lossless
Продолжительность: 00:44:21
Источник: What.CD (Brenex)

Треклист:
01. Adagio for Strings
02. Kharak System (Mission 1)
03. Great Wastelands (Mission 2)
04. Turanic Raiders Battle Music
05. Garden View (Mission 5)
06. Imperial Battle Music
07. Diamond Shoals (Mission 6)
08. Garden of Kadesh (Mission 7)
09. Swarmer Battle Music
10. Whispering Ocean (Mission 9)
11. Super Nova Station (Mission 10)
12. Ship Graveyard (Mission 13)
13. Bridge of Sighs (Mission 14)

Код:

Exact Audio Copy V0.99 prebeta 4 from 23. January 2008

EAC extraction logfile from 23. February 2009, 13:06

Paul Ruskay / Homeworld Soundtrack

Used drive  : MATSHITADVD-RAM UJ-841S   Adapter: 1  ID: 0

Read mode               : Secure
Utilize accurate stream : Yes
Defeat audio cache      : Yes
Make use of C2 pointers : No

Read offset correction                      : 102
Overread into Lead-In and Lead-Out          : No
Fill up missing offset samples with silence : Yes
Delete leading and trailing silent blocks   : No
Null samples used in CRC calculations       : Yes
Used interface                              : Native Win32 interface for Win NT & 2000
Gap handling                                : Appended to previous track

Used output format              : User Defined Encoder
Selected bitrate                : 320 kBit/s
Quality                         : High
Add ID3 tag                     : No
Command line compressor         : C:\Program Files\Exact Audio Copy\Flac\flac.exe
Additional command line options : -V -8 -T "artist=%a" -T "title=%t" -T "album=%g" -T "date=%y" -T "tracknumber=%n" -T "genre=%m" %s

TOC of the extracted CD

     Track |   Start  |  Length  | Start sector | End sector
    ---------------------------------------------------------
        1  |  0:00.00 |  1:43.69 |         0    |     7793   
        2  |  1:43.69 |  5:51.42 |      7794    |    34160   
        3  |  7:35.36 |  3:07.26 |     34161    |    48211   
        4  | 10:42.62 |  2:40.02 |     48212    |    60213   
        5  | 13:22.64 |  4:06.00 |     60214    |    78663   
        6  | 17:28.64 |  1:56.05 |     78664    |    87368   
        7  | 19:24.69 |  2:57.65 |     87369    |   100708   
        8  | 22:22.59 |  2:50.58 |    100709    |   113516   
        9  | 25:13.42 |  4:57.34 |    113517    |   135825   
       10  | 30:11.01 |  6:20.25 |    135826    |   164350   
       11  | 36:31.26 |  2:52.71 |    164351    |   177321   
       12  | 39:24.22 |  1:35.28 |    177322    |   184474   
       13  | 40:59.50 |  2:25.39 |    184475    |   195388   
       14  | 43:25.14 |  2:40.32 |    195389    |   207420   

Track  2

     Filename D:\Rips\Paul Ruskay - 1999 - Homeworld Soundtrack\02 - Adagio for Strings.wav

     Pre-gap length  0:00:02.01

     Peak level 62.7 %
     Track quality 100.0 %
     Test CRC 8E7A95B4
     Copy CRC 8E7A95B4
     Accurately ripped (confidence 5)  [20F3F069]
     Copy OK

Track  3

     Filename D:\Rips\Paul Ruskay - 1999 - Homeworld Soundtrack\03 - Kharak System (Mission 1).wav

     Pre-gap length  0:00:00.89

     Peak level 71.2 %
     Track quality 100.0 %
     Test CRC 04AEADAC
     Copy CRC 04AEADAC
     Accurately ripped (confidence 6)  [04847F04]
     Copy OK

Track  4

     Filename D:\Rips\Paul Ruskay - 1999 - Homeworld Soundtrack\04 - Great Wastelands (Mission 2).wav

     Pre-gap length  0:00:00.89

     Peak level 69.0 %
     Track quality 100.0 %
     Test CRC CEDFD777
     Copy CRC CEDFD777
     Accurately ripped (confidence 6)  [18360C3E]
     Copy OK

Track  5

     Filename D:\Rips\Paul Ruskay - 1999 - Homeworld Soundtrack\05 - Turanic Battle Music.wav

     Pre-gap length  0:00:00.98

     Peak level 65.8 %
     Track quality 100.0 %
     Test CRC DD72E425
     Copy CRC DD72E425
     Accurately ripped (confidence 6)  [C0BE38C1]
     Copy OK

Track  6

     Filename D:\Rips\Paul Ruskay - 1999 - Homeworld Soundtrack\06 - Garden View (Mission 5).wav

     Pre-gap length  0:00:00.96

     Peak level 64.0 %
     Track quality 100.0 %
     Test CRC E39BC90C
     Copy CRC E39BC90C
     Accurately ripped (confidence 6)  [033077C1]
     Copy OK

Track  7

     Filename D:\Rips\Paul Ruskay - 1999 - Homeworld Soundtrack\07 - Imperial Battle Music.wav

     Pre-gap length  0:00:00.98

     Peak level 69.9 %
     Track quality 100.0 %
     Test CRC 2880FA9A
     Copy CRC 2880FA9A
     Accurately ripped (confidence 6)  [1412766A]
     Copy OK

Track  8

     Filename D:\Rips\Paul Ruskay - 1999 - Homeworld Soundtrack\08 - Diamond Shoals (Mission 6).wav

     Pre-gap length  0:00:01.00

     Peak level 72.9 %
     Track quality 100.0 %
     Test CRC A633713F
     Copy CRC A633713F
     Accurately ripped (confidence 6)  [5544A11F]
     Copy OK

Track  9

     Filename D:\Rips\Paul Ruskay - 1999 - Homeworld Soundtrack\09 - Garden of Kadesh (Mission 7).wav

     Pre-gap length  0:00:00.98

     Peak level 76.0 %
     Track quality 100.0 %
     Test CRC DFAD374B
     Copy CRC DFAD374B
     Accurately ripped (confidence 6)  [1DEF9675]
     Copy OK

Track 10

     Filename D:\Rips\Paul Ruskay - 1999 - Homeworld Soundtrack\10 - Swarmer Battle Music.wav

     Pre-gap length  0:00:01.00

     Peak level 79.5 %
     Track quality 100.0 %
     Test CRC FBBAC6D2
     Copy CRC FBBAC6D2
     Accurately ripped (confidence 6)  [CB198E9B]
     Copy OK

Track 11

     Filename D:\Rips\Paul Ruskay - 1999 - Homeworld Soundtrack\11 - Whispering Ocean (Mission 9).wav

     Pre-gap length  0:00:00.86

     Peak level 51.1 %
     Track quality 100.0 %
     Test CRC 123E0C68
     Copy CRC 123E0C68
     Accurately ripped (confidence 6)  [4A9B6B1B]
     Copy OK

Track 12

     Filename D:\Rips\Paul Ruskay - 1999 - Homeworld Soundtrack\12 - Super Nova Station (Mission 10).wav

     Pre-gap length  0:00:00.98

     Peak level 62.7 %
     Track quality 100.0 %
     Test CRC 1D1DCA51
     Copy CRC 1D1DCA51
     Accurately ripped (confidence 6)  [FBAD4E70]
     Copy OK

Track 13

     Filename D:\Rips\Paul Ruskay - 1999 - Homeworld Soundtrack\13 - Ship Graveyard (Mission 13).wav

     Pre-gap length  0:00:00.98

     Peak level 60.4 %
     Track quality 100.0 %
     Test CRC 353385D1
     Copy CRC 353385D1
     Accurately ripped (confidence 6)  [C9DEAE5E]
     Copy OK

Track 14

     Filename D:\Rips\Paul Ruskay - 1999 - Homeworld Soundtrack\14 - Bridge of Sighs (Mission 14).wav

     Pre-gap length  0:00:00.98

     Peak level 64.3 %
     Track quality 100.0 %
     Test CRC DB1566C0
     Copy CRC DB1566C0
     Track not present in AccurateRip database
     Copy OK

12 track(s) accurately ripped
 1 track(s) not present in the AccurateRip database

Some tracks could not be verified as accurate

No errors occurred

End of status report

Код:

REM GENRE Soundtrack
REM DATE 1999
REM DISCID A70ACD0E
REM COMMENT "ExactAudioCopy v0.99pb4"
FILE "<Filename>.iso" BINARY
  TRACK 01 MODEx/2xxx
    INDEX 01 00:00:00
  TRACK 02 AUDIO
    INDEX 00 01:41:68
FILE "02 - Adagio for Strings.wav" WAVE
    INDEX 01 00:00:00
  TRACK 03 AUDIO
    INDEX 00 05:50:50
FILE "03 - Kharak System (Mission 1).wav" WAVE
    INDEX 01 00:00:00
  TRACK 04 AUDIO
    INDEX 00 03:06:34
FILE "04 - Great Wastelands (Mission 2).wav" WAVE
    INDEX 01 00:00:00
  TRACK 05 AUDIO
    INDEX 00 02:39:03
FILE "05 - Turanic Battle Music.wav" WAVE
    INDEX 01 00:00:00
  TRACK 06 AUDIO
    INDEX 00 04:05:03
FILE "06 - Garden View (Mission 5).wav" WAVE
    INDEX 01 00:00:00
  TRACK 07 AUDIO
    INDEX 00 01:55:06
FILE "07 - Imperial Battle Music.wav" WAVE
    INDEX 01 00:00:00
  TRACK 08 AUDIO
    INDEX 00 02:56:65
FILE "08 - Diamond Shoals (Mission 6).wav" WAVE
    INDEX 01 00:00:00
  TRACK 09 AUDIO
    INDEX 00 02:49:59
FILE "09 - Garden of Kadesh (Mission 7).wav" WAVE
    INDEX 01 00:00:00
  TRACK 10 AUDIO
    INDEX 00 04:56:34
FILE "10 - Swarmer Battle Music.wav" WAVE
    INDEX 01 00:00:00
  TRACK 11 AUDIO
    INDEX 00 06:19:35
FILE "11 - Whispering Ocean (Mission 9).wav" WAVE
    INDEX 01 00:00:00
  TRACK 12 AUDIO
    INDEX 00 02:51:72
FILE "12 - Super Nova Station (Mission 10).wav" WAVE
    INDEX 01 00:00:00
  TRACK 13 AUDIO
    INDEX 00 01:34:29
FILE "13 - Ship Graveyard (Mission 13).wav" WAVE
    INDEX 01 00:00:00
  TRACK 14 AUDIO
    INDEX 00 02:24:40
FILE "14 - Bridge of Sighs (Mission 14).wav" WAVE
    INDEX 01 00:00:00

Код:

AUDIOCHECKER v2.0 beta (build 457) - by Dester - opdester@freemail.hu
~~~~~~~~~~~~~~~~~~~~~~~~~~~~~~~~~~
-=== НЕ РЕДАКТИРУЙТЕ ЭТОТ ФАЙЛ! ===-

Путь: ...\Homeworld

01 -=- 02 - Adagio for Strings.flac -=- CDDA (100%)
02 -=- 03 - Kharak System (Mission 1).flac -=- CDDA (100%)
03 -=- 04 - Great Wastelands (Mission 2).flac -=- CDDA (100%)
04 -=- 05 - Turanic Battle Music.flac -=- CDDA (100%)
05 -=- 06 - Garden View (Mission 5).flac -=- CDDA (100%)
06 -=- 07 - Imperial Battle Music.flac -=- CDDA (100%)
07 -=- 08 - Diamond Shoals (Mission 6).flac -=- CDDA (100%)
08 -=- 09 - Garden of Kadesh (Mission 7).flac -=- CDDA (100%)
09 -=- 10 - Swarmer Battle Music.flac -=- CDDA (100%)
10 -=- 11 - Whispering Ocean (Mission 9).flac -=- CDDA (100%)
11 -=- 12 - Super Nova Station (Mission 10).flac -=- CDDA (100%)
12 -=- 13 - Ship Graveyard (Mission 13).flac -=- CDDA (100%)
13 -=- 14 - Bridge of Sighs (Mission 14).flac -=- CDDA (99%)

Сводка 99,92% CDDA

89954708
info [Профиль]  [ЛС] 

carboncat

Стаж: 12 лет

Сообщений: 675

Рейтинг

post 06-Сен-2010 18:54 (спустя 3 месяца 9 дней) [-]0[+]

[Цитировать] 

а я думал что музыки там нет=)
info [Профиль]  [ЛС] 

melgib

Пол: Пол:Муж

Стаж: 10 лет

Сообщений: 73

Молдавия
Рейтинг

post 31-Дек-2014 12:22 (спустя 4 года 3 месяца) [-]0[+]

[Цитировать] 

Шедевральный саундтрек!
info [Профиль]  [ЛС] 
Показать сообщения:    
Ответить на тему

Текущее время: 28-Май 02:07

Часовой пояс: GMT + 4



Вы не можете начинать темы
Вы не можете отвечать на сообщения
Вы не можете редактировать свои сообщения
Вы не можете удалять свои сообщения
Вы не можете голосовать в опросах
Вы не можете прикреплять файлы к сообщениям
Вы не можете скачивать файлы