Ошибка

(Rap, Hip-Hop) [CD] Kendrick Lamar - Коллекция (2 релиза) - 2012-2022, FLAC (tracks+.cue), lossless

Ответить на тему
 
Автор Сообщение

F.A.N.T.O.M

Пол: Пол:Муж

Стаж: 5 месяцев 24 дня

Сообщений: 421

Россия
Рейтинг

post 09-Июн-2024 15:36 0[+]

[Цитировать] 

Kendrick Lamar - Коллекция


Жанр: Rap, Hip-Hop | Носитель: CD | Страна-производитель диска: US, EU | Страна: Compton, California, U.S. | Аудиокодек : FLAC (*.flac) | Битрейт аудио: lossless | Программа-риповщик: EAC (диск)
Общая продолжительность: 02:36:24 | Источник (релизер): Собственные диски | Наличие сканов в содержимом раздачи: да
Издатель (лейбл): Aftermath Entertainment, Interscope Records
Номер по каталогу: B0017536-02
Общая продолжительность: 01:23:11


Треклист:
01. Sherane a.k.a Master Splinter’s Daughter (04:34)
02. Bitch, Don’t Kill My Vibe (05:11)
03. Backseat Freestyle (03:33)
04. The Art Of Peer Pressure (05:25)
05. Money Trees (Feat. Jay Rock) (06:27)
06. Poetic Justice (Feat. Drake) (05:00)
07. good kid (03:34)
08. m.A.A.d city (Feat. MC Eiht) (05:55)
09. Swimming Pools (Drank) (05:14)
10. Sing About Me, I’m Dying Of Thirst (12:04)
11. Real (Feat. Anna Wise) (07:23)
12. Compton (Feat. Dr. Dre) (04:08)
 
Exact Audio Copy V1.6 from 23. October 2020

Отчёт EAC об извлечении, выполненном 13. апреля 2024, 22:58

Kendrick Lamar / good kid, m.A.A.d city (Deluxe Edition)

Дисковод: Optiarc DVD RW AD-5200S Adapter: 1 ID: 0

Режим чтения : Достоверность
Использование точного потока : Да
Отключение кэша аудио : Да
Использование указателей C2 : Нет

Коррекция смещения при чтении : 48
Способность читать области Lead-in и Lead-out : Нет
Заполнение пропущенных сэмплов тишиной : Да
Удаление блоков с тишиной в начале и конце : Нет
При вычислениях CRC использовались нулевые сэмплы : Да
Интерфейс : Встроенный Win32-интерфейс для Win NT/2000
Обработка зазоров : Добавлено к предыдущему треку

Выходной формат : Пользовательский кодировщик
Выбранный битрейт : 768 kBit/s
Качество : Высокий
Добавление ID3-тега : Нет
Утилита сжатия : C:\Program Files (x86)\foobar2000\encoders\flac.exe
Дополнительные параметры : -V -8 -T "ARTIST=%artist%" -T "TITLE=%title%" -T "ALBUM=%albumtitle%" -T "DATE=%year%" -T "TRACKNUMBER=%tracknr%" -T "GENRE=%genre%" -T "BAND=%albuminterpret%" -T "ALBUMARTIST=%albuminterpret%" -T "COMPOSER=%composer%" %haslyrics%--tag-from-file=LYRICS="%lyricsfile%"%haslyrics% -T "DISCNUMBER=%cdnumber%" -T "TOTALDISCS=%totalcds%" -T "TOTALTRACKS=%numtracks%" %hascover%--picture="%coverfile%"%hascover% %source% -o %dest%

TOC извлечённого CD

Трек | Старт | Длительность | Начальный сектор | Конечный сектор
---------------------------------------------------------------------
1 | 0:00.00 | 4:33.48 | 0 | 20522
2 | 4:33.48 | 5:10.54 | 20523 | 43826
3 | 9:44.27 | 3:32.49 | 43827 | 59775
4 | 13:17.01 | 5:24.40 | 59776 | 84115
5 | 18:41.41 | 6:26.68 | 84116 | 113133
6 | 25:08.34 | 5:00.12 | 113134 | 135645
7 | 30:08.46 | 3:34.09 | 135646 | 151704
8 | 33:42.55 | 5:50.09 | 151705 | 177963
9 | 39:32.64 | 5:13.59 | 177964 | 201497
10 | 44:46.48 | 12:03.43 | 201498 | 255765
11 | 56:50.16 | 7:23.31 | 255766 | 289021
12 | 64:13.47 | 4:08.07 | 289022 | 307628

Трек 1

Имя файла E:\Мои Рипы\Kendrick Lamar - Коллекция (2 релиза) (FLAC)\(2012) good kid, m.A.A.d city (Deluxe Edition)\Disc 1\01. Sherane a.k.a Master Splinter’s Daughter.wav

Длина предзазора 0:00:02.00

Пиковый уровень 99.9 %
Скорость извлечения 2.6 X
Качество трека 100.0 %
CRC теста 7F6AAF8F
CRC копии 7F6AAF8F
Точное извлечение (достоверность 200) [DC513A5C] (AR v2)
Копирование... OK

Трек 2

Имя файла E:\Мои Рипы\Kendrick Lamar - Коллекция (2 релиза) (FLAC)\(2012) good kid, m.A.A.d city (Deluxe Edition)\Disc 1\02. Bitch, Don’t Kill My Vibe.wav

Пиковый уровень 98.8 %
Скорость извлечения 2.7 X
Качество трека 99.9 %
CRC теста A5F36DF4
CRC копии A5F36DF4
Точное извлечение (достоверность 200) [12659181] (AR v2)
Копирование... OK

Трек 3

Имя файла E:\Мои Рипы\Kendrick Lamar - Коллекция (2 релиза) (FLAC)\(2012) good kid, m.A.A.d city (Deluxe Edition)\Disc 1\03. Backseat Freestyle.wav

Пиковый уровень 98.8 %
Скорость извлечения 3.1 X
Качество трека 100.0 %
CRC теста A14C8597
CRC копии A14C8597
Точное извлечение (достоверность 200) [CD528BE3] (AR v2)
Копирование... OK

Трек 4

Имя файла E:\Мои Рипы\Kendrick Lamar - Коллекция (2 релиза) (FLAC)\(2012) good kid, m.A.A.d city (Deluxe Edition)\Disc 1\04. The Art Of Peer Pressure.wav

Пиковый уровень 100.0 %
Скорость извлечения 3.4 X
Качество трека 100.0 %
CRC теста 45251867
CRC копии 45251867
Точное извлечение (достоверность 200) [FEB6D3EB] (AR v2)
Копирование... OK

Трек 5

Имя файла E:\Мои Рипы\Kendrick Lamar - Коллекция (2 релиза) (FLAC)\(2012) good kid, m.A.A.d city (Deluxe Edition)\Disc 1\05. Money Trees (Feat. Jay Rock).wav

Пиковый уровень 98.8 %
Скорость извлечения 0.9 X
Качество трека 100.0 %
CRC теста 64C17BB8
CRC копии 64C17BB8
Точное извлечение (достоверность 200) [45A194C6] (AR v2)
Копирование... OK

Трек 6

Имя файла E:\Мои Рипы\Kendrick Lamar - Коллекция (2 релиза) (FLAC)\(2012) good kid, m.A.A.d city (Deluxe Edition)\Disc 1\06. Poetic Justice (Feat. Drake).wav

Пиковый уровень 99.9 %
Скорость извлечения 3.9 X
Качество трека 100.0 %
CRC теста 7A5F9525
CRC копии 7A5F9525
Точное извлечение (достоверность 200) [DF3EDF21] (AR v2)
Копирование... OK

Трек 7

Имя файла E:\Мои Рипы\Kendrick Lamar - Коллекция (2 релиза) (FLAC)\(2012) good kid, m.A.A.d city (Deluxe Edition)\Disc 1\07. good kid.wav

Пиковый уровень 98.8 %
Скорость извлечения 3.4 X
Качество трека 99.9 %
CRC теста A3F5EBFE
CRC копии A3F5EBFE
Точное извлечение (достоверность 200) [71E552A0] (AR v2)
Копирование... OK

Трек 8

Имя файла E:\Мои Рипы\Kendrick Lamar - Коллекция (2 релиза) (FLAC)\(2012) good kid, m.A.A.d city (Deluxe Edition)\Disc 1\08. m.A.A.d city (Feat. MC Eiht).wav

Пиковый уровень 99.9 %
Скорость извлечения 4.4 X
Качество трека 100.0 %
CRC теста 109A5FC9
CRC копии 109A5FC9
Точное извлечение (достоверность 200) [23AE03D5] (AR v2)
Копирование... OK

Трек 9

Имя файла E:\Мои Рипы\Kendrick Lamar - Коллекция (2 релиза) (FLAC)\(2012) good kid, m.A.A.d city (Deluxe Edition)\Disc 1\09. Swimming Pools (Drank).wav

Пиковый уровень 99.9 %
Скорость извлечения 4.5 X
Качество трека 100.0 %
CRC теста 03516422
CRC копии 03516422
Точное извлечение (достоверность 200) [014C7733] (AR v2)
Копирование... OK

Трек 10

Имя файла E:\Мои Рипы\Kendrick Lamar - Коллекция (2 релиза) (FLAC)\(2012) good kid, m.A.A.d city (Deluxe Edition)\Disc 1\10. Sing About Me, I’m Dying Of Thirst.wav

Пиковый уровень 99.9 %
Скорость извлечения 5.2 X
Качество трека 100.0 %
CRC теста D3E7B04E
CRC копии D3E7B04E
Точное извлечение (достоверность 200) [C3D124C7] (AR v2)
Копирование... OK

Трек 11

Имя файла E:\Мои Рипы\Kendrick Lamar - Коллекция (2 релиза) (FLAC)\(2012) good kid, m.A.A.d city (Deluxe Edition)\Disc 1\11. Real (Feat. Anna Wise).wav

Пиковый уровень 99.9 %
Скорость извлечения 5.4 X
Качество трека 100.0 %
CRC теста 5E3AA33C
CRC копии 5E3AA33C
Точное извлечение (достоверность 200) [A799B6AE] (AR v2)
Копирование... OK

Трек 12

Имя файла E:\Мои Рипы\Kendrick Lamar - Коллекция (2 релиза) (FLAC)\(2012) good kid, m.A.A.d city (Deluxe Edition)\Disc 1\12. Compton (Feat. Dr. Dre).wav

Пиковый уровень 98.8 %
Скорость извлечения 5.3 X
Качество трека 100.0 %
CRC теста F6990B0E
CRC копии F6990B0E
Точное извлечение (достоверность 200) [8BAF597F] (AR v2)
Копирование... OK

Все треки извлечены точно

Ошибок не произошло

Конец отчёта

---- CUETools DB Plugin V2.1.6

[CTDB TOCID: SG0j3.AYUw2iHYbBoCBek6pOV7I-] found
Submit result: SG0j3.AYUw2iHYbBoCBek6pOV7I- has been confirmed
Track | CTDB Status
1 | (988/991) Accurately ripped
2 | (990/991) Accurately ripped
3 | (990/991) Accurately ripped
4 | (991/991) Accurately ripped
5 | (988/991) Accurately ripped
6 | (989/991) Accurately ripped
7 | (991/991) Accurately ripped
8 | (990/991) Accurately ripped
9 | (991/991) Accurately ripped
10 | (989/991) Accurately ripped
11 | (985/991) Accurately ripped
12 | (986/991) Accurately ripped

==== Контрольная сумма отчёта 2A0DF08BA05574CA9752AD3016D30F0A752ADB91F0702065F0BE824574C3649D ====
 
REM GENRE Rap
REM DATE 2012
REM DISCID A310050C
REM COMMENT "ExactAudioCopy v1.6"
PERFORMER "Kendrick Lamar"
TITLE "good kid, m.A.A.d city (Deluxe Edition)"
REM COMPOSER ""
FILE "01. Sherane a.k.a Master Splinter’s Daughter.wav" WAVE
TRACK 01 AUDIO
TITLE "Sherane a.k.a Master Splinter’s Daughter"
PERFORMER "Kendrick Lamar"
REM COMPOSER "Tha Bizness"
INDEX 01 00:00:00
FILE "02. Bitch, Don’t Kill My Vibe.wav" WAVE
TRACK 02 AUDIO
TITLE "Bitch, Don’t Kill My Vibe"
PERFORMER "Kendrick Lamar"
REM COMPOSER "Sounwave"
INDEX 01 00:00:00
FILE "03. Backseat Freestyle.wav" WAVE
TRACK 03 AUDIO
TITLE "Backseat Freestyle"
PERFORMER "Kendrick Lamar"
REM COMPOSER "Hit-Boy"
INDEX 01 00:00:00
FILE "04. The Art Of Peer Pressure.wav" WAVE
TRACK 04 AUDIO
TITLE "The Art Of Peer Pressure"
PERFORMER "Kendrick Lamar"
REM COMPOSER "Tabu"
INDEX 01 00:00:00
FILE "05. Money Trees (Feat. Jay Rock).wav" WAVE
TRACK 05 AUDIO
TITLE "Money Trees (Feat. Jay Rock)"
PERFORMER "Kendrick Lamar"
REM COMPOSER "Dahi"
INDEX 01 00:00:00
FILE "06. Poetic Justice (Feat. Drake).wav" WAVE
TRACK 06 AUDIO
TITLE "Poetic Justice (Feat. Drake)"
PERFORMER "Kendrick Lamar"
REM COMPOSER "Scoop DeVille, Sounwave"
INDEX 01 00:00:00
FILE "07. good kid.wav" WAVE
TRACK 07 AUDIO
TITLE "good kid"
PERFORMER "Kendrick Lamar"
REM COMPOSER "The Neptunes"
INDEX 01 00:00:00
FILE "08. m.A.A.d city (Feat. MC Eiht).wav" WAVE
TRACK 08 AUDIO
TITLE "m.A.A.d city (Feat. MC Eiht)"
PERFORMER "Kendrick Lamar"
REM COMPOSER "Sounwave, THC, Terrace Martin"
INDEX 01 00:00:00
FILE "09. Swimming Pools (Drank).wav" WAVE
TRACK 09 AUDIO
TITLE "Swimming Pools (Drank)"
PERFORMER "Kendrick Lamar"
REM COMPOSER "T-Minus, Nikhil Seetharam"
INDEX 01 00:00:00
FILE "10. Sing About Me, I’m Dying Of Thirst.wav" WAVE
TRACK 10 AUDIO
TITLE "Sing About Me, I’m Dying Of Thirst"
PERFORMER "Kendrick Lamar"
REM COMPOSER "Skhye Hutch, Like, Sounwave"
INDEX 01 00:00:00
FILE "11. Real (Feat. Anna Wise).wav" WAVE
TRACK 11 AUDIO
TITLE "Real (Feat. Anna Wise)"
PERFORMER "Kendrick Lamar"
REM COMPOSER "Terrace Martin"
INDEX 01 00:00:00
FILE "12. Compton (Feat. Dr. Dre).wav" WAVE
TRACK 12 AUDIO
TITLE "Compton (Feat. Dr. Dre)"
PERFORMER "Kendrick Lamar"
REM COMPOSER "Just Blaze"
INDEX 01 00:00:00
 
Cue Corrector v. 10.2.3 / b. 2109 (Feb. 07, 2024)
————————————————————————————————————————————————————————————————————————
Kendrick Lamar / good kid, m.A.A.d city (Deluxe Edition)

Folder: Disc 1
Audio files:
01. Sherane a.k.a Master Splinter’s Daughter.flac [04:33.640; FLAC • 678 kbps • 16 bit \ 44100 Hz • stereo; 22.14 MB (23 213 309 B)]
02. Bitch, Don’t Kill My Vibe.flac [05:10.720; FLAC • 872 kbps • 16 bit \ 44100 Hz • stereo; 32.32 MB (33 891 933 B)]
03. Backseat Freestyle.flac [03:32.653; FLAC • 925 kbps • 16 bit \ 44100 Hz • stereo; 23.46 MB (24 602 325 B)]
04. The Art Of Peer Pressure.flac [05:24.533; FLAC • 765 kbps • 16 bit \ 44100 Hz • stereo; 29.63 MB (31 066 045 B)]
05. Money Trees (Feat. Jay Rock).flac [06:26.907; FLAC • 888 kbps • 16 bit \ 44100 Hz • stereo; 40.97 MB (42 956 895 B)]
06. Poetic Justice (Feat. Drake).flac [05:00.160; FLAC • 833 kbps • 16 bit \ 44100 Hz • stereo; 29.84 MB (31 287 189 B)]
07. good kid.flac [03:34.120; FLAC • 951 kbps • 16 bit \ 44100 Hz • stereo; 24.29 MB (25 468 803 B)]
08. m.A.A.d city (Feat. MC Eiht).flac [05:50.120; FLAC • 924 kbps • 16 bit \ 44100 Hz • stereo; 38.58 MB (40 450 313 B)]
09. Swimming Pools (Drank).flac [05:13.787; FLAC • 826 kbps • 16 bit \ 44100 Hz • stereo; 30.90 MB (32 404 215 B)]
10. Sing About Me, I’m Dying Of Thirst.flac [12:03.573; FLAC • 801 kbps • 16 bit \ 44100 Hz • stereo; 69.17 MB (72 528 628 B)]
11. Real (Feat. Anna Wise).flac [07:23.413; FLAC • 845 kbps • 16 bit \ 44100 Hz • stereo; 44.67 MB (46 840 246 B)]
12. Compton (Feat. Dr. Dre).flac [04:08.093; FLAC • 1036 kbps • 16 bit \ 44100 Hz • stereo; 30.65 MB (32 139 826 B)]

Accuracy: -m0

File 01. Sherane a.k.a Master Splinter’s Daughter - 100% CDDA [04:33:48]
File 02. Bitch, Don’t Kill My Vibe - 100% CDDA [05:10:54]
File 03. Backseat Freestyle - 100% CDDA [03:32:49]
File 04. The Art Of Peer Pressure - 100% CDDA [05:24:40]
File 05. Money Trees (Feat. Jay Rock) - 100% CDDA [06:26:68]
File 06. Poetic Justice (Feat. Drake) - 100% CDDA [05:00:12]
File 07. good kid - 100% CDDA [03:34:09]
File 08. m.A.A.d city (Feat. MC Eiht) - 100% CDDA [05:50:09]
File 09. Swimming Pools (Drank) - 99% CDDA [05:13:59]
File 10. Sing About Me, I’m Dying Of Thirst - 99% CDDA [12:03:43]
File 11. Real (Feat. Anna Wise) - 100% CDDA [07:23:31]
File 12. Compton (Feat. Dr. Dre) - 100% CDDA [04:08:07]
————— Summary: —————
These tracks looks like CDDA with probability 100%.
————————————————————————————————————————————————————————————————————————

ANALYZER:
auCDtect: CD records authenticity detector, version 0.8.2
Copyright (c) 2004 Oleg Berngardt. All rights reserved.
Copyright (c) 2004 Alexander Djourik. All rights reserved.

Time elapsed: 2 m 00 s
Log created at April 14, 2024 12:39:17

=== D99F3B2844C9D70E87287C5A1AA5358D91E1D120D5DCAC60336D5EE6BEB42E2B ===
Треклист:
01. The Recipe (Feat. Dr. Dre) (05:53)
02. Black Boy Fly (04:39)
03. Now Or Never (Feat. Mary J. Blige) (04:16)
 
Exact Audio Copy V1.6 from 23. October 2020

Отчёт EAC об извлечении, выполненном 14. апреля 2024, 2:19

Kendrick Lamar / good kid, m.A.A.d city (Deluxe Edition)

Дисковод: Optiarc DVD RW AD-5200S Adapter: 1 ID: 0

Режим чтения : Достоверность
Использование точного потока : Да
Отключение кэша аудио : Да
Использование указателей C2 : Нет

Коррекция смещения при чтении : 48
Способность читать области Lead-in и Lead-out : Нет
Заполнение пропущенных сэмплов тишиной : Да
Удаление блоков с тишиной в начале и конце : Нет
При вычислениях CRC использовались нулевые сэмплы : Да
Интерфейс : Встроенный Win32-интерфейс для Win NT/2000
Обработка зазоров : Добавлено к предыдущему треку

Выходной формат : Пользовательский кодировщик
Выбранный битрейт : 768 kBit/s
Качество : Высокий
Добавление ID3-тега : Нет
Утилита сжатия : C:\Program Files (x86)\foobar2000\encoders\flac.exe
Дополнительные параметры : -V -8 -T "ARTIST=%artist%" -T "TITLE=%title%" -T "ALBUM=%albumtitle%" -T "DATE=%year%" -T "TRACKNUMBER=%tracknr%" -T "GENRE=%genre%" -T "BAND=%albuminterpret%" -T "ALBUMARTIST=%albuminterpret%" -T "COMPOSER=%composer%" %haslyrics%--tag-from-file=LYRICS="%lyricsfile%"%haslyrics% -T "DISCNUMBER=%cdnumber%" -T "TOTALDISCS=%totalcds%" -T "TOTALTRACKS=%numtracks%" %hascover%--picture="%coverfile%"%hascover% %source% -o %dest%

TOC извлечённого CD

Трек | Старт | Длительность | Начальный сектор | Конечный сектор
---------------------------------------------------------------------
1 | 0:00.00 | 5:53.14 | 0 | 26488
2 | 5:53.14 | 4:39.14 | 26489 | 47427
3 | 10:32.28 | 4:16.07 | 47428 | 66634

Трек 1

Имя файла E:\Мои Рипы\Kendrick Lamar - Коллекция (2 релиза) (FLAC)\(2012) good kid, m.A.A.d city (Deluxe Edition)\Disc 2\01. The Recipe (Feat. Dr. Dre).wav

Длина предзазора 0:00:02.00

Пиковый уровень 98.8 %
Скорость извлечения 2.7 X
Качество трека 100.0 %
CRC теста 45E072DB
CRC копии 45E072DB
Точное извлечение (достоверность 47) [FF7141F8] (AR v2)
Копирование... OK

Трек 2

Имя файла E:\Мои Рипы\Kendrick Lamar - Коллекция (2 релиза) (FLAC)\(2012) good kid, m.A.A.d city (Deluxe Edition)\Disc 2\02. Black Boy Fly.wav

Длина предзазора 0:00:00.25

Пиковый уровень 98.8 %
Скорость извлечения 2.6 X
Качество трека 99.9 %
CRC теста 36198BF5
CRC копии 36198BF5
Точное извлечение (достоверность 47) [47F85931] (AR v2)
Копирование... OK

Трек 3

Имя файла E:\Мои Рипы\Kendrick Lamar - Коллекция (2 релиза) (FLAC)\(2012) good kid, m.A.A.d city (Deluxe Edition)\Disc 2\03. Now Or Never (Feat. Mary J. Blige).wav

Длина предзазора 0:00:00.03

Пиковый уровень 98.8 %
Скорость извлечения 2.9 X
Качество трека 100.0 %
CRC теста 73A9B011
CRC копии 73A9B011
Точное извлечение (достоверность 48) [78210E38] (AR v2)
Копирование... OK

Все треки извлечены точно

Ошибок не произошло

Конец отчёта

---- CUETools DB Plugin V2.1.6

[CTDB TOCID: XFR0Rt5VKz3iaQWyhAf7YJuwfDw-] found
Submit result: XFR0Rt5VKz3iaQWyhAf7YJuwfDw- has been confirmed
Track | CTDB Status
1 | (142/144) Accurately ripped
2 | (144/144) Accurately ripped
3 | (144/144) Accurately ripped

==== Контрольная сумма отчёта C500C527C11D32F9896B0656EB52D65FA61A4C6AA2E30C17297288DD557B469B ====
 
REM GENRE Rap
REM DATE 2012
REM DISCID 1C037803
REM COMMENT "ExactAudioCopy v1.6"
PERFORMER "Kendrick Lamar"
TITLE "good kid, m.A.A.d city (Deluxe Edition)"
REM COMPOSER ""
FILE "01. The Recipe (Feat. Dr. Dre).wav" WAVE
TRACK 01 AUDIO
TITLE "The Recipe (Feat. Dr. Dre)"
PERFORMER "Kendrick Lamar"
REM COMPOSER "Scoop DeVille"
INDEX 01 00:00:00
TRACK 02 AUDIO
TITLE "Black Boy Fly"
PERFORMER "Kendrick Lamar"
REM COMPOSER "Rahki, Dawaun Parker"
INDEX 00 05:52:64
FILE "02. Black Boy Fly.wav" WAVE
INDEX 01 00:00:00
TRACK 03 AUDIO
TITLE "Now Or Never (Feat. Mary J. Blige)"
PERFORMER "Kendrick Lamar"
REM COMPOSER "Jack Splash"
INDEX 00 04:39:11
FILE "03. Now Or Never (Feat. Mary J. Blige).wav" WAVE
INDEX 01 00:00:00
 
Cue Corrector v. 10.2.3 / b. 2109 (Feb. 07, 2024)
————————————————————————————————————————————————————————————————————————
Kendrick Lamar / good kid, m.A.A.d city (Deluxe Edition)

Folder: Disc 2
Audio files:
01. The Recipe (Feat. Dr. Dre).flac [05:53.187; FLAC • 979 kbps • 16 bit \ 44100 Hz • stereo; 41.25 MB (43 255 203 B)]
02. Black Boy Fly.flac [04:39.187; FLAC • 886 kbps • 16 bit \ 44100 Hz • stereo; 29.51 MB (30 946 999 B)]
03. Now Or Never (Feat. Mary J. Blige).flac [04:16.093; FLAC • 890 kbps • 16 bit \ 44100 Hz • stereo; 27.19 MB (28 511 556 B)]

Accuracy: -m0

File 01. The Recipe (Feat. Dr. Dre) - 100% CDDA [05:53:14]
File 02. Black Boy Fly - 100% CDDA [04:39:14]
File 03. Now Or Never (Feat. Mary J. Blige) - 100% CDDA [04:16:07]
————— Summary: —————
These tracks looks like CDDA with probability 100%.
————————————————————————————————————————————————————————————————————————

ANALYZER:
auCDtect: CD records authenticity detector, version 0.8.2
Copyright (c) 2004 Oleg Berngardt. All rights reserved.
Copyright (c) 2004 Alexander Djourik. All rights reserved.

Time elapsed: 26.7 s
Log created at April 14, 2024 13:41:10

=== 5854F06A5A21C069552A60A34F20F7BD4DC676C4CD9F07F1A0D75D146DC27849 ===

good kid, m.A.A.d city - второй студийный альбом американского рэпера Кендрика Ламара. Он был выпущен 22 октября 2012 года на лейблах Top Dawg Entertainment, Aftermath Entertainment и Interscope Records. На альбоме приняли участие Дрейк, Доктор Дре, Jay-Z, Jay Rock, Anna Wise, Emeli Sandé и MC Eiht. Это дебют Ламара на крупном лейбле после его первого альбома Section.80, выпущенного независимо в 2011 году.
Издатель (лейбл): pgLang, Top Dawg Entertainment, Aftermath Entertainment, Interscope Records
Номер по каталогу: 00602445886906
Продолжительность: 01:13:14


Треклист:
01. United In Grief (04:15)
02. N95 (03:16)
03. Worldwide Steppers (03:23)
04. Die Hard (Feat. Blxst, Amanda Reifer) (03:59)
05. Father Time (Feat. Sampha) (03:42)
06. Rich (Interlude) (01:45)
07. Rich Spirit (03:22)
08. We Cry Together (Feat. Taylour Paige) (05:41)
09. Purple Hearts (Feat. Summer Walker, Ghostface Killah) (05:29)
10. Count Me Out (04:44)
11. Crown (04:24)
12. Silent Hill (Feat. Kodak Black) (03:41)
13. Savior (Interlude) (02:33)
14. Savior (Feat. Baby Keem, Sam Dew) (03:44)
15. Auntie Diaries (04:41)
16. Mr. Morale (Feat. Tanna Leone) (03:31)
17. Mother I Sober (Feat. Beth Gibbons) (06:47)
18. Mirror (04:16)
 
Exact Audio Copy V1.6 from 23. October 2020

Отчёт EAC об извлечении, выполненном 16. апреля 2024, 23:35

Kendrick Lamar / Mr. Morale & The Big Steppers

Дисковод: Optiarc DVD RW AD-5200S Adapter: 1 ID: 0

Режим чтения : Достоверность
Использование точного потока : Да
Отключение кэша аудио : Да
Использование указателей C2 : Нет

Коррекция смещения при чтении : 48
Способность читать области Lead-in и Lead-out : Нет
Заполнение пропущенных сэмплов тишиной : Да
Удаление блоков с тишиной в начале и конце : Нет
При вычислениях CRC использовались нулевые сэмплы : Да
Интерфейс : Встроенный Win32-интерфейс для Win NT/2000
Обработка зазоров : Добавлено к предыдущему треку

Выходной формат : Пользовательский кодировщик
Выбранный битрейт : 768 kBit/s
Качество : Высокий
Добавление ID3-тега : Нет
Утилита сжатия : C:\Program Files (x86)\foobar2000\encoders\flac.exe
Дополнительные параметры : -V -8 -T "ARTIST=%artist%" -T "TITLE=%title%" -T "ALBUM=%albumtitle%" -T "DATE=%year%" -T "TRACKNUMBER=%tracknr%" -T "GENRE=%genre%" -T "BAND=%albuminterpret%" -T "ALBUMARTIST=%albuminterpret%" -T "COMPOSER=%composer%" %haslyrics%--tag-from-file=LYRICS="%lyricsfile%"%haslyrics% -T "DISCNUMBER=%cdnumber%" -T "TOTALDISCS=%totalcds%" -T "TOTALTRACKS=%numtracks%" %hascover%--picture="%coverfile%"%hascover% %source% -o %dest%

TOC извлечённого CD

Трек | Старт | Длительность | Начальный сектор | Конечный сектор
---------------------------------------------------------------------
1 | 0:00.00 | 4:15.26 | 0 | 19150
2 | 4:15.26 | 3:15.70 | 19151 | 33845
3 | 7:31.21 | 3:23.26 | 33846 | 49096
4 | 10:54.47 | 3:59.01 | 49097 | 67022
5 | 14:53.48 | 3:42.35 | 67023 | 83707
6 | 18:36.08 | 1:44.38 | 83708 | 91545
7 | 20:20.46 | 3:22.00 | 91546 | 106695
8 | 23:42.46 | 5:41.23 | 106696 | 132293
9 | 29:23.69 | 5:29.21 | 132294 | 156989
10 | 34:53.15 | 4:43.47 | 156990 | 178261
11 | 39:36.62 | 4:24.21 | 178262 | 198082
12 | 44:01.08 | 3:40.57 | 198083 | 214639
13 | 47:41.65 | 2:32.72 | 214640 | 226111
14 | 50:14.62 | 3:44.33 | 226112 | 242944
15 | 53:59.20 | 4:41.04 | 242945 | 264023
16 | 58:40.24 | 3:30.62 | 264024 | 279835
17 | 62:11.11 | 6:46.38 | 279836 | 310323
18 | 68:57.49 | 4:16.02 | 310324 | 329525

Трек 1

Имя файла E:\Мои Рипы\Kendrick Lamar - Коллекция (2 релиза) (FLAC)\(2022) Mr. Morale & The Big Steppers\01. United In Grief.wav

Длина предзазора 0:00:02.00

Пиковый уровень 100.0 %
Скорость извлечения 2.5 X
Качество трека 100.0 %
CRC теста EE158B9F
CRC копии EE158B9F
Точное извлечение (достоверность 34) [A05DCFC2] (AR v2)
Копирование... OK

Трек 2

Имя файла E:\Мои Рипы\Kendrick Lamar - Коллекция (2 релиза) (FLAC)\(2022) Mr. Morale & The Big Steppers\02. N95.wav

Пиковый уровень 87.8 %
Скорость извлечения 2.6 X
Качество трека 100.0 %
CRC теста 57AB62D2
CRC копии 57AB62D2
Точное извлечение (достоверность 34) [FB215044] (AR v2)
Копирование... OK

Трек 3

Имя файла E:\Мои Рипы\Kendrick Lamar - Коллекция (2 релиза) (FLAC)\(2022) Mr. Morale & The Big Steppers\03. Worldwide Steppers.wav

Пиковый уровень 87.2 %
Скорость извлечения 2.8 X
Качество трека 100.0 %
CRC теста 7E47506F
CRC копии 7E47506F
Точное извлечение (достоверность 34) [53A62AAB] (AR v2)
Копирование... OK

Трек 4

Имя файла E:\Мои Рипы\Kendrick Lamar - Коллекция (2 релиза) (FLAC)\(2022) Mr. Morale & The Big Steppers\04. Die Hard (Feat. Blxst, Amanda Reifer).wav

Пиковый уровень 100.0 %
Скорость извлечения 2.7 X
Качество трека 99.9 %
CRC теста 4F577B32
CRC копии 4F577B32
Точное извлечение (достоверность 34) [3BE74576] (AR v2)
Копирование... OK

Трек 5

Имя файла E:\Мои Рипы\Kendrick Lamar - Коллекция (2 релиза) (FLAC)\(2022) Mr. Morale & The Big Steppers\05. Father Time (Feat. Sampha).wav

Пиковый уровень 100.0 %
Скорость извлечения 3.2 X
Качество трека 100.0 %
CRC теста 0FA990A7
CRC копии 0FA990A7
Точное извлечение (достоверность 34) [6DEA7709] (AR v2)
Копирование... OK

Трек 6

Имя файла E:\Мои Рипы\Kendrick Lamar - Коллекция (2 релиза) (FLAC)\(2022) Mr. Morale & The Big Steppers\06. Rich (Interlude).wav

Пиковый уровень 100.0 %
Скорость извлечения 2.8 X
Качество трека 100.0 %
CRC теста E6EB8FB4
CRC копии E6EB8FB4
Точное извлечение (достоверность 34) [1ABE39E5] (AR v2)
Копирование... OK

Трек 7

Имя файла E:\Мои Рипы\Kendrick Lamar - Коллекция (2 релиза) (FLAC)\(2022) Mr. Morale & The Big Steppers\07. Rich Spirit.wav

Пиковый уровень 100.0 %
Скорость извлечения 3.4 X
Качество трека 100.0 %
CRC теста 1790B49C
CRC копии 1790B49C
Точное извлечение (достоверность 34) [821C5A43] (AR v2)
Копирование... OK

Трек 8

Имя файла E:\Мои Рипы\Kendrick Lamar - Коллекция (2 релиза) (FLAC)\(2022) Mr. Morale & The Big Steppers\08. We Cry Together (Feat. Taylour Paige).wav

Пиковый уровень 100.0 %
Скорость извлечения 3.5 X
Качество трека 99.9 %
CRC теста F4A859AD
CRC копии F4A859AD
Точное извлечение (достоверность 34) [8C0AFEA2] (AR v2)
Копирование... OK

Трек 9

Имя файла E:\Мои Рипы\Kendrick Lamar - Коллекция (2 релиза) (FLAC)\(2022) Mr. Morale & The Big Steppers\09. Purple Hearts (Feat. Summer Walker, Ghostface Killah).wav

Пиковый уровень 100.0 %
Скорость извлечения 4.1 X
Качество трека 100.0 %
CRC теста 5409C405
CRC копии 5409C405
Точное извлечение (достоверность 34) [D00D3A70] (AR v2)
Копирование... OK

Трек 10

Имя файла E:\Мои Рипы\Kendrick Lamar - Коллекция (2 релиза) (FLAC)\(2022) Mr. Morale & The Big Steppers\10. Count Me Out.wav

Пиковый уровень 100.0 %
Скорость извлечения 4.3 X
Качество трека 100.0 %
CRC теста F845C3F7
CRC копии F845C3F7
Точное извлечение (достоверность 34) [D4692CEC] (AR v2)
Копирование... OK

Трек 11

Имя файла E:\Мои Рипы\Kendrick Lamar - Коллекция (2 релиза) (FLAC)\(2022) Mr. Morale & The Big Steppers\11. Crown.wav

Пиковый уровень 100.0 %
Скорость извлечения 3.9 X
Качество трека 99.9 %
CRC теста CF529790
CRC копии CF529790
Точное извлечение (достоверность 34) [5E664341] (AR v2)
Копирование... OK

Трек 12

Имя файла E:\Мои Рипы\Kendrick Lamar - Коллекция (2 релиза) (FLAC)\(2022) Mr. Morale & The Big Steppers\12. Silent Hill (Feat. Kodak Black).wav

Пиковый уровень 100.0 %
Скорость извлечения 3.8 X
Качество трека 99.9 %
CRC теста DA8A0781
CRC копии DA8A0781
Точное извлечение (достоверность 34) [B808C262] (AR v2)
Копирование... OK

Трек 13

Имя файла E:\Мои Рипы\Kendrick Lamar - Коллекция (2 релиза) (FLAC)\(2022) Mr. Morale & The Big Steppers\13. Savior (Interlude).wav

Пиковый уровень 100.0 %
Скорость извлечения 4.2 X
Качество трека 100.0 %
CRC теста 6F08AF49
CRC копии 6F08AF49
Точное извлечение (достоверность 34) [943684D2] (AR v2)
Копирование... OK

Трек 14

Имя файла E:\Мои Рипы\Kendrick Lamar - Коллекция (2 релиза) (FLAC)\(2022) Mr. Morale & The Big Steppers\14. Savior (Feat. Baby Keem, Sam Dew).wav

Пиковый уровень 100.0 %
Скорость извлечения 4.1 X
Качество трека 99.9 %
CRC теста 3B785CB6
CRC копии 3B785CB6
Точное извлечение (достоверность 34) [2A880116] (AR v2)
Копирование... OK

Трек 15

Имя файла E:\Мои Рипы\Kendrick Lamar - Коллекция (2 релиза) (FLAC)\(2022) Mr. Morale & The Big Steppers\15. Auntie Diaries.wav

Пиковый уровень 100.0 %
Скорость извлечения 4.9 X
Качество трека 100.0 %
CRC теста E07C5BFF
CRC копии E07C5BFF
Точное извлечение (достоверность 34) [893D7C0E] (AR v2)
Копирование... OK

Трек 16

Имя файла E:\Мои Рипы\Kendrick Lamar - Коллекция (2 релиза) (FLAC)\(2022) Mr. Morale & The Big Steppers\16. Mr. Morale (Feat. Tanna Leone).wav

Пиковый уровень 100.0 %
Скорость извлечения 4.2 X
Качество трека 99.9 %
CRC теста 3422BDB6
CRC копии 3422BDB6
Точное извлечение (достоверность 34) [23F0DA3B] (AR v2)
Копирование... OK

Трек 17

Имя файла E:\Мои Рипы\Kendrick Lamar - Коллекция (2 релиза) (FLAC)\(2022) Mr. Morale & The Big Steppers\17. Mother I Sober (Feat. Beth Gibbons).wav

Пиковый уровень 100.0 %
Скорость извлечения 5.4 X
Качество трека 100.0 %
CRC теста BB73EDB9
CRC копии BB73EDB9
Точное извлечение (достоверность 34) [C06BEAFB] (AR v2)
Копирование... OK

Трек 18

Имя файла E:\Мои Рипы\Kendrick Lamar - Коллекция (2 релиза) (FLAC)\(2022) Mr. Morale & The Big Steppers\18. Mirror.wav

Пиковый уровень 100.0 %
Скорость извлечения 5.3 X
Качество трека 100.0 %
CRC теста AB8C703C
CRC копии AB8C703C
Точное извлечение (достоверность 34) [328F2AD4] (AR v2)
Копирование... OK

Все треки извлечены точно

Ошибок не произошло

Конец отчёта

---- CUETools DB Plugin V2.1.6

[CTDB TOCID: LCg.iPYzTI_ulvG6iAIvCF6mwAo-] found
Submit result: LCg.iPYzTI_ulvG6iAIvCF6mwAo- has been confirmed
Track | CTDB Status
1 | (508/509) Accurately ripped
2 | (508/509) Accurately ripped
3 | (508/509) Accurately ripped
4 | (508/509) Accurately ripped
5 | (508/509) Accurately ripped
6 | (508/509) Accurately ripped
7 | (508/509) Accurately ripped
8 | (508/509) Accurately ripped
9 | (508/509) Accurately ripped
10 | (507/509) Accurately ripped
11 | (506/509) Accurately ripped
12 | (506/509) Accurately ripped
13 | (506/509) Accurately ripped
14 | (505/509) Accurately ripped
15 | (506/509) Accurately ripped
16 | (506/509) Accurately ripped
17 | (505/509) Accurately ripped
18 | (506/509) Accurately ripped

==== Контрольная сумма отчёта 7F62C8F6912C2C5D3BACE0F23AEDA4CC1D9AE287B07B7FE0214BA1A59F02AB05 ====
 
REM GENRE Rap
REM DATE 2022
REM DISCID FA112912
REM COMMENT "ExactAudioCopy v1.6"
PERFORMER "Kendrick Lamar"
TITLE "Mr. Morale & The Big Steppers"
REM COMPOSER ""
FILE "01. United In Grief.wav" WAVE
TRACK 01 AUDIO
TITLE "United In Grief"
PERFORMER "Kendrick Lamar"
REM COMPOSER "Kendrick Lamar, Tim Maxey, Duval Timothy, J.LBS, Beach Noise, Sounwave"
INDEX 01 00:00:00
FILE "02. N95.wav" WAVE
TRACK 02 AUDIO
TITLE "N95"
PERFORMER "Kendrick Lamar"
REM COMPOSER "Baby Keem, Jahaan Sweet, Boi-1da, Sounwave"
INDEX 01 00:00:00
FILE "03. Worldwide Steppers.wav" WAVE
TRACK 03 AUDIO
TITLE "Worldwide Steppers"
PERFORMER "Kendrick Lamar"
REM COMPOSER "TaeBeast, J.LBS, Sounwave"
INDEX 01 00:00:00
FILE "04. Die Hard (Feat. Blxst, Amanda Reifer).wav" WAVE
TRACK 04 AUDIO
TITLE "Die Hard (Feat. Blxst, Amanda Reifer)"
PERFORMER "Kendrick Lamar"
REM COMPOSER "FNZ, Baby Keem, J.LBS, Dahi, Sounwave"
INDEX 01 00:00:00
FILE "05. Father Time (Feat. Sampha).wav" WAVE
TRACK 05 AUDIO
TITLE "Father Time (Feat. Sampha)"
PERFORMER "Kendrick Lamar"
REM COMPOSER "Grandmaster Vic, Duval Timothy, Bekon, Dahi, Beach Noise, Sounwave"
INDEX 01 00:00:00
FILE "06. Rich (Interlude).wav" WAVE
TRACK 06 AUDIO
TITLE "Rich (Interlude)"
PERFORMER "Kendrick Lamar"
REM COMPOSER "Duval Timothy"
INDEX 01 00:00:00
FILE "07. Rich Spirit.wav" WAVE
TRACK 07 AUDIO
TITLE "Rich Spirit"
PERFORMER "Kendrick Lamar"
REM COMPOSER "Jahaan Sweet, Dahi, Frano, Sounwave"
INDEX 01 00:00:00
FILE "08. We Cry Together (Feat. Taylour Paige).wav" WAVE
TRACK 08 AUDIO
TITLE "We Cry Together (Feat. Taylour Paige)"
PERFORMER "Kendrick Lamar"
REM COMPOSER "Emile Haynie, Bekon, J.LBS, The Alchemist"
INDEX 01 00:00:00
FILE "09. Purple Hearts (Feat. Summer Walker, Ghostface Killah).wav" WAVE
TRACK 09 AUDIO
TITLE "Purple Hearts (Feat. Summer Walker, Ghostface Killah)"
PERFORMER "Kendrick Lamar"
REM COMPOSER "DJ Khalil, Beach Noise, J.LBS, Sounwave"
INDEX 01 00:00:00
FILE "10. Count Me Out.wav" WAVE
TRACK 10 AUDIO
TITLE "Count Me Out"
PERFORMER "Kendrick Lamar"
REM COMPOSER "Tim Maxey, J.LBS, Kendrick Lamar, Dahi, Sounwave"
INDEX 01 00:00:00
FILE "11. Crown.wav" WAVE
TRACK 11 AUDIO
TITLE "Crown"
PERFORMER "Kendrick Lamar"
REM COMPOSER "Duval Timothy"
INDEX 01 00:00:00
FILE "12. Silent Hill (Feat. Kodak Black).wav" WAVE
TRACK 12 AUDIO
TITLE "Silent Hill (Feat. Kodak Black)"
PERFORMER "Kendrick Lamar"
REM COMPOSER "Beach Noise, Jahaan Sweet, Boi-1da, Sounwave"
INDEX 01 00:00:00
FILE "13. Savior (Interlude).wav" WAVE
TRACK 13 AUDIO
TITLE "Savior (Interlude)"
PERFORMER "Kendrick Lamar"
REM COMPOSER "Sounwave, J.LBS, Kendrick Lamar"
INDEX 01 00:00:00
FILE "14. Savior (Feat. Baby Keem, Sam Dew).wav" WAVE
TRACK 14 AUDIO
TITLE "Savior (Feat. Baby Keem, Sam Dew)"
PERFORMER "Kendrick Lamar"
REM COMPOSER "Rascal, Mario Luciano, Cardo, J.LBS, Sounwave, Kendrick Lamar, Johnny Juliano"
INDEX 01 00:00:00
FILE "15. Auntie Diaries.wav" WAVE
TRACK 15 AUDIO
TITLE "Auntie Diaries"
PERFORMER "Kendrick Lamar"
REM COMPOSER "The Donuts, Tyler Reese, Sergiu Gherman, Bekon, Craig Balmoris, Beach Noise"
INDEX 01 00:00:00
FILE "16. Mr. Morale (Feat. Tanna Leone).wav" WAVE
TRACK 16 AUDIO
TITLE "Mr. Morale (Feat. Tanna Leone)"
PERFORMER "Kendrick Lamar"
REM COMPOSER "Pharrell Williams"
INDEX 01 00:00:00
FILE "17. Mother I Sober (Feat. Beth Gibbons).wav" WAVE
TRACK 17 AUDIO
TITLE "Mother I Sober (Feat. Beth Gibbons)"
PERFORMER "Kendrick Lamar"
REM COMPOSER "Bekon, Sounwave, J.LBS"
INDEX 01 00:00:00
FILE "18. Mirror.wav" WAVE
TRACK 18 AUDIO
TITLE "Mirror"
PERFORMER "Kendrick Lamar"
REM COMPOSER "Tim Maxey, Tyler Reese, Bekon, Dahi, Craig Balmoris, Sergiu Gherman, Sounwave"
INDEX 01 00:00:00
 
Cue Corrector v. 10.2.3 / b. 2109 (Feb. 07, 2024)
————————————————————————————————————————————————————————————————————————
Kendrick Lamar / Mr. Morale & The Big Steppers

Folder: (2022) Mr. Morale & The Big Steppers
Audio files:
01. United In Grief.flac [04:15.347; FLAC • 783 kbps • 16 bit \ 44100 Hz • stereo; 23.84 MB (25 002 965 B)]
02. N95.flac [03:15.933; FLAC • 847 kbps • 16 bit \ 44100 Hz • stereo; 19.80 MB (20 762 758 B)]
03. Worldwide Steppers.flac [03:23.347; FLAC • 741 kbps • 16 bit \ 44100 Hz • stereo; 17.97 MB (18 845 078 B)]
04. Die Hard (Feat. Blxst, Amanda Reifer).flac [03:59.013; FLAC • 859 kbps • 16 bit \ 44100 Hz • stereo; 24.48 MB (25 667 294 B)]
05. Father Time (Feat. Sampha).flac [03:42.467; FLAC • 889 kbps • 16 bit \ 44100 Hz • stereo; 23.58 MB (24 724 155 B)]
06. Rich (Interlude).flac [01:44.507; FLAC • 701 kbps • 16 bit \ 44100 Hz • stereo; 8.74 MB (9 165 935 B)]
07. Rich Spirit.flac [03:22.000; FLAC • 827 kbps • 16 bit \ 44100 Hz • stereo; 19.93 MB (20 894 096 B)]
08. We Cry Together (Feat. Taylour Paige).flac [05:41.307; FLAC • 839 kbps • 16 bit \ 44100 Hz • stereo; 34.17 MB (35 829 769 B)]
09. Purple Hearts (Feat. Summer Walker, Ghostface Killah).flac [05:29.280; FLAC • 848 kbps • 16 bit \ 44100 Hz • stereo; 33.32 MB (34 943 325 B)]
10. Count Me Out.flac [04:43.627; FLAC • 821 kbps • 16 bit \ 44100 Hz • stereo; 27.79 MB (29 136 488 B)]
11. Crown.flac [04:24.280; FLAC • 725 kbps • 16 bit \ 44100 Hz • stereo; 22.87 MB (23 981 979 B)]
12. Silent Hill (Feat. Kodak Black).flac [03:40.760; FLAC • 778 kbps • 16 bit \ 44100 Hz • stereo; 20.49 MB (21 480 184 B)]
13. Savior (Interlude).flac [02:32.960; FLAC • 749 kbps • 16 bit \ 44100 Hz • stereo; 13.67 MB (14 332 656 B)]
14. Savior (Feat. Baby Keem, Sam Dew).flac [03:44.440; FLAC • 838 kbps • 16 bit \ 44100 Hz • stereo; 22.44 MB (23 533 054 B)]
15. Auntie Diaries.flac [04:41.053; FLAC • 717 kbps • 16 bit \ 44100 Hz • stereo; 24.03 MB (25 198 020 B)]
16. Mr. Morale (Feat. Tanna Leone).flac [03:30.827; FLAC • 784 kbps • 16 bit \ 44100 Hz • stereo; 19.71 MB (20 663 574 B)]
17. Mother I Sober (Feat. Beth Gibbons).flac [06:46.507; FLAC • 667 kbps • 16 bit \ 44100 Hz • stereo; 32.33 MB (33 904 275 B)]
18. Mirror.flac [04:16.027; FLAC • 851 kbps • 16 bit \ 44100 Hz • stereo; 26.00 MB (27 260 380 B)]

Accuracy: -m0

File 01. United In Grief - 99% CDDA [04:15:26]
File 02. N95 - 100% CDDA [03:15:70]
File 03. Worldwide Steppers - 100% CDDA [03:23:26]
File 04. Die Hard (Feat. Blxst, Amanda Reifer) - 100% CDDA [03:59:01]
File 05. Father Time (Feat. Sampha) - 100% CDDA [03:42:35]
File 06. Rich (Interlude) - 100% CDDA [01:44:38]
File 07. Rich Spirit - 100% CDDA [03:22:00]
File 08. We Cry Together (Feat. Taylour Paige) - 100% CDDA [05:41:23]
File 09. Purple Hearts (Feat. Summer Walker, Ghostface Killah) - 100% CDDA [05:29:21]
File 10. Count Me Out - 100% CDDA [04:43:47]
File 11. Crown - 100% CDDA [04:24:21]
File 12. Silent Hill (Feat. Kodak Black) - 100% CDDA [03:40:57]
File 13. Savior (Interlude) - 100% CDDA [02:32:72]
File 14. Savior (Feat. Baby Keem, Sam Dew) - 100% CDDA [03:44:33]
File 15. Auntie Diaries - 100% CDDA [04:41:04]
File 16. Mr. Morale (Feat. Tanna Leone) - 100% CDDA [03:30:62]
File 17. Mother I Sober (Feat. Beth Gibbons) - 99% CDDA [06:46:38]
File 18. Mirror - 100% CDDA [04:16:02]
————— Summary: —————
These tracks looks like CDDA with probability 100%.
————————————————————————————————————————————————————————————————————————

ANALYZER:
auCDtect: CD records authenticity detector, version 0.8.2
Copyright (c) 2004 Oleg Berngardt. All rights reserved.
Copyright (c) 2004 Alexander Djourik. All rights reserved.

Time elapsed: 2 m 10 s
Log created at April 20, 2024 12:23:39

=== 583A8351F8D27D17B05E79A6C20CD85A9E9CD98A084A9D711B351B081FF47E41 ===
Mr. Morale & the Big Steppers - пятый студийный альбом американского рэпера Кендрика Ламара, выпущенный 13 мая 2022 года. Это первый его альбом после выпуска DAMN. в апреле 2017. Пластинка вышла на PGLang, недавно созданной компании Ламара, и лейбле Top Dawg Entertainment, став последним релизом рэпера на нём.
Кендрик Ламар Дакворт (англ. Kendrick Lamar Duckworth; род. 17 июня 1987, Комптон, Лос-Анджелес, Калифорния, США) - американский рэпер и автор песен. Известный своими прогрессивными музыкальными стилями и социально сознательным написанием песен, он часто считается одним из самых влиятельных хип-хоп исполнителей своего поколения. Родившийся и выросший в Комптоне, Калифорния, Кендрик начал свою карьеру подростком, выступая под сценическим псевдонимом K.Dot. Он быстро привлек внимание местных жителей, что привело к подписанию им контракта на запись с Top Dawg Entertainmentruen (TDE) в 2005 году. Став одним из основателей хип-хоп супергруппы Black Hippyruen, Кендрик отказался от своего сценического псевдонима и начал использовать своё имя профессионально. В 2011 году он выпустил свой дебютный студийный альбом Section.80, сознательную хип-хоп пластинку. Альбом был встречен положительными отзывами и включал его дебютный сингл HiiiPoWeRruen. В 2012 году Кендрик заключил контракт со звукозаписывающей компанией Dr. Dre Aftermath Entertainment под эгидой Interscope Records и выпустил свой второй студийный альбом Good Kid, M.A.A.D City. Альбом под влиянием Западного побережья и гангста-рэпа получил широкое признание критиков и коммерческий успех, в том числе синглы Swimming Pools (Drank)ruen, Backseat Freestyleruen и Bitch, Don't Kill My Viberuen.
Визит в Южную Африку вдохновил Кендрика на третий студийный альбом с джазовым влиянием To Pimp a Butterfly (2015). Он получил всеобщее признание и стал его первым альбомом номер один в Billboard 200. В том же году он впервые возглавил Billboard Hot 100 с ремиксом на песню Тейлор Свифт Bad Blood. Кендрик экспериментировал с R&B, поп-музыкой и психоделическим соулом в своем четвертом студийном альбоме DAMN. (2017). Это породило его первый сольный сингл номер один Humble и стало первой неклассической и не джазовой работой, удостоенной Пулитцеровской премии в области музыки. После четырехлетнего перерыва Кендрик выпустил свой пятый студийный альбом Mr. Morale & The Big Steppers (2022), который стал его лебединой песней с TDE. Он срежиссировал и спродюсировал несколько музыкальных клипов и фильмов со своим творческим партнером Дэйвом Фри, вместе с которым он основал творческий коллектив PGLangruen. Только в Соединенных Штатах было продано более 70 миллионов пластинок, все студийные альбомы Кендрика были сертифицированы Американской ассоциацией звукозаписывающей индустрии (RIAA) как платиновые или выше. За свою карьеру он получил множество наград, в том числе 17 премий Грэмми, премию Эмми Прайм-Тайм, две премии American Music Awards, шесть музыкальных премий Billboard, 11 премий MTV Video Music Awards, премию Brit Award и номинацию на премию Оскар. В 2012 году он был назван MTV "Самым горячим MC в игре". В 2015 году Кендрик получил награду Сената штата Калифорния "Икона поколения". Он фигурировал в таких журналах, как Time 100 и Forbes 30 до 30. Три его студийных альбома были включены в рейтинг Rolling Stone 500 величайших альбомов всех времен за 2020 год.
info [Профиль]  [ЛС] 
Показать сообщения:    
Ответить на тему

Текущее время: 15-Июн 14:24

Часовой пояс: GMT + 4



Вы не можете начинать темы
Вы не можете отвечать на сообщения
Вы не можете редактировать свои сообщения
Вы не можете удалять свои сообщения
Вы не можете голосовать в опросах
Вы не можете прикреплять файлы к сообщениям
Вы не можете скачивать файлы