Ошибка

(Rap, Hip-Hop) [CD] Tyler, The Creator - Коллекция (2 релиза) - 2017-2021, FLAC (tracks+.cue), lossless

Ответить на тему
 
Автор Сообщение

F.A.N.T.O.M

Пол: Пол:Муж

Стаж: 5 месяцев 24 дня

Сообщений: 421

Россия
Рейтинг

post 09-Июн-2024 15:33 0[+]

[Цитировать] 

Tyler, The Creator - Коллекция
Жанр: Rap, Hip-Hop | Носитель: CD | Страна-производитель диска: EU | Страна: Hawthorne, California, U.S. | Аудиокодек : FLAC (*.flac) | Тип рипа : tracks+.cue | Битрейт аудио: lossless | Программа-риповщик: EAC (диск)
Общая продолжительность: 01:39:58 | Источник (релизер): Собственные диски
Издатель (лейбл): Columbia
Номер по каталогу: 88985441132
Продолжительность: 00:46:40


Треклист:
01. Foreword (Feat. Rex Orange County) (03:14)
02. Where This Flower Blooms (Feat. Frank Ocean) (03:15)
03. Sometimes... (00:36)
04. See You Again (Feat. Kali Uchis) (03:00)
05. Who Dat Boy (Feat. A$AP Rocky) (03:25)
06. Pothole (Feat. Jaden) (03:57)
07. Garden Shed (Feat. Estelle) (03:44)
08. Boredom (Feat. Anna Of The North, Rex Orange County) (05:21)
09. I Ain't Got Time! (03:26)
10. 911 / Mr. Lonely (Feat. Steve Lacy, Frank Ocean) (04:16)
11. Droppin' Seeds (Feat. Lil Wayne) (01:00)
12. November (03:45)
13. Glitter (03:45)
14. Enjoy Right Now, Today (03:55)
 
Exact Audio Copy V1.6 from 23. October 2020

Отчёт EAC об извлечении, выполненном 2. июня 2024, 12:28

Tyler, The Creator / Scum Fuck Flower Boy

Дисковод: Optiarc DVD RW AD-5200S Adapter: 1 ID: 0

Режим чтения : Достоверность
Использование точного потока : Да
Отключение кэша аудио : Да
Использование указателей C2 : Нет

Коррекция смещения при чтении : 48
Способность читать области Lead-in и Lead-out : Нет
Заполнение пропущенных сэмплов тишиной : Да
Удаление блоков с тишиной в начале и конце : Нет
При вычислениях CRC использовались нулевые сэмплы : Да
Интерфейс : Встроенный Win32-интерфейс для Win NT/2000
Обработка зазоров : Добавлено к предыдущему треку

Выходной формат : Пользовательский кодировщик
Выбранный битрейт : 768 kBit/s
Качество : Высокий
Добавление ID3-тега : Нет
Утилита сжатия : C:\Program Files (x86)\foobar2000\encoders\flac.exe
Дополнительные параметры : -V -8 -T "ARTIST=%artist%" -T "TITLE=%title%" -T "ALBUM=%albumtitle%" -T "DATE=%year%" -T "TRACKNUMBER=%tracknr%" -T "GENRE=%genre%" -T "BAND=%albuminterpret%" -T "ALBUMARTIST=%albuminterpret%" -T "COMPOSER=%composer%" %haslyrics%--tag-from-file=LYRICS="%lyricsfile%"%haslyrics% -T "DISCNUMBER=%cdnumber%" -T "TOTALDISCS=%totalcds%" -T "TOTALTRACKS=%numtracks%" %hascover%--picture="%coverfile%"%hascover% %source% -o %dest%

TOC извлечённого CD

Трек | Старт | Длительность | Начальный сектор | Конечный сектор
---------------------------------------------------------------------
1 | 0:00.00 | 3:14.06 | 0 | 14555
2 | 3:14.06 | 3:14.70 | 14556 | 29175
3 | 6:29.01 | 0:36.12 | 29176 | 31887
4 | 7:05.13 | 3:00.29 | 31888 | 45416
5 | 10:05.42 | 3:25.07 | 45417 | 60798
6 | 13:30.49 | 3:57.00 | 60799 | 78573
7 | 17:27.49 | 3:43.71 | 78574 | 95369
8 | 21:11.45 | 5:20.54 | 95370 | 119423
9 | 26:32.24 | 3:26.20 | 119424 | 134893
10 | 29:58.44 | 4:15.49 | 134894 | 154067
11 | 34:14.18 | 1:00.00 | 154068 | 158567
12 | 35:14.18 | 3:45.26 | 158568 | 175468
13 | 38:59.44 | 3:44.67 | 175469 | 192335
14 | 42:44.36 | 3:55.30 | 192336 | 209990

Трек 1

Имя файла E:\Мои Рипы\Tyler, The Creator - Коллккция (2 релиза) (FLAC)\(2017) Scum Fuck Flower Boy\01. Foreword (Feat. Rex Orange County).wav

Длина предзазора 0:00:02.00

Пиковый уровень 98.9 %
Скорость извлечения 2.2 X
Качество трека 100.0 %
CRC теста D114734B
CRC копии D114734B
Точное извлечение (достоверность 2) [EE152E2F] (AR v2)
Копирование... OK

Трек 2

Имя файла E:\Мои Рипы\Tyler, The Creator - Коллккция (2 релиза) (FLAC)\(2017) Scum Fuck Flower Boy\02. Where This Flower Blooms (Feat. Frank Ocean).wav

Пиковый уровень 98.9 %
Скорость извлечения 2.4 X
Качество трека 100.0 %
CRC теста C9D0D5ED
CRC копии C9D0D5ED
Точное извлечение (достоверность 2) [A81E8754] (AR v2)
Копирование... OK

Трек 3

Имя файла E:\Мои Рипы\Tyler, The Creator - Коллккция (2 релиза) (FLAC)\(2017) Scum Fuck Flower Boy\03. Sometimes....wav

Пиковый уровень 88.4 %
Скорость извлечения 0.9 X
Качество трека 99.7 %
CRC теста 0E3A9175
CRC копии 0E3A9175
Точное извлечение (достоверность 2) [5B26E242] (AR v2)
Копирование... OK

Трек 4

Имя файла E:\Мои Рипы\Tyler, The Creator - Коллккция (2 релиза) (FLAC)\(2017) Scum Fuck Flower Boy\04. See You Again (Feat. Kali Uchis).wav

Пиковый уровень 98.9 %
Скорость извлечения 2.6 X
Качество трека 100.0 %
CRC теста 97B82F37
CRC копии 97B82F37
Точное извлечение (достоверность 2) [FED4D9CD] (AR v2)
Копирование... OK

Трек 5

Имя файла E:\Мои Рипы\Tyler, The Creator - Коллккция (2 релиза) (FLAC)\(2017) Scum Fuck Flower Boy\05. Who Dat Boy (Feat. A$AP Rocky).wav

Пиковый уровень 100.0 %
Скорость извлечения 2.8 X
Качество трека 100.0 %
CRC теста 438B4FEF
CRC копии 438B4FEF
Точное извлечение (достоверность 2) [CA1ABF31] (AR v2)
Копирование... OK

Трек 6

Имя файла E:\Мои Рипы\Tyler, The Creator - Коллккция (2 релиза) (FLAC)\(2017) Scum Fuck Flower Boy\06. Pothole (Feat. Jaden).wav

Пиковый уровень 100.0 %
Скорость извлечения 3.1 X
Качество трека 100.0 %
CRC теста 55F6E10D
CRC копии 55F6E10D
Точное извлечение (достоверность 2) [CC94317B] (AR v2)
Копирование... OK

Трек 7

Имя файла E:\Мои Рипы\Tyler, The Creator - Коллккция (2 релиза) (FLAC)\(2017) Scum Fuck Flower Boy\07. Garden Shed (Feat. Estelle).wav

Пиковый уровень 98.9 %
Скорость извлечения 0.6 X
Качество трека 100.0 %
CRC теста BE15EC34
CRC копии BE15EC34
Точное извлечение (достоверность 2) [57FE4068] (AR v2)
Копирование... OK

Трек 8

Имя файла E:\Мои Рипы\Tyler, The Creator - Коллккция (2 релиза) (FLAC)\(2017) Scum Fuck Flower Boy\08. Boredom (Anna Of The North, Rex Orange County).wav

Пиковый уровень 100.0 %
Скорость извлечения 3.3 X
Качество трека 99.9 %
CRC теста 2785C798
CRC копии 2785C798
Точное извлечение (достоверность 2) [9B6974A2] (AR v2)
Копирование... OK

Трек 9

Имя файла E:\Мои Рипы\Tyler, The Creator - Коллккция (2 релиза) (FLAC)\(2017) Scum Fuck Flower Boy\09. I Ain't Got Time!.wav

Пиковый уровень 98.9 %
Скорость извлечения 3.6 X
Качество трека 100.0 %
CRC теста 69BD5305
CRC копии 69BD5305
Точное извлечение (достоверность 2) [321F4D3B] (AR v2)
Копирование... OK

Трек 10

Имя файла E:\Мои Рипы\Tyler, The Creator - Коллккция (2 релиза) (FLAC)\(2017) Scum Fuck Flower Boy\10. 911 , Mr. Lonely (Feat. Steve Lacy, Frank Ocean).wav

Пиковый уровень 100.0 %
Скорость извлечения 3.5 X
Качество трека 99.9 %
CRC теста BA78E30C
CRC копии BA78E30C
Точное извлечение (достоверность 2) [1ED2ECC8] (AR v2)
Копирование... OK

Трек 11

Имя файла E:\Мои Рипы\Tyler, The Creator - Коллккция (2 релиза) (FLAC)\(2017) Scum Fuck Flower Boy\11. Droppin' Seeds (Feat. Lil Wayne).wav

Пиковый уровень 98.9 %
Скорость извлечения 2.8 X
Качество трека 100.0 %
CRC теста EC5CF555
CRC копии EC5CF555
Точное извлечение (достоверность 2) [FF8EB5F9] (AR v2)
Копирование... OK

Трек 12

Имя файла E:\Мои Рипы\Tyler, The Creator - Коллккция (2 релиза) (FLAC)\(2017) Scum Fuck Flower Boy\12. November.wav

Пиковый уровень 93.6 %
Скорость извлечения 4.1 X
Качество трека 100.0 %
CRC теста 977FE642
CRC копии 977FE642
Точное извлечение (достоверность 2) [DB3C3B04] (AR v2)
Копирование... OK

Трек 13

Имя файла E:\Мои Рипы\Tyler, The Creator - Коллккция (2 релиза) (FLAC)\(2017) Scum Fuck Flower Boy\13. Glitter.wav

Пиковый уровень 98.9 %
Скорость извлечения 4.2 X
Качество трека 100.0 %
CRC теста 843BA59E
CRC копии 843BA59E
Точное извлечение (достоверность 2) [3EC79586] (AR v2)
Копирование... OK

Трек 14

Имя файла E:\Мои Рипы\Tyler, The Creator - Коллккция (2 релиза) (FLAC)\(2017) Scum Fuck Flower Boy\14. Enjoy Right Now, Today.wav

Пиковый уровень 98.1 %
Скорость извлечения 3.9 X
Качество трека 99.9 %
CRC теста 898CEFBE
CRC копии 898CEFBE
Точное извлечение (достоверность 2) [EBC74191] (AR v2)
Копирование... OK

Все треки извлечены точно

Ошибок не произошло

Конец отчёта

---- CUETools DB Plugin V2.1.6

[CTDB TOCID: SLX3SWgjMXvZV4uX6QtHZ0Sb6V0-] found
Submit result: SLX3SWgjMXvZV4uX6QtHZ0Sb6V0- has been confirmed
Track | CTDB Status
1 | (546/551) Accurately ripped
2 | (549/551) Accurately ripped
3 | (550/551) Accurately ripped
4 | (550/551) Accurately ripped
5 | (550/551) Accurately ripped
6 | (550/551) Accurately ripped
7 | (549/551) Accurately ripped
8 | (550/551) Accurately ripped
9 | (550/551) Accurately ripped
10 | (550/551) Accurately ripped
11 | (550/551) Accurately ripped
12 | (548/551) Accurately ripped
13 | (549/551) Accurately ripped
14 | (547/551) Accurately ripped

==== Контрольная сумма отчёта DA7E3113B51ADBE938CCF131D621AC750773F003E6FED796064A3AC7F2DCB734 ====
 
REM GENRE Rap
REM DATE 2017
REM DISCID AF0AEF0E
REM COMMENT "ExactAudioCopy v1.6"
PERFORMER "Tyler, The Creator"
TITLE "Scum Fuck Flower Boy"
REM COMPOSER "Tyler, The Creator"
FILE "01. Foreword (Feat. Rex Orange County).wav" WAVE
TRACK 01 AUDIO
TITLE "Foreword (Feat. Rex Orange County)"
PERFORMER "Tyler, The Creator"
REM COMPOSER "Tyler, The Creator"
INDEX 01 00:00:00
FILE "02. Where This Flower Blooms (Feat. Frank Ocean).wav" WAVE
TRACK 02 AUDIO
TITLE "Where This Flower Blooms (Feat. Frank Ocean)"
PERFORMER "Tyler, The Creator"
REM COMPOSER "Tyler, The Creator"
INDEX 01 00:00:00
FILE "03. Sometimes....wav" WAVE
TRACK 03 AUDIO
TITLE "Sometimes..."
PERFORMER "Tyler, The Creator"
REM COMPOSER "Tyler, The Creator"
INDEX 01 00:00:00
FILE "04. See You Again (Feat. Kali Uchis).wav" WAVE
TRACK 04 AUDIO
TITLE "See You Again (Feat. Kali Uchis)"
PERFORMER "Tyler, The Creator"
REM COMPOSER "Tyler, The Creator"
INDEX 01 00:00:00
FILE "05. Who Dat Boy (Feat. A$AP Rocky).wav" WAVE
TRACK 05 AUDIO
TITLE "Who Dat Boy (Feat. A$AP Rocky)"
PERFORMER "Tyler, The Creator"
REM COMPOSER "Tyler, The Creator"
INDEX 01 00:00:00
FILE "06. Pothole (Feat. Jaden).wav" WAVE
TRACK 06 AUDIO
TITLE "Pothole (Feat. Jaden)"
PERFORMER "Tyler, The Creator"
REM COMPOSER "Tyler, The Creator"
INDEX 01 00:00:00
FILE "07. Garden Shed (Feat. Estelle).wav" WAVE
TRACK 07 AUDIO
TITLE "Garden Shed (Feat. Estelle)"
PERFORMER "Tyler, The Creator"
REM COMPOSER "Tyler, The Creator"
INDEX 01 00:00:00
FILE "08. Boredom (Anna Of The North, Rex Orange County).wav" WAVE
TRACK 08 AUDIO
TITLE "Boredom (Anna Of The North, Rex Orange County)"
PERFORMER "Tyler, The Creator"
REM COMPOSER "Tyler, The Creator"
INDEX 01 00:00:00
FILE "09. I Ain't Got Time!.wav" WAVE
TRACK 09 AUDIO
TITLE "I Ain't Got Time!"
PERFORMER "Tyler, The Creator"
REM COMPOSER "Tyler, The Creator"
INDEX 01 00:00:00
FILE "10. 911 , Mr. Lonely (Feat. Steve Lacy, Frank Ocean).wav" WAVE
TRACK 10 AUDIO
TITLE "911 / Mr. Lonely (Feat. Steve Lacy, Frank Ocean)"
PERFORMER "Tyler, The Creator"
REM COMPOSER "Tyler, The Creator"
INDEX 01 00:00:00
FILE "11. Droppin' Seeds (Feat. Lil Wayne).wav" WAVE
TRACK 11 AUDIO
TITLE "Droppin' Seeds (Feat. Lil Wayne)"
PERFORMER "Tyler, The Creator"
REM COMPOSER "Tyler, The Creator"
INDEX 01 00:00:00
FILE "12. November.wav" WAVE
TRACK 12 AUDIO
TITLE "November"
PERFORMER "Tyler, The Creator"
REM COMPOSER "Tyler, The Creator"
INDEX 01 00:00:00
FILE "13. Glitter.wav" WAVE
TRACK 13 AUDIO
TITLE "Glitter"
PERFORMER "Tyler, The Creator"
REM COMPOSER "Tyler, The Creator"
INDEX 01 00:00:00
FILE "14. Enjoy Right Now, Today.wav" WAVE
TRACK 14 AUDIO
TITLE "Enjoy Right Now, Today"
PERFORMER "Tyler, The Creator"
REM COMPOSER "Tyler, The Creator"
INDEX 01 00:00:00
 
Cue Corrector v. 10.2.3 / b. 2127 (Apr. 10, 2024)
————————————————————————————————————————————————————————————————————————
Tyler, The Creator / Scum Fuck Flower Boy

Folder: (2017) Scum Fuck Flower Boy
Audio files:
01. Foreword (Feat. Rex Orange County).flac [03:14.080; FLAC • 927 kbps • 16 bit \ 44100 Hz • stereo; 21.47 MB (22 508 034 B)]
02. Where This Flower Blooms (Feat. Frank Ocean).flac [03:14.933; FLAC • 768 kbps • 16 bit \ 44100 Hz • stereo; 17.85 MB (18 717 773 B)]
03. Sometimes....flac [00:36.160; FLAC • 780 kbps • 16 bit \ 44100 Hz • stereo; 3.36 MB (3 527 370 B)]
04. See You Again (Feat. Kali Uchis).flac [03:00.387; FLAC • 925 kbps • 16 bit \ 44100 Hz • stereo; 19.90 MB (20 863 046 B)]
05. Who Dat Boy (Feat. A$AP Rocky).flac [03:25.093; FLAC • 845 kbps • 16 bit \ 44100 Hz • stereo; 20.68 MB (21 683 346 B)]
06. Pothole (Feat. Jaden).flac [03:57.000; FLAC • 879 kbps • 16 bit \ 44100 Hz • stereo; 24.84 MB (26 049 793 B)]
07. Garden Shed (Feat. Estelle).flac [03:43.947; FLAC • 803 kbps • 16 bit \ 44100 Hz • stereo; 21.45 MB (22 494 471 B)]
08. Boredom (Anna Of The North, Rex Orange County).flac [05:20.720; FLAC • 843 kbps • 16 bit \ 44100 Hz • stereo; 32.26 MB (33 824 138 B)]
09. I Ain't Got Time!.flac [03:26.267; FLAC • 964 kbps • 16 bit \ 44100 Hz • stereo; 23.71 MB (24 866 411 B)]
10. 911 , Mr. Lonely (Feat. Steve Lacy, Frank Ocean).flac [04:15.653; FLAC • 896 kbps • 16 bit \ 44100 Hz • stereo; 27.32 MB (28 644 254 B)]
11. Droppin' Seeds (Feat. Lil Wayne).flac [01:00.000; FLAC • 885 kbps • 16 bit \ 44100 Hz • stereo; 6.33 MB (6 640 655 B)]
12. November.flac [03:45.347; FLAC • 911 kbps • 16 bit \ 44100 Hz • stereo; 24.49 MB (25 680 518 B)]
13. Glitter.flac [03:44.893; FLAC • 841 kbps • 16 bit \ 44100 Hz • stereo; 22.55 MB (23 642 266 B)]
14. Enjoy Right Now, Today.flac [03:55.400; FLAC • 822 kbps • 16 bit \ 44100 Hz • stereo; 23.08 MB (24 204 210 B)]

Accuracy: -m0

File 01. Foreword (Feat. Rex Orange County) - 100% CDDA [03:14:06]
File 02. Where This Flower Blooms (Feat. Frank Ocean) - 99% CDDA [03:14:70]
File 03. Sometimes... - 99% CDDA [00:36:12]
File 04. See You Again (Feat. Kali Uchis) - 100% CDDA [03:00:29]
File 05. Who Dat Boy (Feat. A$AP Rocky) - 100% CDDA [03:25:07]
File 06. Pothole (Feat. Jaden) - 100% CDDA [03:57:00]
File 07. Garden Shed (Feat. Estelle) - 100% CDDA [03:43:71]
File 08. Boredom (Anna Of The North, Rex Orange County) - 99% CDDA [05:20:54]
File 09. I Ain't Got Time! - 100% CDDA [03:26:20]
File 10. 911 , Mr. Lonely (Feat. Steve Lacy, Frank Ocean) - 100% CDDA [04:15:49]
File 11. Droppin' Seeds (Feat. Lil Wayne) - 100% CDDA [01:00:00]
File 12. November - 100% CDDA [03:45:26]
File 13. Glitter - 100% CDDA [03:44:67]
File 14. Enjoy Right Now, Today - 100% CDDA [03:55:30]
————— Summary: —————
These tracks looks like CDDA with probability 100%.
————————————————————————————————————————————————————————————————————————

ANALYZER:
auCDtect: CD records authenticity detector, version 0.8.2
Copyright (c) 2004 Oleg Berngardt. All rights reserved.
Copyright (c) 2004 Alexander Djourik. All rights reserved.

Time elapsed: 1 m 24 s
Log created at June 02, 2024 16:25:34

=== 4FAE62879DBA866061B5C748BCC9C11893D5F8A8A9CB58A190C43B50FEFD9B1D ===
Flower Boy (альтернативное название — Scum Fuck Flower Boy) - четвёртый студийный альбом американского рэп-исполнителя Tyler, the Creator. Альбом был выпущен 21 июля 2017 года на лейбле Columbia Records. Будучи полностью спродюсированным Тайлером, альбом включает в себя гостевые участия Фрэнка Оушена, ASAP Rocky, Anna of the North, Лила Уэйна, Кали Учис, Стива Лейси, Эстеля, Смита Джейдена и Rex Orange Country. Flower Boy был поддержан выпуском четырёх синглов: «Who Dat Boy» / «911», «Boredom», «I Ain’t Got Time!» и «See You Again». Альбом получил положительные оценки критиков за его мягкое и плавное звучание, уникальную смесь жанров и продакшн. Альбом был назван среди лучших альбомов 2017 года и десятилетия, также был номинирован на премию «Лучший рэп альбом» в ходе церемонии награждения Грэмми 2018.
Издатель (лейбл): Columbia, Sony Music
Номер по каталогу: 19439916632
Продолжительность: 00:53:18


Треклист:
01. Sir Baudelaire (Feat. DJ Drama) (01:29)
02. Corso (02:26)
03. Lemonhead (Feat. 42 Dugg) (02:11)
04. Wusyaname (Feat. YoungBoy Never Broke Again, Ty Dolla $ign) (02:02)
05. Lumberjack (02:18)
06. Hot Wind Blows (Feat. Lil Wayne) (02:35)
07. Massa (03:44)
08. Runitup (Feat. Teezo Touchdown) (03:50)
09. Manifesto (Feat. Domo Genesis) (02:55)
10. Sweet / I Thought You Wanted To Dance (Feat. Brent Faiyaz, Fana Hues) (09:47)
11. Momma Talk (01:11)
12. Rise! (Feat. DAISY WORLD) (03:24)
13. Blessed (00:58)
14. Juggernaut (Feat. Pharrell Williams, Lil Uzi Vert) (02:26)
15. Wilshire (08:36)
15. Fishtail (03:26)
 
Exact Audio Copy V1.6 from 23. October 2020

Отчёт EAC об извлечении, выполненном 2. июня 2024, 12:28

Tyler, The Creator / Scum Fuck Flower Boy

Дисковод: Optiarc DVD RW AD-5200S Adapter: 1 ID: 0

Режим чтения : Достоверность
Использование точного потока : Да
Отключение кэша аудио : Да
Использование указателей C2 : Нет

Коррекция смещения при чтении : 48
Способность читать области Lead-in и Lead-out : Нет
Заполнение пропущенных сэмплов тишиной : Да
Удаление блоков с тишиной в начале и конце : Нет
При вычислениях CRC использовались нулевые сэмплы : Да
Интерфейс : Встроенный Win32-интерфейс для Win NT/2000
Обработка зазоров : Добавлено к предыдущему треку

Выходной формат : Пользовательский кодировщик
Выбранный битрейт : 768 kBit/s
Качество : Высокий
Добавление ID3-тега : Нет
Утилита сжатия : C:\Program Files (x86)\foobar2000\encoders\flac.exe
Дополнительные параметры : -V -8 -T "ARTIST=%artist%" -T "TITLE=%title%" -T "ALBUM=%albumtitle%" -T "DATE=%year%" -T "TRACKNUMBER=%tracknr%" -T "GENRE=%genre%" -T "BAND=%albuminterpret%" -T "ALBUMARTIST=%albuminterpret%" -T "COMPOSER=%composer%" %haslyrics%--tag-from-file=LYRICS="%lyricsfile%"%haslyrics% -T "DISCNUMBER=%cdnumber%" -T "TOTALDISCS=%totalcds%" -T "TOTALTRACKS=%numtracks%" %hascover%--picture="%coverfile%"%hascover% %source% -o %dest%

TOC извлечённого CD

Трек | Старт | Длительность | Начальный сектор | Конечный сектор
---------------------------------------------------------------------
1 | 0:00.00 | 3:14.06 | 0 | 14555
2 | 3:14.06 | 3:14.70 | 14556 | 29175
3 | 6:29.01 | 0:36.12 | 29176 | 31887
4 | 7:05.13 | 3:00.29 | 31888 | 45416
5 | 10:05.42 | 3:25.07 | 45417 | 60798
6 | 13:30.49 | 3:57.00 | 60799 | 78573
7 | 17:27.49 | 3:43.71 | 78574 | 95369
8 | 21:11.45 | 5:20.54 | 95370 | 119423
9 | 26:32.24 | 3:26.20 | 119424 | 134893
10 | 29:58.44 | 4:15.49 | 134894 | 154067
11 | 34:14.18 | 1:00.00 | 154068 | 158567
12 | 35:14.18 | 3:45.26 | 158568 | 175468
13 | 38:59.44 | 3:44.67 | 175469 | 192335
14 | 42:44.36 | 3:55.30 | 192336 | 209990

Трек 1

Имя файла E:\Мои Рипы\Tyler, The Creator - Коллккция (2 релиза) (FLAC)\(2017) Scum Fuck Flower Boy\01. Foreword (Feat. Rex Orange County).wav

Длина предзазора 0:00:02.00

Пиковый уровень 98.9 %
Скорость извлечения 2.2 X
Качество трека 100.0 %
CRC теста D114734B
CRC копии D114734B
Точное извлечение (достоверность 2) [EE152E2F] (AR v2)
Копирование... OK

Трек 2

Имя файла E:\Мои Рипы\Tyler, The Creator - Коллккция (2 релиза) (FLAC)\(2017) Scum Fuck Flower Boy\02. Where This Flower Blooms (Feat. Frank Ocean).wav

Пиковый уровень 98.9 %
Скорость извлечения 2.4 X
Качество трека 100.0 %
CRC теста C9D0D5ED
CRC копии C9D0D5ED
Точное извлечение (достоверность 2) [A81E8754] (AR v2)
Копирование... OK

Трек 3

Имя файла E:\Мои Рипы\Tyler, The Creator - Коллккция (2 релиза) (FLAC)\(2017) Scum Fuck Flower Boy\03. Sometimes....wav

Пиковый уровень 88.4 %
Скорость извлечения 0.9 X
Качество трека 99.7 %
CRC теста 0E3A9175
CRC копии 0E3A9175
Точное извлечение (достоверность 2) [5B26E242] (AR v2)
Копирование... OK

Трек 4

Имя файла E:\Мои Рипы\Tyler, The Creator - Коллккция (2 релиза) (FLAC)\(2017) Scum Fuck Flower Boy\04. See You Again (Feat. Kali Uchis).wav

Пиковый уровень 98.9 %
Скорость извлечения 2.6 X
Качество трека 100.0 %
CRC теста 97B82F37
CRC копии 97B82F37
Точное извлечение (достоверность 2) [FED4D9CD] (AR v2)
Копирование... OK

Трек 5

Имя файла E:\Мои Рипы\Tyler, The Creator - Коллккция (2 релиза) (FLAC)\(2017) Scum Fuck Flower Boy\05. Who Dat Boy (Feat. A$AP Rocky).wav

Пиковый уровень 100.0 %
Скорость извлечения 2.8 X
Качество трека 100.0 %
CRC теста 438B4FEF
CRC копии 438B4FEF
Точное извлечение (достоверность 2) [CA1ABF31] (AR v2)
Копирование... OK

Трек 6

Имя файла E:\Мои Рипы\Tyler, The Creator - Коллккция (2 релиза) (FLAC)\(2017) Scum Fuck Flower Boy\06. Pothole (Feat. Jaden).wav

Пиковый уровень 100.0 %
Скорость извлечения 3.1 X
Качество трека 100.0 %
CRC теста 55F6E10D
CRC копии 55F6E10D
Точное извлечение (достоверность 2) [CC94317B] (AR v2)
Копирование... OK

Трек 7

Имя файла E:\Мои Рипы\Tyler, The Creator - Коллккция (2 релиза) (FLAC)\(2017) Scum Fuck Flower Boy\07. Garden Shed (Feat. Estelle).wav

Пиковый уровень 98.9 %
Скорость извлечения 0.6 X
Качество трека 100.0 %
CRC теста BE15EC34
CRC копии BE15EC34
Точное извлечение (достоверность 2) [57FE4068] (AR v2)
Копирование... OK

Трек 8

Имя файла E:\Мои Рипы\Tyler, The Creator - Коллккция (2 релиза) (FLAC)\(2017) Scum Fuck Flower Boy\08. Boredom (Anna Of The North, Rex Orange County).wav

Пиковый уровень 100.0 %
Скорость извлечения 3.3 X
Качество трека 99.9 %
CRC теста 2785C798
CRC копии 2785C798
Точное извлечение (достоверность 2) [9B6974A2] (AR v2)
Копирование... OK

Трек 9

Имя файла E:\Мои Рипы\Tyler, The Creator - Коллккция (2 релиза) (FLAC)\(2017) Scum Fuck Flower Boy\09. I Ain't Got Time!.wav

Пиковый уровень 98.9 %
Скорость извлечения 3.6 X
Качество трека 100.0 %
CRC теста 69BD5305
CRC копии 69BD5305
Точное извлечение (достоверность 2) [321F4D3B] (AR v2)
Копирование... OK

Трек 10

Имя файла E:\Мои Рипы\Tyler, The Creator - Коллккция (2 релиза) (FLAC)\(2017) Scum Fuck Flower Boy\10. 911 , Mr. Lonely (Feat. Steve Lacy, Frank Ocean).wav

Пиковый уровень 100.0 %
Скорость извлечения 3.5 X
Качество трека 99.9 %
CRC теста BA78E30C
CRC копии BA78E30C
Точное извлечение (достоверность 2) [1ED2ECC8] (AR v2)
Копирование... OK

Трек 11

Имя файла E:\Мои Рипы\Tyler, The Creator - Коллккция (2 релиза) (FLAC)\(2017) Scum Fuck Flower Boy\11. Droppin' Seeds (Feat. Lil Wayne).wav

Пиковый уровень 98.9 %
Скорость извлечения 2.8 X
Качество трека 100.0 %
CRC теста EC5CF555
CRC копии EC5CF555
Точное извлечение (достоверность 2) [FF8EB5F9] (AR v2)
Копирование... OK

Трек 12

Имя файла E:\Мои Рипы\Tyler, The Creator - Коллккция (2 релиза) (FLAC)\(2017) Scum Fuck Flower Boy\12. November.wav

Пиковый уровень 93.6 %
Скорость извлечения 4.1 X
Качество трека 100.0 %
CRC теста 977FE642
CRC копии 977FE642
Точное извлечение (достоверность 2) [DB3C3B04] (AR v2)
Копирование... OK

Трек 13

Имя файла E:\Мои Рипы\Tyler, The Creator - Коллккция (2 релиза) (FLAC)\(2017) Scum Fuck Flower Boy\13. Glitter.wav

Пиковый уровень 98.9 %
Скорость извлечения 4.2 X
Качество трека 100.0 %
CRC теста 843BA59E
CRC копии 843BA59E
Точное извлечение (достоверность 2) [3EC79586] (AR v2)
Копирование... OK

Трек 14

Имя файла E:\Мои Рипы\Tyler, The Creator - Коллккция (2 релиза) (FLAC)\(2017) Scum Fuck Flower Boy\14. Enjoy Right Now, Today.wav

Пиковый уровень 98.1 %
Скорость извлечения 3.9 X
Качество трека 99.9 %
CRC теста 898CEFBE
CRC копии 898CEFBE
Точное извлечение (достоверность 2) [EBC74191] (AR v2)
Копирование... OK

Все треки извлечены точно

Ошибок не произошло

Конец отчёта

---- CUETools DB Plugin V2.1.6

[CTDB TOCID: SLX3SWgjMXvZV4uX6QtHZ0Sb6V0-] found
Submit result: SLX3SWgjMXvZV4uX6QtHZ0Sb6V0- has been confirmed
Track | CTDB Status
1 | (546/551) Accurately ripped
2 | (549/551) Accurately ripped
3 | (550/551) Accurately ripped
4 | (550/551) Accurately ripped
5 | (550/551) Accurately ripped
6 | (550/551) Accurately ripped
7 | (549/551) Accurately ripped
8 | (550/551) Accurately ripped
9 | (550/551) Accurately ripped
10 | (550/551) Accurately ripped
11 | (550/551) Accurately ripped
12 | (548/551) Accurately ripped
13 | (549/551) Accurately ripped
14 | (547/551) Accurately ripped

==== Контрольная сумма отчёта DA7E3113B51ADBE938CCF131D621AC750773F003E6FED796064A3AC7F2DCB734 ====
 
REM GENRE Rap
REM DATE 2021
REM DISCID E20C7D10
REM COMMENT "ExactAudioCopy v1.6"
PERFORMER "Tyler, The Creator"
TITLE "Call Me If You Get Lost"
REM COMPOSER ""
FILE "01. Sir Baudelaire (Feat. DJ Drama).wav" WAVE
TRACK 01 AUDIO
TITLE "Sir Baudelaire (Feat. DJ Drama)"
PERFORMER "Tyler, The Creator"
REM COMPOSER "Tyler, The Creator, Conductor Williams"
INDEX 01 00:00:00
FILE "02. Corso.wav" WAVE
TRACK 02 AUDIO
TITLE "Corso"
PERFORMER "Tyler, The Creator"
REM COMPOSER "Tyler, The Creator"
INDEX 01 00:00:00
FILE "03. Lemonhead (Feat. 42 Dugg).wav" WAVE
TRACK 03 AUDIO
TITLE "Lemonhead (Feat. 42 Dugg)"
PERFORMER "Tyler, The Creator"
REM COMPOSER "Tyler, The Creator"
INDEX 01 00:00:00
FILE "04. Wusyaname (Feat. YoungBoy Never Broke Again, Ty Dolla $ign).wav" WAVE
TRACK 04 AUDIO
TITLE "Wusyaname (Feat. YoungBoy Never Broke Again, Ty Dolla $ign)"
PERFORMER "Tyler, The Creator"
REM COMPOSER "Tyler, The Creator"
INDEX 01 00:00:00
FILE "05. Lumberjack.wav" WAVE
TRACK 05 AUDIO
TITLE "Lumberjack"
PERFORMER "Tyler, The Creator"
REM COMPOSER "Tyler, The Creator"
INDEX 01 00:00:00
FILE "06. Hot Wind Blows (Feat. Lil Wayne).wav" WAVE
TRACK 06 AUDIO
TITLE "Hot Wind Blows (Feat. Lil Wayne)"
PERFORMER "Tyler, The Creator"
REM COMPOSER "Tyler, The Creator"
INDEX 01 00:00:00
FILE "07. Massa.wav" WAVE
TRACK 07 AUDIO
TITLE "Massa"
PERFORMER "Tyler, The Creator"
REM COMPOSER "Pharrell Williams, Tyler, The Creator"
INDEX 01 00:00:00
FILE "08. Runitup (Feat. Teezo Touchdown).wav" WAVE
TRACK 08 AUDIO
TITLE "Runitup (Feat. Teezo Touchdown)"
PERFORMER "Tyler, The Creator"
REM COMPOSER "Tyler, The Creator"
INDEX 01 00:00:00
FILE "09. Manifesto (Feat. Domo Genesis).wav" WAVE
TRACK 09 AUDIO
TITLE "Manifesto (Feat. Domo Genesis)"
PERFORMER "Tyler, The Creator"
REM COMPOSER "Tyler, The Creator"
INDEX 01 00:00:00
FILE "10. Sweet , I Thought You Wanted To Dance (Feat. Brent Faiyaz, Fana Hues).wav" WAVE
TRACK 10 AUDIO
TITLE "Sweet / I Thought You Wanted To Dance (Feat. Brent Faiyaz, Fana Hues)"
PERFORMER "Tyler, The Creator"
REM COMPOSER "Tyler, The Creator"
INDEX 01 00:00:00
FILE "11. Momma Talk.wav" WAVE
TRACK 11 AUDIO
TITLE "Momma Talk"
PERFORMER "Tyler, The Creator"
REM COMPOSER "Tyler, The Creator"
INDEX 01 00:00:00
FILE "12. Rise! (Feat. DAISY WORLD).wav" WAVE
TRACK 12 AUDIO
TITLE "Rise! (Feat. DAISY WORLD)"
PERFORMER "Tyler, The Creator"
REM COMPOSER "Jamie xx, Tyler, The Creator"
INDEX 01 00:00:00
FILE "13. Blessed.wav" WAVE
TRACK 13 AUDIO
TITLE "Blessed"
PERFORMER "Tyler, The Creator"
REM COMPOSER "Tyler, The Creator"
INDEX 01 00:00:00
FILE "14. Juggernaut (Feat. Pharrell Williams, Lil Uzi Vert).wav" WAVE
TRACK 14 AUDIO
TITLE "Juggernaut (Feat. Pharrell Williams, Lil Uzi Vert)"
PERFORMER "Tyler, The Creator"
REM COMPOSER "Pharrell Williams, Tyler, The Creator"
INDEX 01 00:00:00
FILE "15. Wilshire.wav" WAVE
TRACK 15 AUDIO
TITLE "Wilshire"
PERFORMER "Tyler, The Creator"
REM COMPOSER "Tyler, The Creator"
INDEX 01 00:00:00
FILE "16. Fishtail.wav" WAVE
TRACK 16 AUDIO
TITLE "Fishtail"
PERFORMER "Tyler, The Creator"
REM COMPOSER "Tyler, The Creator, Jay Versace"
INDEX 01 00:00:00
 
Cue Corrector v. 10.2.3 / b. 2127 (Apr. 10, 2024)
————————————————————————————————————————————————————————————————————————
Tyler, The Creator / Scum Fuck Flower Boy

Folder: (2017) Scum Fuck Flower Boy
Audio files:
01. Foreword (Feat. Rex Orange County).flac [03:14.080; FLAC • 927 kbps • 16 bit \ 44100 Hz • stereo; 21.47 MB (22 508 034 B)]
02. Where This Flower Blooms (Feat. Frank Ocean).flac [03:14.933; FLAC • 768 kbps • 16 bit \ 44100 Hz • stereo; 17.85 MB (18 717 773 B)]
03. Sometimes....flac [00:36.160; FLAC • 780 kbps • 16 bit \ 44100 Hz • stereo; 3.36 MB (3 527 370 B)]
04. See You Again (Feat. Kali Uchis).flac [03:00.387; FLAC • 925 kbps • 16 bit \ 44100 Hz • stereo; 19.90 MB (20 863 046 B)]
05. Who Dat Boy (Feat. A$AP Rocky).flac [03:25.093; FLAC • 845 kbps • 16 bit \ 44100 Hz • stereo; 20.68 MB (21 683 346 B)]
06. Pothole (Feat. Jaden).flac [03:57.000; FLAC • 879 kbps • 16 bit \ 44100 Hz • stereo; 24.84 MB (26 049 793 B)]
07. Garden Shed (Feat. Estelle).flac [03:43.947; FLAC • 803 kbps • 16 bit \ 44100 Hz • stereo; 21.45 MB (22 494 471 B)]
08. Boredom (Anna Of The North, Rex Orange County).flac [05:20.720; FLAC • 843 kbps • 16 bit \ 44100 Hz • stereo; 32.26 MB (33 824 138 B)]
09. I Ain't Got Time!.flac [03:26.267; FLAC • 964 kbps • 16 bit \ 44100 Hz • stereo; 23.71 MB (24 866 411 B)]
10. 911 , Mr. Lonely (Feat. Steve Lacy, Frank Ocean).flac [04:15.653; FLAC • 896 kbps • 16 bit \ 44100 Hz • stereo; 27.32 MB (28 644 254 B)]
11. Droppin' Seeds (Feat. Lil Wayne).flac [01:00.000; FLAC • 885 kbps • 16 bit \ 44100 Hz • stereo; 6.33 MB (6 640 655 B)]
12. November.flac [03:45.347; FLAC • 911 kbps • 16 bit \ 44100 Hz • stereo; 24.49 MB (25 680 518 B)]
13. Glitter.flac [03:44.893; FLAC • 841 kbps • 16 bit \ 44100 Hz • stereo; 22.55 MB (23 642 266 B)]
14. Enjoy Right Now, Today.flac [03:55.400; FLAC • 822 kbps • 16 bit \ 44100 Hz • stereo; 23.08 MB (24 204 210 B)]

Accuracy: -m0

File 01. Foreword (Feat. Rex Orange County) - 100% CDDA [03:14:06]
File 02. Where This Flower Blooms (Feat. Frank Ocean) - 99% CDDA [03:14:70]
File 03. Sometimes... - 99% CDDA [00:36:12]
File 04. See You Again (Feat. Kali Uchis) - 100% CDDA [03:00:29]
File 05. Who Dat Boy (Feat. A$AP Rocky) - 100% CDDA [03:25:07]
File 06. Pothole (Feat. Jaden) - 100% CDDA [03:57:00]
File 07. Garden Shed (Feat. Estelle) - 100% CDDA [03:43:71]
File 08. Boredom (Anna Of The North, Rex Orange County) - 99% CDDA [05:20:54]
File 09. I Ain't Got Time! - 100% CDDA [03:26:20]
File 10. 911 , Mr. Lonely (Feat. Steve Lacy, Frank Ocean) - 100% CDDA [04:15:49]
File 11. Droppin' Seeds (Feat. Lil Wayne) - 100% CDDA [01:00:00]
File 12. November - 100% CDDA [03:45:26]
File 13. Glitter - 100% CDDA [03:44:67]
File 14. Enjoy Right Now, Today - 100% CDDA [03:55:30]
————— Summary: —————
These tracks looks like CDDA with probability 100%.
————————————————————————————————————————————————————————————————————————

ANALYZER:
auCDtect: CD records authenticity detector, version 0.8.2
Copyright (c) 2004 Oleg Berngardt. All rights reserved.
Copyright (c) 2004 Alexander Djourik. All rights reserved.

Time elapsed: 1 m 24 s
Log created at June 02, 2024 16:25:34

=== 4FAE62879DBA866061B5C748BCC9C11893D5F8A8A9CB58A190C43B50FEFD9B1D ===
Call Me If You Get Lost - шестой студийный альбом американского рэпера, певца, автора песен и продюсера Tyler, the Creator. Он был выпущен 25 июня 2021 года на лейбле Columbia Records. Альбом содержит гостевые участия от 42 Dugg, Ty Dolla Sign, YoungBoy Never Broke Again, Лила Уэйна, Teezo Touchdown, Domo Genesis, Brent Faiyaz, Fana Hues, Daisy World, Lil Uzi Vert и Фаррелла Уильямса. Альбом знаменует собой отход от более лёгкой и соуловой эстетики Igor (2019) и Flower Boy (2017) в пользу более жёстких инструменталов и «сырых» рифм, вдохновлённых серией микстейпов DJ Drama Gangsta Grillz, а также старыми работами самого Тайлера. Жанр пластинки варьируется от хип-хопа до регги. На обложке показано удостоверение личности персонажа альбома по имени «Тайлер Бодлер», чьё имя было вдохновлено французским поэтом Шарлем Бодлером. Call Me If You Get Lost был поддержан двумя синглами: «Lumberjack» и «WusYaName». Работа получила широкое признание от критиков. Пластинка вошла в десятку лучших альбомов 2021 года по версии нескольких изданий. Call Me If You Get Lost дебютировал под номером один в американском чарте Billboard 200, став второй пластинкой рэпера, занявшей первое место в США. Альбом был признан лучшим рэп-альбомом на церемонии премии «Грэмми» 2022 года. 31 марта 2023 года вышло делюкс-издание под названием The Estate Sale, поддержанное синглами «Dogtooth» и «Sorry Not Sorry».

Та́йлер Гре́гори Око́нма (англ. Tyler Gregory Okonma; род. 6 марта 1991), более известный как Tyler, The Creator - американский рэпер и продюсер. Он является одним из основателей музыкального коллектива Odd Future. Ранние релизы рэпера имели суровое и мрачное звучание, вдохновлённое хорроркором, однако позже музыкант стал выпускать более лёгкую музыку, находящуюся под влиянием джаза и соула. Тайлер выпустил свой дебютный микстейп Bastard в 2009 году и быстро привлёк внимание музыкальной прессы благодаря своему тяжёлому звучанию, вдохновлённому хорроркором, а также жестокому, трансгрессивному лирическому содержанию. Его дебютный студийный альбом Goblin (2011) принёс рэперу известность в мейнстриме, чему способствовала популярность сингла «Yonkers» и сопровождающего трек музыкального видео. В этот период творчества коллектив Тайлера Odd Future быстро завоевал популярность, а сам музыкант столкнулся с критикой по поводу его грубых текстов. Начиная со своего второго альбома Wolf (2013), рэпер отходит от хорроркора в сторону более альтернативного звучания. Так, его третья пластинка Cherry Bomb (2015) содержит больше мелодичных и джазовых звуков, что сохраняется на протяжении всей последующей дискографии музыканта. Более поздние альбомы Тайлера, включая Flower Boy (2017), Igor (2019) и Call Me If You Get Lost (2021), получили хорошие оценки от критиков, тогда как последние два дебютировали на первом месте в чарте Billboard 200 и каждый из был признан лучшим рэп-альбомом на 62-ой и 64-ой церемониях «Грэмми», соответственно. Как художник-визуалист, Тайлер является создателем обложек для релизов Odd Future, дизайна их одежду и других товаров. В 2011 году рэпер основал бренд уличной одежды Golf Wang, а затем, в 2012 году, ежегодный музыкальный фестиваль Camp Flog Gnaw Carnival.
info [Профиль]  [ЛС] 

mindl0ss

Пол: Пол:Муж

Стаж: 10 лет

Сообщений: 78

Россия
Рейтинг

post 09-Июн-2024 21:58 (спустя 6 часов) [-]-4[+]

[Цитировать] 

на обезъяну похож
info [Профиль]  [ЛС] 
Показать сообщения:    
Ответить на тему

Текущее время: 15-Июн 14:28

Часовой пояс: GMT + 4



Вы не можете начинать темы
Вы не можете отвечать на сообщения
Вы не можете редактировать свои сообщения
Вы не можете удалять свои сообщения
Вы не можете голосовать в опросах
Вы не можете прикреплять файлы к сообщениям
Вы не можете скачивать файлы