Ошибка

До окончания фрилича осталось:


(Hip Hop) Billy Bear feat. Darrel Bell - Careless Whisper (CD-Maxi) - 1998 (1993), FLAC (image+.cue), lossless

Ответить на тему
 
Автор Сообщение

DarK_Knight96

Пол: Пол:Муж

Стаж: 4 месяца 27 дней

Сообщений: 363

Россия
Рейтинг

post 15-Май-2024 19:01 0[+]

[Цитировать] 



Billy Bear feat. Darrel Bell - Careless Whisper




Жанр: Hip Hop / Pop Rap

Год издания: 1998 (1993)

Формат/Кодек:: FLAC (*.flac)

Производитель диска:: USA

Количество треков: 4

Битрейт аудио: 1024kbps

Продолжительность: 0:16:39

1. Careless Whisper (4:07)
2. Despair & Delight (4:10)
3. Catch A Vibe (5:02)
4. Catch A Vibe (Instrumental) (3:29)
Exact Audio Copy V0.99 prebeta 5 from 4. May 2009

Отчёт EAC об извлечении, выполненном 16. февраля 2012, 22:29

Billy Bear feat. Darrel Bell / Careless Whisper (CDM)

Дисковод: LITE-ON DVDRW SHM-165P6S Adapter: 0 ID: 0

Режим чтения : Достоверность
Использование точного потока : Да
Отключение кэша аудио : Да
Использование указателей C2 : Нет

Коррекция смещения при чтении : 6
Способность читать области Lead-in и Lead-out : Нет
Заполнение пропущенных сэмплов тишиной : Да
Удаление блоков с тишиной в начале и конце : Нет
При вычислениях CRC использовались нулевые сэмплы : Да
Интерфейс : Встроенный Win32-интерфейс для Win NT/2000

Выходной формат : Внутренние WAV-операции
Формат сэмплов : 44.100 Гц; 16 бит; стерео

TOC извлечённого CD

Трек | Старт | Длительность | Начальный сектор | Конечный сектор
---------------------------------------------------------------------
1 | 0:00.00 | 4:00.37 | 0 | 18036
2 | 4:00.37 | 4:13.50 | 18037 | 37061
3 | 8:14.12 | 5:03.43 | 37062 | 59829
4 | 13:17.55 | 3:21.42 | 59830 | 74946

Характеристики диапазона извлечения и сообщения об ошибках

Выбранный диапазон

Имя файла E:\2222222222\NEW\Billy Bear feat. Darrel Bell - Careless Whisper (CDM) (1998) (lossless-DENnv)\Billy Bear feat. Darrel Bell - Careless Whisper (CDM).wav

Пиковый уровень 86.3 %
Качество диапазона 100.0 %
CRC теста F372A929
CRC копии F372A929
Копирование... OK

Ошибок не произошло

AccurateRip: сводка

Трек 1 точное извлечение (доверие 1) [2A932305]
Трек 2 нет в базе данных
Трек 3 точное извлечение (доверие 1) [CB6CFE5D]
Трек 4 нет в базе данных

2 трек(и) скопированы точно
2 трек(и) не содержатся в базе AccurateRip

Некоторые треки не прошли проверку на точность

Конец отчёта
info [Профиль]  [ЛС] 
Показать сообщения:    
Ответить на тему

Текущее время: 18-Май 11:41

Часовой пояс: GMT + 4



Вы не можете начинать темы
Вы не можете отвечать на сообщения
Вы не можете редактировать свои сообщения
Вы не можете удалять свои сообщения
Вы не можете голосовать в опросах
Вы не можете прикреплять файлы к сообщениям
Вы не можете скачивать файлы