Ошибка

(Synthwave / Retrowave / Electronic) Let's Talk - Well How Do You Know? - 2018, FLAC (tracks), lossless

Ответить на тему
 
Автор Сообщение

Slava2312

Пол: Пол:Муж

Стаж: 7 лет 8 месяцев

Сообщений: 21

СССР
Рейтинг

post 27-Дек-2018 19:59 0[+]

[Цитировать] 

Let's Talk - Well How Do You Know?


pic="https://i106.fastpic.ru/big/2018/1227/b0/3d6b0e3f30a63d80d7cf194ce95ea1b0.jpg"



Жанр: Synthwave / Retrowave / Electronic
Год издания данного носителя: 2018
Страна-производитель носителя: US
Лейбл: Future City Records
Каталоговый номер: FCR195
Аудио кодек: FLAC
Тип рипа: tracks
Битрейт аудио: lossless
Продолжительность: 00:25:52
Источник (релизер): Куплен на bandcamp
Треклист:
[7:17] 01. Let's Talk - I'm Just a Fool
[3:37] 02. Let's Talk - It's Alright
[5:54] 03. Let's Talk - Here I Go
[3:23] 04. Let's Talk - Forgiven
[5:40] 05. Let's Talk - Slow Down, You Move Too Fast
AUDIOCHECKER v2.0 beta (build 457) - by Dester - opdester@freemail.hu 
~~~~~~~~~~~~~~~~~~~~~~~~~~~~~~~~~~
-=== НЕ РЕДАКТИРУЙТЕ ЭТОТ ФАЙЛ! ===-

Путь: ...Let's Talk - Well How Do You Know [2018] Flac

1 -=- 01 I'm Just a Fool.flac -=- ERROR
2 -=- 02 It's Alright.flac -=- ERROR
3 -=- 03 Here I Go.flac -=- ERROR
4 -=- 04 Forgiven.flac -=- ERROR
5 -=- 05 Slow Down, You Move Too Fast.flac -=- ERROR
foobar2000 1.4.1 / Замер динамического диапазона (DR) 1.1.1 
Дата отчёта: 2018-12-27 08:01:27

--------------------------------------------------------------------------------
Анализ: Let's Talk / Well How Do You Know?
--------------------------------------------------------------------------------

DR Пики RMS Продолжительность трека
--------------------------------------------------------------------------------
DR8 -3.62 дБ -12.34 дБ 7:17 01-I'm Just a Fool
DR8 -1.00 дБ -10.78 дБ 3:37 02-It's Alright
DR6 -1.00 дБ -9.69 дБ 5:54 03-Here I Go
DR6 -1.00 дБ -9.81 дБ 3:23 04-Forgiven
DR6 -1.01 дБ -9.02 дБ 5:40 05-Slow Down, You Move Too Fast
--------------------------------------------------------------------------------

Количество треков: 5
Реальные значения DR: DR7

Частота: 44100 Гц
Каналов: 2
Разрядность: 24
Битрейт: 1710 кбит/с
Кодек: FLAC
================================================================================
info [Профиль]  [ЛС] 

Slava2312

Пол: Пол:Муж

Стаж: 7 лет 8 месяцев

Сообщений: 21

СССР
Рейтинг

post 05-Янв-2019 18:27 (спустя 8 дней) [-]0[+]

[Цитировать] 

Цитата:

Возможно неточный рип
Возможно. =)
Релиз куплен лично на bandcamp-е.
PS: Поскольку аудиочекер выдает ошибку, выложил спектрограммы.

_________________
Простите ребята, но Аплоад у меня маленький. =(
info [Профиль]  [ЛС] 
Показать сообщения:    
Ответить на тему

Текущее время: 22-Май 08:34

Часовой пояс: GMT + 4



Вы не можете начинать темы
Вы не можете отвечать на сообщения
Вы не можете редактировать свои сообщения
Вы не можете удалять свои сообщения
Вы не можете голосовать в опросах
Вы не можете прикреплять файлы к сообщениям
Вы не можете скачивать файлы