Ошибка

(Math-rock, Post-rock, Progressive rock) Cheval De Frise - Cheval De Frise - 2000, FLAC (tracks+.cue), lossless

Ответить на тему
 
Автор Сообщение

chernichnoe

Пол: Пол:Жен

Стаж: 3 года 3 месяца

Сообщений: 34

Россия
Рейтинг

post 31-Янв-2018 12:29 0[+]

[Цитировать] 

Cheval De Frise - Cheval De Frise


pic="https://images-na.ssl-images-amazon.com/images/I/61%2BtyAC%2BHNL._SX466_.jpg"


Жанр: Math-rock, Post-rock, Progressive rock
Год издания данного носителя: 2000
Страна-производитель носителя: France
Лейбл: Sonore
Каталоговый номер: SON-10
Аудио кодек: FLAC
Тип рипа: tracks+.cue
Битрейт аудио: lossless
Продолжительность: 00:39:01

Треклист:
1. Connexion Monstrueuse Entre Un Objet Et Son Image (06:25)
2. Noblesse De L'Échec (1) (01:44)
3. Constructions D'Écorces D'Arbres (03:06)
4. Langue Hastée (01:57)
5. Lundi Deux Mars (02:53)
6. Un Pont Et Des Eaux Noires Limoneuses (02:33)
7. Incliné Et Chenu (04:16)
8. Le Feu, Le Lin Et La Bougie (02:19)
9. Les Canaux Sont Ouverts, Les Moustiques Meurent, Le Monstre Disparait (03:59)
10. Mille Courbettes (01:42)
11. Douche Froide, Harmonium (01:03)
12. Le Vestibule Des Lâches (03:34)
13. Noblesse De L'Échec (2) (03:30)
 
Exact Audio Copy V0.99 prebeta 5 from 4. May 2009

EAC extraction logfile from 2. November 2010, 12:00

Cheval de Frise / Cheval de Frise

Used drive : Optiarc DVD RW AD-5170A Adapter: 1 ID: 0

Read mode : Secure
Utilize accurate stream : Yes
Defeat audio cache : Yes
Make use of C2 pointers : No

Read offset correction : 48
Overread into Lead-In and Lead-Out : No
Fill up missing offset samples with silence : Yes
Delete leading and trailing silent blocks : No
Null samples used in CRC calculations : Yes
Used interface : Native Win32 interface for Win NT & 2000
Gap handling : Appended to previous track

Used output format : User Defined Encoder
Selected bitrate : 768 kBit/s
Quality : High
Add ID3 tag : No
Command line compressor : D:programsExact Audio CopyFLACFLAC.EXE
Additional command line options : -6 -V -T "ARTIST=%a" -T "TITLE=%t" -T "ALBUM=%g" -T "DATE=%y" -T "TRACKNUMBER=%n" -T "GENRE=%m" -T "COMMENT=" %s -o %d

TOC of the extracted CD

Track | Start | Length | Start sector | End sector
---------------------------------------------------------
1 | 0:00.00 | 6:26.25 | 0 | 28974
2 | 6:26.25 | 1:44.64 | 28975 | 36838
3 | 8:11.14 | 3:07.01 | 36839 | 50864
4 | 11:18.15 | 1:57.74 | 50865 | 59713
5 | 13:16.14 | 2:53.47 | 59714 | 72735
6 | 16:09.61 | 2:33.60 | 72736 | 84270
7 | 18:43.46 | 4:16.37 | 84271 | 103507
8 | 23:00.08 | 2:19.40 | 103508 | 113972
9 | 25:19.48 | 3:59.32 | 113973 | 131929
10 | 29:19.05 | 1:42.23 | 131930 | 139602
11 | 31:01.28 | 1:03.46 | 139603 | 144373
12 | 32:04.74 | 3:34.42 | 144374 | 160465
13 | 35:39.41 | 3:30.32 | 160466 | 176247

Track 1

Filename F:musiclimboinboxCheval de Frise - 2000 - Cheval de Frise1. Connexion monstrueuse entre un objet et son image.wav

Pre-gap length 0:00:02.00

Peak level 93.3 %
Track quality 100.0 %
Test CRC 94884D5A
Copy CRC 94884D5A
Track not present in AccurateRip database
Copy OK

Track 2

Filename F:musiclimboinboxCheval de Frise - 2000 - Cheval de Frise2. Noblesse de l'йchec (1).wav

Peak level 93.3 %
Track quality 100.0 %
Test CRC 858FFE17
Copy CRC 858FFE17
Track not present in AccurateRip database
Copy OK

Track 3

Filename F:musiclimboinboxCheval de Frise - 2000 - Cheval de Frise3. Constructions d'йcorces d'arbres.wav

Peak level 93.3 %
Track quality 100.0 %
Test CRC 6F43ABE6
Copy CRC 6F43ABE6
Track not present in AccurateRip database
Copy OK

Track 4

Filename F:musiclimboinboxCheval de Frise - 2000 - Cheval de Frise4. Langue hastйe.wav

Peak level 93.3 %
Track quality 100.0 %
Test CRC E215CBCF
Copy CRC E215CBCF
Track not present in AccurateRip database
Copy OK

Track 5

Filename F:musiclimboinboxCheval de Frise - 2000 - Cheval de Frise5. Lundi deux mars.wav

Peak level 93.3 %
Track quality 100.0 %
Test CRC E12B4FFD
Copy CRC E12B4FFD
Track not present in AccurateRip database
Copy OK

Track 6

Filename F:musiclimboinboxCheval de Frise - 2000 - Cheval de Frise6. Un pont et des eaux noires limoneuses.wav

Peak level 93.3 %
Track quality 100.0 %
Test CRC A9660BA9
Copy CRC A9660BA9
Track not present in AccurateRip database
Copy OK

Track 7

Filename F:musiclimboinboxCheval de Frise - 2000 - Cheval de Frise7. Inclinй et chenu.wav

Peak level 93.3 %
Track quality 100.0 %
Test CRC B10A3395
Copy CRC B10A3395
Track not present in AccurateRip database
Copy OK

Track 8

Filename F:musiclimboinboxCheval de Frise - 2000 - Cheval de Frise8. Le Feu, le Lin et la Bougie.wav

Peak level 93.2 %
Track quality 100.0 %
Test CRC 06A7EE0D
Copy CRC 06A7EE0D
Track not present in AccurateRip database
Copy OK

Track 9

Filename F:musiclimboinboxCheval de Frise - 2000 - Cheval de Frise9. Les canaux sont ouverts, les moustiques meurent, le monstre disparait.wav

Peak level 93.3 %
Track quality 99.9 %
Test CRC 2128BF52
Copy CRC 2128BF52
Track not present in AccurateRip database
Copy OK

Track 10

Filename F:musiclimboinboxCheval de Frise - 2000 - Cheval de Frise10. Mille Courbettes.wav

Peak level 93.2 %
Track quality 100.0 %
Test CRC 436584C2
Copy CRC 436584C2
Track not present in AccurateRip database
Copy OK

Track 11

Filename F:musiclimboinboxCheval de Frise - 2000 - Cheval de Frise11. Douche froide, Harmonium.wav

Peak level 77.2 %
Track quality 100.0 %
Test CRC 4A41E2C1
Copy CRC 4A41E2C1
Track not present in AccurateRip database
Copy OK

Track 12

Filename F:musiclimboinboxCheval de Frise - 2000 - Cheval de Frise12. Le Vestibule des lвches.wav

Peak level 93.3 %
Track quality 100.0 %
Test CRC 81CDDFC7
Copy CRC 81CDDFC7
Track not present in AccurateRip database
Copy OK

Track 13

Filename F:musiclimboinboxCheval de Frise - 2000 - Cheval de Frise13. Noblesse de l'йchec (2).wav

Peak level 93.3 %
Track quality 100.0 %
Test CRC 052E1F7C
Copy CRC 052E1F7C
Track not present in AccurateRip database
Copy OK

None of the tracks are present in the AccurateRip database

No errors occurred

End of status report
 
REM GENRE Avantgarde
REM DATE 2000
REM DISCID B7092D0D
REM COMMENT "ExactAudioCopy v0.99pb5"
FILE "Cheval de Frise - 2000 - Cheval de Frise1. Connexion monstrueuse entre un objet et son image.wav" WAVE
TRACK 01 AUDIO
INDEX 01 00:00:00
FILE "Cheval de Frise - 2000 - Cheval de Frise2. Noblesse de l'йchec (1).wav" WAVE
TRACK 02 AUDIO
INDEX 01 00:00:00
FILE "Cheval de Frise - 2000 - Cheval de Frise3. Constructions d'йcorces d'arbres.wav" WAVE
TRACK 03 AUDIO
INDEX 01 00:00:00
FILE "Cheval de Frise - 2000 - Cheval de Frise4. Langue hastйe.wav" WAVE
TRACK 04 AUDIO
INDEX 01 00:00:00
FILE "Cheval de Frise - 2000 - Cheval de Frise5. Lundi deux mars.wav" WAVE
TRACK 05 AUDIO
INDEX 01 00:00:00
FILE "Cheval de Frise - 2000 - Cheval de Frise6. Un pont et des eaux noires limoneuses.wav" WAVE
TRACK 06 AUDIO
INDEX 01 00:00:00
FILE "Cheval de Frise - 2000 - Cheval de Frise7. Inclinй et chenu.wav" WAVE
TRACK 07 AUDIO
INDEX 01 00:00:00
FILE "Cheval de Frise - 2000 - Cheval de Frise8. Le Feu, le Lin et la Bougie.wav" WAVE
TRACK 08 AUDIO
INDEX 01 00:00:00
FILE "Cheval de Frise - 2000 - Cheval de Frise9. Les canaux sont ouverts, les moustiques meurent, le monstre disparait.wav" WAVE
TRACK 09 AUDIO
INDEX 01 00:00:00
FILE "Cheval de Frise - 2000 - Cheval de Frise10. Mille Courbettes.wav" WAVE
TRACK 10 AUDIO
INDEX 01 00:00:00
FILE "Cheval de Frise - 2000 - Cheval de Frise11. Douche froide, Harmonium.wav" WAVE
TRACK 11 AUDIO
INDEX 01 00:00:00
FILE "Cheval de Frise - 2000 - Cheval de Frise12. Le Vestibule des lвches.wav" WAVE
TRACK 12 AUDIO
INDEX 01 00:00:00
FILE "Cheval de Frise - 2000 - Cheval de Frise13. Noblesse de l'йchec (2).wav" WAVE
TRACK 13 AUDIO
INDEX 01 00:00:00
info [Профиль]  [ЛС] 
Показать сообщения:    
Ответить на тему

Текущее время: 08-Июл 05:55

Часовой пояс: GMT + 4



Вы не можете начинать темы
Вы не можете отвечать на сообщения
Вы не можете редактировать свои сообщения
Вы не можете удалять свои сообщения
Вы не можете голосовать в опросах
Вы не можете прикреплять файлы к сообщениям
Вы не можете скачивать файлы