Ошибка

(Rock, Hard Rock) Scorpions - Lovedrive - 1989, FLAC (tracks+.cue), lossless

Ответить на тему
 
Автор Сообщение

Молескин

Пол: Пол:Муж

Стаж: 2 года 6 месяцев

Сообщений: 123

Россия
Рейтинг

post 26-Янв-2018 22:12 0[+]

[Цитировать] 

Scorpions - Lovedrive
pic="http://i103.fastpic.ru/big/2018/0126/af/1a6410703598e461b8c3b9b347e917af.jpg"

Жанр: Rock, Hard Rock
Год издания данного носителя: 1989
Страна-производитель носителя: Japan
Лейбл: Mercury
Каталоговый номер: PPD-3064
Аудио кодек: FLAC
Тип рипа: tracks+.cue
Битрейт аудио: lossless
Продолжительность: 00:36:42
Источник: CD
Полиграфия: Присутствует


Треклист:
01. Loving You Sunday Morning
02. Another Piece of Meat
03. Always Somewhere
04. Coast to Coast
05. Can't Get Enough
06. Is There Anybody There
07. Lovedrive
08. Holiday


Exact Audio Copy V1.0 beta 3 from 29. August 2011 

EAC extraction logfile from 24. December 2015, 21:52

Scorpions / Lovedrive

Used drive : TSSTcorpCDDVDW SH-224DB Adapter: 0 ID: 1

Read mode : Secure
Utilize accurate stream : Yes
Defeat audio cache : Yes
Make use of C2 pointers : No

Read offset correction : 6
Overread into Lead-In and Lead-Out : No
Fill up missing offset samples with silence : Yes
Delete leading and trailing silent blocks : No
Null samples used in CRC calculations : Yes
Used interface : Installed external ASPI interface
Gap handling : Appended to previous track

Used output format : User Defined Encoder
Selected bitrate : 1024 kBit/s
Quality : High
Add ID3 tag : No
Command line compressor : D:\Program Files\Foobar2000\encoders\flac.exe
Additional command line options : -V -8 -T "Date=%year%" -T "Genre=%genre%" %source%

TOC of the extracted CD

Track | Start | Length | Start sector | End sector
---------------------------------------------------------
1 | 0:00.37 | 5:38.05 | 37 | 25391
2 | 5:38.42 | 3:31.45 | 25392 | 41261
3 | 9:10.12 | 4:56.50 | 41262 | 63511
4 | 14:06.62 | 4:44.00 | 63512 | 84811
5 | 18:50.62 | 2:38.05 | 84812 | 96666
6 | 21:28.67 | 3:58.48 | 96667 | 114564
7 | 25:27.40 | 4:52.25 | 114565 | 136489
8 | 30:19.65 | 6:22.05 | 136490 | 165144

Track 1

Filename D:\Desktop\Scorpions - Lovedrive (1989)\01. Loving You Sunday Morning.wav

Pre-gap length 0:00:02.37

Peak level 91.3 %
Extraction speed 2.2 X
Track quality 100.0 %
Test CRC 6AAB6715
Copy CRC 6AAB6715
Accurately ripped (confidence 6) [77F5BA61] (AR v2)
Copy OK

Track 2

Filename D:\Desktop\Scorpions - Lovedrive (1989)\02. Another Piece of Meat.wav

Pre-gap length 0:00:00.25

Peak level 97.7 %
Extraction speed 2.1 X
Track quality 100.0 %
Test CRC F917C449
Copy CRC F917C449
Accurately ripped (confidence 7) [66A9E1E0] (AR v2)
Copy OK

Track 3

Filename D:\Desktop\Scorpions - Lovedrive (1989)\03. Always Somewhere.wav

Pre-gap length 0:00:00.01

Peak level 98.0 %
Extraction speed 2.2 X
Track quality 100.0 %
Test CRC 8D554416
Copy CRC 8D554416
Accurately ripped (confidence 7) [75D11A82] (AR v2)
Copy OK

Track 4

Filename D:\Desktop\Scorpions - Lovedrive (1989)\04. Coast to Coast.wav

Pre-gap length 0:00:00.24

Peak level 93.3 %
Extraction speed 2.1 X
Track quality 100.0 %
Test CRC 5652BB4D
Copy CRC 5652BB4D
Accurately ripped (confidence 7) [0490CF95] (AR v2)
Copy OK

Track 5

Filename D:\Desktop\Scorpions - Lovedrive (1989)\05. Can't Get Enough.wav

Pre-gap length 0:00:01.42

Peak level 91.3 %
Extraction speed 1.9 X
Track quality 100.0 %
Test CRC BA2E03B2
Copy CRC BA2E03B2
Accurately ripped (confidence 7) [55796428] (AR v2)
Copy OK

Track 6

Filename D:\Desktop\Scorpions - Lovedrive (1989)\06. Is There Anybody There.wav

Pre-gap length 0:00:01.33

Peak level 91.2 %
Extraction speed 2.1 X
Track quality 100.0 %
Test CRC 750D40E7
Copy CRC 750D40E7
Accurately ripped (confidence 7) [914B967B] (AR v2)
Copy OK

Track 7

Filename D:\Desktop\Scorpions - Lovedrive (1989)\07. Lovedrive.wav

Pre-gap length 0:00:01.19

Peak level 97.6 %
Extraction speed 2.1 X
Track quality 100.0 %
Test CRC 59C37CF6
Copy CRC 59C37CF6
Accurately ripped (confidence 7) [7546D82E] (AR v2)
Copy OK

Track 8

Filename D:\Desktop\Scorpions - Lovedrive (1989)\08. Holiday.wav

Pre-gap length 0:00:02.27

Peak level 95.2 %
Extraction speed 2.2 X
Track quality 100.0 %
Test CRC AC8A4466
Copy CRC AC8A4466
Accurately ripped (confidence 7) [2A06A8FD] (AR v2)
Copy OK

All tracks accurately ripped

No errors occurred

End of status report

==== Log checksum DF72A35519AE9DED4C79163A2A712D8A207175FB344E7CF0B47B150870FF568C ====
REM GENRE "Hard Rock" 
REM DATE 1989
REM DISCID 59089908
REM COMMENT "ExactAudioCopy v1.0b3"
PERFORMER "Scorpions"
TITLE "Lovedrive"
FILE "01. Loving You Sunday Morning.wav" WAVE
TRACK 01 AUDIO
TITLE "Loving You Sunday Morning"
PERFORMER "Scorpions"
PREGAP 00:00:37
INDEX 01 00:00:00
TRACK 02 AUDIO
TITLE "Another Piece of Meat"
PERFORMER "Scorpions"
INDEX 00 05:37:55
FILE "02. Another Piece of Meat.wav" WAVE
INDEX 01 00:00:00
TRACK 03 AUDIO
TITLE "Always Somewhere"
PERFORMER "Scorpions"
INDEX 00 03:31:44
FILE "03. Always Somewhere.wav" WAVE
INDEX 01 00:00:00
TRACK 04 AUDIO
TITLE "Coast to Coast"
PERFORMER "Scorpions"
INDEX 00 04:56:26
FILE "04. Coast to Coast.wav" WAVE
INDEX 01 00:00:00
TRACK 05 AUDIO
TITLE "Can't Get Enough"
PERFORMER "Scorpions"
INDEX 00 04:42:33
FILE "05. Can't Get Enough.wav" WAVE
INDEX 01 00:00:00
TRACK 06 AUDIO
TITLE "Is There Anybody There?"
PERFORMER "Scorpions"
INDEX 00 02:36:47
FILE "06. Is There Anybody There.wav" WAVE
INDEX 01 00:00:00
TRACK 07 AUDIO
TITLE "Lovedrive"
PERFORMER "Scorpions"
INDEX 00 03:57:29
FILE "07. Lovedrive.wav" WAVE
INDEX 01 00:00:00
TRACK 08 AUDIO
TITLE "Holiday"
PERFORMER "Scorpions"
INDEX 00 04:49:73
FILE "08. Holiday.wav" WAVE
INDEX 01 00:00:00

Discogs
          
info [Профиль]  [ЛС] 
Показать сообщения:    
Ответить на тему

Текущее время: 12-Июл 22:32

Часовой пояс: GMT + 4



Вы не можете начинать темы
Вы не можете отвечать на сообщения
Вы не можете редактировать свои сообщения
Вы не можете удалять свои сообщения
Вы не можете голосовать в опросах
Вы не можете прикреплять файлы к сообщениям
Вы не можете скачивать файлы