Ошибка

(Synthpop) Camouflage - Greyscale - 2015, FLAC (tracks+.cue), lossless

Ответить на тему
 
Автор Сообщение

Молескин

Пол: Пол:Муж

Стаж: 4 года 4 месяца

Сообщений: 123

Россия
Рейтинг

post 18-Янв-2018 12:38 0[+]

[Цитировать] 

Camouflage - Greyscale
pic="http://i102.fastpic.ru/big/2018/0118/59/bfd8717401e551792ad5f68be6f2bb59.jpg"

Жанр: Synthpop
Год издания данного носителя: 2015
Страна-производитель носителя: Germany
Лейбл: Bureau B
Каталоговый номер: BB192,bb192
Аудио кодек: FLAC
Тип рипа: image+.cue
Битрейт аудио: lossless
Продолжительность: 00:59:55
Источник: CD
Полиграфия: Присутствует


Треклист:
01. Shine
02. Laughing
03. In The Cloud
04. Count On Me (feat. Peter Heppner)
05. Greyscale
06. Still
07. Misery
08. Leave Your Room Behind
09. Light Grey
10. If ...
11. End Of Words
12. Dark Grey
13. I'll Find


Exact Audio Copy V1.0 beta 4 from 7. December 2014 

EAC extraction logfile from 2. April 2015, 16:40

Camouflage / Greyscale

Used drive : PLDS DVD+-RW DU-8A5LH Adapter: 1 ID: 0

Read mode : Secure
Utilize accurate stream : Yes
Defeat audio cache : Yes
Make use of C2 pointers : No

Read offset correction : 6
Overread into Lead-In and Lead-Out : No
Fill up missing offset samples with silence : Yes
Delete leading and trailing silent blocks : No
Null samples used in CRC calculations : Yes
Used interface : Native Win32 interface for Win NT & 2000
Gap handling : Appended to previous track

Used output format : User Defined Encoder
Selected bitrate : 1024 kBit/s
Quality : High
Add ID3 tag : No
Command line compressor : C:\Program Files (x86)\Exact Audio Copy\Flac\flac.exe
Additional command line options : -8 -V -T "ARTIST=%artist%" -T "TITLE=%title%" -T "ALBUM=%albumtitle%" -T "DATE=%year%" -T "TRACKNUMBER=%tracknr%" -T "GENRE=%genre%" -T "PERFORMER=%albuminterpret%" -T "COMPOSER=%composer%" %haslyrics%--tag-from-file=LYRICS="%lyricsfile%"%haslyrics% -T "ALBUMARTIST=%albumartist%" -T "DISCNUMBER=%cdnumber%" -T "TOTALDISCS=%totalcds%" -T "TOTALTRACKS=%numtracks%" -T "COMMENT=%comment%" %source% -o %dest%

TOC of the extracted CD

Track | Start | Length | Start sector | End sector
---------------------------------------------------------
1 | 0:00.00 | 4:32.07 | 0 | 20406
2 | 4:32.07 | 6:13.33 | 20407 | 48414
3 | 10:45.40 | 5:09.24 | 48415 | 71613
4 | 15:54.64 | 4:42.14 | 71614 | 92777
5 | 20:37.03 | 4:24.02 | 92778 | 112579
6 | 25:01.05 | 4:56.69 | 112580 | 134848
7 | 29:57.74 | 3:55.73 | 134849 | 152546
8 | 33:53.72 | 4:51.54 | 152547 | 174425
9 | 38:45.51 | 1:16.24 | 174426 | 180149
10 | 40:02.00 | 4:52.62 | 180150 | 202111
11 | 44:54.62 | 5:42.59 | 202112 | 227820
12 | 50:37.46 | 3:06.67 | 227821 | 241837
13 | 53:44.38 | 6:11.12 | 241838 | 269674

Track 1

Filename C:\Users\rdpaine\Music\Camouflage - Greyscale (BB192) - (US CD FLAC)\01 - Shine.wav

Pre-gap length 0:00:02.00

Peak level 96.6 %
Extraction speed 1.8 X
Track quality 100.0 %
Test CRC D54CE989
Copy CRC D54CE989
Accurately ripped (confidence 1) [8FD8AE9A] (AR v2)
Copy OK

Track 2

Filename C:\Users\rdpaine\Music\Camouflage - Greyscale (BB192) - (US CD FLAC)\02 - Laughing.wav

Peak level 96.6 %
Extraction speed 2.1 X
Track quality 100.0 %
Test CRC 14563493
Copy CRC 14563493
Accurately ripped (confidence 1) [786A1CA6] (AR v2)
Copy OK

Track 3

Filename C:\Users\rdpaine\Music\Camouflage - Greyscale (BB192) - (US CD FLAC)\03 - In The Cloud.wav

Peak level 96.6 %
Extraction speed 2.3 X
Track quality 100.0 %
Test CRC 46F596DE
Copy CRC 46F596DE
Accurately ripped (confidence 1) [44CE4655] (AR v2)
Copy OK

Track 4

Filename C:\Users\rdpaine\Music\Camouflage - Greyscale (BB192) - (US CD FLAC)\04 - Count On Me (feat. Peter Heppner).wav

Peak level 96.7 %
Extraction speed 2.0 X
Track quality 99.9 %
Test CRC CF92B010
Copy CRC CF92B010
Accurately ripped (confidence 1) [5FA589C1] (AR v2)
Copy OK

Track 5

Filename C:\Users\rdpaine\Music\Camouflage - Greyscale (BB192) - (US CD FLAC)\05 - Greyscale.wav

Pre-gap length 0:00:01.70

Peak level 96.6 %
Extraction speed 2.6 X
Track quality 100.0 %
Test CRC 7E76A47F
Copy CRC 7E76A47F
Accurately ripped (confidence 1) [348EE46D] (AR v2)
Copy OK

Track 6

Filename C:\Users\rdpaine\Music\Camouflage - Greyscale (BB192) - (US CD FLAC)\06 - Still.wav

Peak level 96.6 %
Extraction speed 2.8 X
Track quality 100.0 %
Test CRC DD1FBD84
Copy CRC DD1FBD84
Accurately ripped (confidence 1) [73E735B1] (AR v2)
Copy OK

Track 7

Filename C:\Users\rdpaine\Music\Camouflage - Greyscale (BB192) - (US CD FLAC)\07 - Misery.wav

Pre-gap length 0:00:01.41

Peak level 96.6 %
Extraction speed 2.9 X
Track quality 100.0 %
Test CRC 68FE824D
Copy CRC 68FE824D
Accurately ripped (confidence 1) [296F80E6] (AR v2)
Copy OK

Track 8

Filename C:\Users\rdpaine\Music\Camouflage - Greyscale (BB192) - (US CD FLAC)\08 - Leave Your Room Behind.wav

Pre-gap length 0:00:02.52

Peak level 96.7 %
Extraction speed 3.1 X
Track quality 100.0 %
Test CRC FE5A1D0E
Copy CRC FE5A1D0E
Accurately ripped (confidence 1) [7BAEA16B] (AR v2)
Copy OK

Track 9

Filename C:\Users\rdpaine\Music\Camouflage - Greyscale (BB192) - (US CD FLAC)\09 - Light Grey.wav

Peak level 88.8 %
Extraction speed 1.4 X
Track quality 99.8 %
Test CRC 753A0AD9
Copy CRC 753A0AD9
Accurately ripped (confidence 1) [B7890958] (AR v2)
Copy OK

Track 10

Filename C:\Users\rdpaine\Music\Camouflage - Greyscale (BB192) - (US CD FLAC)\10 - If ....wav

Pre-gap length 0:00:01.29

Peak level 96.6 %
Extraction speed 2.6 X
Track quality 99.9 %
Test CRC 21A20A7B
Copy CRC 21A20A7B
Accurately ripped (confidence 1) [8C730F86] (AR v2)
Copy OK

Track 11

Filename C:\Users\rdpaine\Music\Camouflage - Greyscale (BB192) - (US CD FLAC)\11 - End Of Words.wav

Peak level 96.6 %
Extraction speed 3.5 X
Track quality 100.0 %
Test CRC B569540A
Copy CRC B569540A
Accurately ripped (confidence 1) [8E592357] (AR v2)
Copy OK

Track 12

Filename C:\Users\rdpaine\Music\Camouflage - Greyscale (BB192) - (US CD FLAC)\12 - Dark Grey.wav

Peak level 74.2 %
Extraction speed 2.4 X
Track quality 99.9 %
Test CRC E27EE7C4
Copy CRC E27EE7C4
Accurately ripped (confidence 1) [AE337D0A] (AR v2)
Copy OK

Track 13

Filename C:\Users\rdpaine\Music\Camouflage - Greyscale (BB192) - (US CD FLAC)\13 - I'll Find.wav

Pre-gap length 0:00:03.97

Peak level 96.6 %
Extraction speed 3.1 X
Track quality 99.9 %
Test CRC 008BB880
Copy CRC 008BB880
Accurately ripped (confidence 1) [F439F80E] (AR v2)
Copy OK

All tracks accurately ripped

No errors occurred

End of status report

---- CUETools DB Plugin V2.1.4

[CTDB TOCID: MmwN9n1oXQximrzL8DKh2DHKT3I-] found
Submit result: MmwN9n1oXQximrzL8DKh2DHKT3I- has been confirmed
Track | CTDB Status
1 | (42/42) Accurately ripped
2 | (42/42) Accurately ripped
3 | (42/42) Accurately ripped
4 | (42/42) Accurately ripped
5 | (42/42) Accurately ripped
6 | (42/42) Accurately ripped
7 | (42/42) Accurately ripped
8 | (42/42) Accurately ripped
9 | (42/42) Accurately ripped
10 | (42/42) Accurately ripped
11 | (42/42) Accurately ripped
12 | (42/42) Accurately ripped
13 | (41/42) Accurately ripped

==== Log checksum 239B7D1519AF1367C7B95C971E381797C9A7C47C492CA35D8D3FA0EC6E432E17 ====
REM GENRE Synthpop 
REM DATE 2015
REM DISCID BB0E0B0D
REM COMMENT "ExactAudioCopy v1.0b4"
CATALOG 4047179928328
PERFORMER "Camouflage"
TITLE "Greyscale"
FILE "01 - Shine.wav" WAVE
TRACK 01 AUDIO
TITLE "Shine"
PERFORMER "Camouflage"
ISRC DELI51501765
INDEX 01 00:00:00
FILE "02 - Laughing.wav" WAVE
TRACK 02 AUDIO
TITLE "Laughing"
PERFORMER "Camouflage"
ISRC DELI51501766
INDEX 01 00:00:00
FILE "03 - In The Cloud.wav" WAVE
TRACK 03 AUDIO
TITLE "In The Cloud"
PERFORMER "Camouflage"
ISRC DELI51501767
INDEX 01 00:00:00
FILE "04 - Count On Me (feat. Peter Heppner).wav" WAVE
TRACK 04 AUDIO
TITLE "Count On Me (feat. Peter Heppner)"
PERFORMER "Camouflage"
ISRC DELI51501768
INDEX 01 00:00:00
TRACK 05 AUDIO
TITLE "Greyscale"
PERFORMER "Camouflage"
ISRC DELI51501769
INDEX 00 04:40:36
FILE "05 - Greyscale.wav" WAVE
INDEX 01 00:00:00
FILE "06 - Still.wav" WAVE
TRACK 06 AUDIO
TITLE "Still"
PERFORMER "Camouflage"
ISRC DELI51501770
INDEX 01 00:00:00
TRACK 07 AUDIO
TITLE "Misery"
PERFORMER "Camouflage"
ISRC DELI51501771
INDEX 00 04:55:38
FILE "07 - Misery.wav" WAVE
INDEX 01 00:00:00
TRACK 08 AUDIO
TITLE "Leave Your Room Behind"
PERFORMER "Camouflage"
ISRC DELI51501772
INDEX 00 03:53:34
FILE "08 - Leave Your Room Behind.wav" WAVE
INDEX 01 00:00:00
FILE "09 - Light Grey.wav" WAVE
TRACK 09 AUDIO
TITLE "Light Grey"
PERFORMER "Camouflage"
ISRC DELI51501773
INDEX 01 00:00:00
TRACK 10 AUDIO
TITLE "If ..."
PERFORMER "Camouflage"
ISRC DELI51501777
INDEX 00 01:15:02
FILE "10 - If ....wav" WAVE
INDEX 01 00:00:00
FILE "11 - End Of Words.wav" WAVE
TRACK 11 AUDIO
TITLE "End Of Words"
PERFORMER "Camouflage"
ISRC DELI51501774
INDEX 01 00:00:00
FILE "12 - Dark Grey.wav" WAVE
TRACK 12 AUDIO
TITLE "Dark Grey"
PERFORMER "Camouflage"
ISRC DELI51501775
INDEX 01 00:00:00
TRACK 13 AUDIO
TITLE "I'll Find"
PERFORMER "Camouflage"
ISRC DELI51501776
INDEX 00 03:02:69
FILE "13 - I'll Find.wav" WAVE
INDEX 01 00:00:00

Discogs
          
info [Профиль]  [ЛС] 
Показать сообщения:    
Ответить на тему

Текущее время: 27-Май 16:12

Часовой пояс: GMT + 4



Вы не можете начинать темы
Вы не можете отвечать на сообщения
Вы не можете редактировать свои сообщения
Вы не можете удалять свои сообщения
Вы не можете голосовать в опросах
Вы не можете прикреплять файлы к сообщениям
Вы не можете скачивать файлы