Ошибка

(EBM, Industrial, Minimal Techno) Combichrist - We Love You (Deluxe Edition) - 2014, FLAC (image+.cue), lossless

Ответить на тему
 
Автор Сообщение

Pray

Пол: Пол:Муж

Стаж: 10 лет

Сообщений: 1411

Украина
Рейтинг

post 08-Авг-2017 19:06 1[+]

[Цитировать] 

Combichrist - We Love You (Deluxe Edition)


pic="http://i019.radikal.ru/1404/47/15135311c565.jpg"


Жанр: EBM, Industrial, Minimal Techno
Год издания данного носителя: 2014
Страна-производитель носителя: Germany
Лейбл: Out Of Line
Аудио кодек: FLAC
Тип рипа: image+.cue
Битрейт аудио: lossless
Продолжительность: 00:55:50 / 00:34:24

Треклист:
CD1 - We Love You
01. We Were Made To Love You
02. Every Day Is War
03. Can’t Control
04. Satan’s Propaganda
05. Maggots at the Party
06. Denial
07. The Evil In Me
08. Fuck Unicorns
09. Love Is A Razorblade
10. From My Cold Dead Hands
11. We Rule The World Motherfuckers
12. Retreat Hell Part 1
13. Retreat Hell Part 2

CD2 - The Art Of Riots
01. The Plan
02. Confrontation
03. Skull Breaker
04. Riot Station
05. Norwega
06. The King Has Spoken
          
          
          

 

Код:

Exact Audio Copy V1.0 beta 3 from 29. August 2011

EAC extraction logfile from 25. March 2014, 17:06

Combichrist / We Love You (Deluxe Edition)

Used drive  : ATAPI   iHAS124   Y   Adapter: 2  ID: 1

Read mode               : Secure
Utilize accurate stream : Yes
Defeat audio cache      : No
Make use of C2 pointers : No

Read offset correction                      : 0
Overread into Lead-In and Lead-Out          : No
Fill up missing offset samples with silence : Yes
Delete leading and trailing silent blocks   : No
Null samples used in CRC calculations       : Yes
Used interface                              : Native Win32 interface for Win NT & 2000
Gap handling                                : Appended to previous track

Used output format              : User Defined Encoder
Selected bitrate                : 1024 kBit/s
Quality                         : High
Add ID3 tag                     : No
Command line compressor         : K:Program Files (x86)Exact Audio CopyFlacflac.exe
Additional command line options : -8 -V -T "ARTIST=%artist%" -T "TITLE=%title%" -T "ALBUM=%albumtitle%" -T "DATE=%year%" -T "TRACKNUMBER=%tracknr%" -T "GENRE=%genre%" %source%

TOC of the extracted CD

     Track |   Start  |  Length  | Start sector | End sector
    ---------------------------------------------------------
        1  |  0:00.00 |  3:50.17 |         0    |    17266   
        2  |  3:50.17 |  3:57.05 |     17267    |    35046   
        3  |  7:47.22 |  4:10.59 |     35047    |    53855   
        4  | 11:58.06 |  2:41.11 |     53856    |    65941   
        5  | 14:39.17 |  4:12.52 |     65942    |    84893   
        6  | 18:51.69 |  3:49.58 |     84894    |   102126   
        7  | 22:41.52 |  4:03.28 |    102127    |   120379   
        8  | 26:45.05 |  3:05.57 |    120380    |   134311   
        9  | 29:50.62 |  3:20.12 |    134312    |   149323   
       10  | 33:10.74 |  4:18.26 |    149324    |   168699   
       11  | 37:29.25 |  4:54.13 |    168700    |   190762   
       12  | 42:23.38 |  4:37.39 |    190763    |   211576   
       13  | 47:01.02 |  8:49.03 |    211577    |   251254   

Track  1

     Filename H:EACCombichrist - We Love You Deluxe Edition (2014) [FLAC]1 - We were made to love you.wav

     Pre-gap length  0:00:02.00

     Peak level 98.8 %
     Extraction speed 4.2 X
     Track quality 100.0 %
     Copy CRC 1E0E1057
     Copy OK

Track  2

     Filename H:EACCombichrist - We Love You Deluxe Edition (2014) [FLAC]2 - Every day is war.wav

     Peak level 98.8 %
     Extraction speed 4.6 X
     Track quality 99.9 %
     Copy CRC 908F712A
     Copy OK

Track  3

     Filename H:EACCombichrist - We Love You Deluxe Edition (2014) [FLAC]3 - Can't control.wav

     Peak level 97.2 %
     Extraction speed 5.1 X
     Track quality 100.0 %
     Copy CRC BEF32E35
     Copy OK

Track  4

     Filename H:EACCombichrist - We Love You Deluxe Edition (2014) [FLAC]4 - Satans propaganda.wav

     Pre-gap length  0:00:01.61

     Peak level 98.8 %
     Extraction speed 5.5 X
     Track quality 100.0 %
     Copy CRC 5E3F683A
     Copy OK

Track  5

     Filename H:EACCombichrist - We Love You Deluxe Edition (2014) [FLAC]5 - Maggots at the party.wav

     Peak level 98.8 %
     Extraction speed 5.7 X
     Track quality 99.9 %
     Copy CRC BD383DBD
     Copy OK

Track  6

     Filename H:EACCombichrist - We Love You Deluxe Edition (2014) [FLAC]6 - Denial.wav

     Peak level 98.8 %
     Extraction speed 6.0 X
     Track quality 99.9 %
     Copy CRC 6E7905CF
     Copy OK

Track  7

     Filename H:EACCombichrist - We Love You Deluxe Edition (2014) [FLAC]7 - The evil in me.wav

     Peak level 98.8 %
     Extraction speed 6.3 X
     Track quality 99.9 %
     Copy CRC C399465F
     Copy OK

Track  8

     Filename H:EACCombichrist - We Love You Deluxe Edition (2014) [FLAC]8 - Fuck unicorns.wav

     Peak level 98.8 %
     Extraction speed 6.8 X
     Track quality 100.0 %
     Copy CRC AA83FEC4
     Copy OK

Track  9

     Filename H:EACCombichrist - We Love You Deluxe Edition (2014) [FLAC]9 - Love is a razorblade.wav

     Peak level 98.8 %
     Extraction speed 6.8 X
     Track quality 99.9 %
     Copy CRC 18F4F2FB
     Copy OK

Track 10

     Filename H:EACCombichrist - We Love You Deluxe Edition (2014) [FLAC]10 - From my cold dead hands.wav

     Peak level 98.8 %
     Extraction speed 7.3 X
     Track quality 100.0 %
     Copy CRC 206B9C11
     Copy OK

Track 11

     Filename H:EACCombichrist - We Love You Deluxe Edition (2014) [FLAC]11 - We rule the world, motherfuckers.wav

     Peak level 98.8 %
     Extraction speed 7.4 X
     Track quality 99.9 %
     Copy CRC 89537A6C
     Copy OK

Track 12

     Filename H:EACCombichrist - We Love You Deluxe Edition (2014) [FLAC]12 - Retreat Hell Part 1.wav

     Pre-gap length  0:00:00.73

     Peak level 98.8 %
     Extraction speed 7.8 X
     Track quality 100.0 %
     Copy CRC 921486A7
     Copy OK

Track 13

     Filename H:EACCombichrist - We Love You Deluxe Edition (2014) [FLAC]13 - Retreat Hell Part 2.wav

     Peak level 90.6 %
     Extraction speed 8.3 X
     Track quality 100.0 %
     Copy CRC 551556DE
     Copy OK

No errors occurred

End of status report

---- CUETools DB Plugin V2.1.3

[CTDB TOCID: 7.q9.vKNdpWBexbrikXHQUhLSHQ-] found, Submit result: 7.q9.vKNdpWBexbrikXHQUhLSHQ- has been confirmed
[67e0634c] (4/4) Accurately ripped

==== Log checksum 7D7EE734731B17A12AE8F36A3EC85C9C1FE022CF67550F8A92EC2344ACC040EE ====

Код:

Exact Audio Copy V1.0 beta 3 from 29. August 2011

EAC extraction logfile from 25. March 2014, 17:45

Combichrist / The Art Of Riots

Used drive  : ATAPI   iHAS124   Y   Adapter: 2  ID: 1

Read mode               : Secure
Utilize accurate stream : Yes
Defeat audio cache      : No
Make use of C2 pointers : No

Read offset correction                      : 0
Overread into Lead-In and Lead-Out          : No
Fill up missing offset samples with silence : Yes
Delete leading and trailing silent blocks   : No
Null samples used in CRC calculations       : Yes
Used interface                              : Native Win32 interface for Win NT & 2000
Gap handling                                : Appended to previous track

Used output format              : User Defined Encoder
Selected bitrate                : 1024 kBit/s
Quality                         : High
Add ID3 tag                     : No
Command line compressor         : K:Program Files (x86)Exact Audio CopyFlacflac.exe
Additional command line options : -8 -V -T "ARTIST=%artist%" -T "TITLE=%title%" -T "ALBUM=%albumtitle%" -T "DATE=%year%" -T "TRACKNUMBER=%tracknr%" -T "GENRE=%genre%" %source%

TOC of the extracted CD

     Track |   Start  |  Length  | Start sector | End sector
    ---------------------------------------------------------
        1  |  0:00.00 |  7:00.56 |         0    |    31555   
        2  |  7:00.56 |  6:37.53 |     31556    |    61383   
        3  | 13:38.34 |  7:11.21 |     61384    |    93729   
        4  | 20:49.55 |  4:44.72 |     93730    |   115101   
        5  | 25:34.52 |  3:37.57 |    115102    |   131433   
        6  | 29:12.34 |  5:11.68 |    131434    |   154826   

Track  1

     Filename H:EACCombichrist - We Love You Deluxe Edition (2014) [FLAC]CD2 - The Art Of Riots1 - The Plan.wav

     Pre-gap length  0:00:02.00

     Peak level 97.5 %
     Extraction speed 4.4 X
     Track quality 100.0 %
     Copy CRC F9FE6956
     Copy OK

Track  2

     Filename H:EACCombichrist - We Love You Deluxe Edition (2014) [FLAC]CD2 - The Art Of Riots2 - Confrontation.wav

     Peak level 97.7 %
     Extraction speed 5.1 X
     Track quality 100.0 %
     Copy CRC 4F707AA8
     Copy OK

Track  3

     Filename H:EACCombichrist - We Love You Deluxe Edition (2014) [FLAC]CD2 - The Art Of Riots3 - Skull Breaker.wav

     Peak level 97.7 %
     Extraction speed 5.7 X
     Track quality 99.9 %
     Copy CRC 1904F66A
     Copy OK

Track  4

     Filename H:EACCombichrist - We Love You Deluxe Edition (2014) [FLAC]CD2 - The Art Of Riots4 - Riot Station.wav

     Peak level 97.7 %
     Extraction speed 6.3 X
     Track quality 100.0 %
     Copy CRC 251F09F5
     Copy OK

Track  5

     Filename H:EACCombichrist - We Love You Deluxe Edition (2014) [FLAC]CD2 - The Art Of Riots5 - Norwega.wav

     Peak level 97.7 %
     Extraction speed 6.5 X
     Track quality 100.0 %
     Copy CRC 5708375E
     Copy OK

Track  6

     Filename H:EACCombichrist - We Love You Deluxe Edition (2014) [FLAC]CD2 - The Art Of Riots6 - The King Has Spoken.wav

     Peak level 97.7 %
     Extraction speed 7.0 X
     Track quality 100.0 %
     Copy CRC 58A55E76
     Copy OK

No errors occurred

End of status report

---- CUETools DB Plugin V2.1.3

[CTDB TOCID: ytcP_qy669o2WwHe.RLz3wzStPc-] found, Submit result: ytcP_qy669o2WwHe.RLz3wzStPc- has been confirmed
[7e2ab5b1] (4/4) Accurately ripped

==== Log checksum 6988470B4EC6150F8044F98F437D8619600CA0D45550D44C88F8AA58B3BFDFD8 ====
 

Код:

-----------------------

DON'T MODIFY THIS FILE

-----------------------

PERFORMER: auCDtect Task Manager, ver. 1.5.1RC6 build 1.5.1.7
Copyright (c) 2008-2010 y-soft. All rights reserved
http://y-soft.org

ANALYZER: auCDtect: CD records authenticity detector, version 0.8.2
Copyright (c) 2004 Oleg Berngardt. All rights reserved.
Copyright (c) 2004 Alexander Djourik. All rights reserved.

FILE: 13 - Retreat Hell Part 2.flac
  Size: 39220099 Hash: B02035E2CCBDB9A956C07D4C2CAA11F8 Accuracy: -m0
  Conclusion: CDDA 100%
  Signature: E980AF18FDD08D7915B65F2F699B1D614D797339
FILE: 12 - Retreat Hell Part 1.flac
  Size: 32958465 Hash: 75F1B5E98555F424700A1C00BFF4CAFA Accuracy: -m0
  Conclusion: CDDA 100%
  Signature: D058FC868C842E2B66F9D1F957680987AF86879C
FILE: 11 - We rule the world, motherfuckers.flac
  Size: 38818959 Hash: 596FAC448E4E0067A76BBE42C8ABA0AA Accuracy: -m0
  Conclusion: CDDA 100%
  Signature: 21607501AE0D4DE8DA14A1238CFD07C17BC264C6
FILE: 10 - From my cold dead hands.flac
  Size: 33919930 Hash: 02632A4656663FDF4C04045C5E95EA71 Accuracy: -m0
  Conclusion: CDDA 100%
  Signature: F3B115779B9FC8022A3629BD78CBA4241394F0CF
FILE: 09 - Love is a razorblade.flac
  Size: 27653002 Hash: 95FCF44ACED5272C5889E9CA783D9378 Accuracy: -m0
  Conclusion: CDDA 100%
  Signature: 1AF77A8CAF03A20A02C379A2029B7A6C0988939E
FILE: 08 - Fuck unicorns.flac
  Size: 24692687 Hash: 1DC1FB4F6CFFE9253BAEB715BA6E3A5F Accuracy: -m0
  Conclusion: CDDA 100%
  Signature: A700E540D9623BFE3A180A005FA26920671D07FD
FILE: 07 - The evil in me.flac
  Size: 22663302 Hash: 9B50FA8604D410BD3A873B34F18CA3FA Accuracy: -m0
  Conclusion: CDDA 100%
  Signature: 8FAAF91ED532831512CD4BB1D35D71D933BC6856
FILE: 06 - Denial.flac
  Size: 30692392 Hash: 78D316DD21198B350051F68415DD4847 Accuracy: -m0
  Conclusion: CDDA 100%
  Signature: ACA9BD5F571FBA7969BF5027983A74CCECD0FFAB
FILE: 05 - Maggots at the party.flac
  Size: 34683896 Hash: 14FACDF700FB4C562CE51BF5C2170145 Accuracy: -m0
  Conclusion: CDDA 100%
  Signature: BC5DFC10BFD2AFEF0BB8D29A9DD4976E9803A491
FILE: 04 - Satans propaganda.flac
  Size: 21108085 Hash: 8A1EA5700CACE9A515874C8763509A2D Accuracy: -m0
  Conclusion: CDDA 100%
  Signature: 9406788E5D79E751D5D525512117950E398BF42B
FILE: 03 - Can't control.flac
  Size: 32801731 Hash: 6BEA1C6D54D8B68736EDA92BB77E910D Accuracy: -m0
  Conclusion: CDDA 100%
  Signature: EDD8F819C413F5B481D8ACC7792C756F60BD8624
FILE: 02 - Every day is war.flac
  Size: 32097944 Hash: 3010E9D85BE4EC7CB66BCB79E88B47C2 Accuracy: -m0
  Conclusion: CDDA 100%
  Signature: D8EC92079FED6B5F4E0EAE8F24FBECB60CFEFD60
FILE: 01 - We were made to love you.flac
  Size: 30932823 Hash: A73A134FAFA3588FD8E6C7BDEF5C772B Accuracy: -m0
  Conclusion: CDDA 100%
  Signature: 20D161760E0AA7CB49C0319FA382DF2E97DCDAB3

Код:

-----------------------

DON'T MODIFY THIS FILE

-----------------------

PERFORMER: auCDtect Task Manager, ver. 1.5.1RC6 build 1.5.1.7
Copyright (c) 2008-2010 y-soft. All rights reserved
http://y-soft.org

ANALYZER: auCDtect: CD records authenticity detector, version 0.8.2
Copyright (c) 2004 Oleg Berngardt. All rights reserved.
Copyright (c) 2004 Alexander Djourik. All rights reserved.

FILE: 06 - The King Has Spoken.flac
  Size: 34309441 Hash: 6B02CFA9DABEDBEEB92252C578C90A85 Accuracy: -m0
  Conclusion: CDDA 100%
  Signature: 3C1B4A46511A1CC69D38A9D74FE344100435D797
FILE: 05 - Norwega.flac
  Size: 30010320 Hash: 035061CA46030225958CD42AFD6B125D Accuracy: -m0
  Conclusion: CDDA 100%
  Signature: 428E30EDA7582766E42BC5E6340B647D00B0000E
FILE: 04 - Riot Station.flac
  Size: 36618201 Hash: 8647F1064C2436B69C34AC0D4B24F08C Accuracy: -m0
  Conclusion: CDDA 100%
  Signature: A8D4507B6C0A65D2BEC9D1FC231912E82222CE98
FILE: 03 - Skull Breaker.flac
  Size: 44282330 Hash: 83C7FB1ABD125D5B3DDAA3A0728A74D7 Accuracy: -m0
  Conclusion: CDDA 100%
  Signature: CECE8FFDABB595EECB7B702C150AD3BB8CF5BF15
FILE: 02 - Confrontation.flac
  Size: 41785497 Hash: E047E3BB0E84AFD59C44DD1E62B6E058 Accuracy: -m0
  Conclusion: CDDA 100%
  Signature: DE97B244AB78E1C95747B3863D52BBFB8AE21EDB
FILE: 01 - The Plan.flac
  Size: 32352644 Hash: 3B37C6B8B4FEC343E1715C301D492F1D Accuracy: -m0
  Conclusion: CDDA 100%
  Signature: 471765CD99D50F448FB87D5FF8BFDDE628C0951B

Combichrist - We Love You [Deluxe Edition] - 2014, MP3 (tracks), 320 kbps
info [Профиль]  [ЛС] 
Показать сообщения:    
Ответить на тему

Текущее время: 22-Май 09:17

Часовой пояс: GMT + 4



Вы не можете начинать темы
Вы не можете отвечать на сообщения
Вы не можете редактировать свои сообщения
Вы не можете удалять свои сообщения
Вы не можете голосовать в опросах
Вы не можете прикреплять файлы к сообщениям
Вы не можете скачивать файлы