Ошибка

(Instrumental Rock) Joe Satriani - Shockwave Supernova - 2015, FLAC (image+.cue), lossless

Ответить на тему
 
Автор Сообщение

EgorYurov

Пол: Пол:Муж

Стаж: 10 лет

Сообщений: 865

Россия
Рейтинг

post 22-Авг-2015 13:27 0[+]

[Цитировать] 


Joe Satriani - Shockwave Supernova

Жанр: Instrumental Rock
Носитель: CD
Страна-производитель диска (релиза): EU
Год издания: 2015
Издатель (лейбл): Legacy Recordings
Номер по каталогу: 888750996824
Страна исполнителя (группы): US
Аудиокодек: FLAC (*.flac)
Тип рипа: image+.cue
Битрейт аудио: lossless
Продолжительность: 01:04:12
Наличие сканов в содержимом раздачи: да


http://www.youtube.com/user/joesatrianiVEVO/videos
http://www.satriani.com/discography/Shockwave_Supernova/

Треклист:
01. Shockwave Supernova [3:53]
02. Lost In A Memory [4:16]
03. Crazy Joey [3:40]
04. In My Pocket [4:16]
05. On Peregrine Wings [5:26]
06. Cataclysmic [5:06]
07. San Francisco Blue [3:22]
08. Keep On Movin' [4:26]
09. All Of My Life [4:06]
10. A Phase I'm Going Through [4:03]
11. Scarborough Stomp [4:04]
12. Butterfly And Zebra [1:48]
13. If There Is No Heaven [5:11]
14. Stars Race Across The Sky [4:48]
15. Goodbye Supernova [5:48]

Код:

Exact Audio Copy V1.0 beta 6 from 9. April 2015

EAC extraction logfile from 22. August 2015, 11:35

Joe Satriani / Shockwave Supernova

Used drive  : hp      CDDVDW SH-216DB   Adapter: 1  ID: 0

Read mode               : Secure
Utilize accurate stream : Yes
Defeat audio cache      : Yes
Make use of C2 pointers : No

Read offset correction                      : 6
Overread into Lead-In and Lead-Out          : No
Fill up missing offset samples with silence : Yes
Delete leading and trailing silent blocks   : No
Null samples used in CRC calculations       : Yes
Used interface                              : Native Win32 interface for Win NT & 2000

Used output format : Internal WAV Routines
Sample format      : 44.100 Hz; 16 Bit; Stereo

TOC of the extracted CD

     Track |   Start  |  Length  | Start sector | End sector
    ---------------------------------------------------------
        1  |  0:00.00 |  3:53.08 |         0    |    17482
        2  |  3:53.08 |  4:16.15 |     17483    |    36697
        3  |  8:09.23 |  3:39.59 |     36698    |    53181
        4  | 11:49.07 |  4:15.74 |     53182    |    72380
        5  | 16:05.06 |  5:25.63 |     72381    |    96818
        6  | 21:30.69 |  5:05.71 |     96819    |   119764
        7  | 26:36.65 |  3:22.28 |    119765    |   134942
        8  | 29:59.18 |  4:26.30 |    134943    |   154922
        9  | 34:25.48 |  4:05.62 |    154923    |   173359
       10  | 38:31.35 |  4:02.54 |    173360    |   191563
       11  | 42:34.14 |  4:03.44 |    191564    |   209832
       12  | 46:37.58 |  1:47.46 |    209833    |   217903
       13  | 48:25.29 |  5:10.55 |    217904    |   241208
       14  | 53:36.09 |  4:48.20 |    241209    |   262828
       15  | 58:24.29 |  5:47.69 |    262829    |   288922

Range status and errors

Selected range

     Filename E:\POST\Joe Satriani - Shockwave Supernova (EAC)\Joe Satriani - Shockwave Supernova.wav

     Peak level 90.0 %
     Extraction speed 7.4 X
     Range quality 100.0 %
     Test CRC 8276CCE1
     Copy CRC 8276CCE1
     Copy OK

No errors occurred

AccurateRip summary

Track  1  not present in database
Track  2  not present in database
Track  3  not present in database
Track  4  not present in database
Track  5  not present in database
Track  6  not present in database
Track  7  not present in database
Track  8  not present in database
Track  9  not present in database
Track 10  not present in database
Track 11  not present in database
Track 12  not present in database
Track 13  not present in database
Track 14  not present in database
Track 15  not present in database

None of the tracks are present in the AccurateRip database

End of status report

Код:

REM GENRE Rock
REM DATE 2015
REM DISCID DB0F0C0F
REM COMMENT "ExactAudioCopy v1.0b6"
PERFORMER "Joe Satriani"
TITLE "Shockwave Supernova"
FILE "Joe Satriani - Shockwave Supernova.wav" WAVE
  TRACK 01 AUDIO
    TITLE "Shockwave Supernova"
    PERFORMER "Joe Satriani"
    INDEX 01 00:00:00
  TRACK 02 AUDIO
    TITLE "Lost In A Memory"
    PERFORMER "Joe Satriani"
    INDEX 00 03:50:08
    INDEX 01 03:53:08
  TRACK 03 AUDIO
    TITLE "Crazy Joey"
    PERFORMER "Joe Satriani"
    INDEX 00 08:06:23
    INDEX 01 08:09:23
  TRACK 04 AUDIO
    TITLE "In My Pocket"
    PERFORMER "Joe Satriani"
    INDEX 00 11:46:07
    INDEX 01 11:49:07
  TRACK 05 AUDIO
    TITLE "On Peregrine Wings"
    PERFORMER "Joe Satriani"
    INDEX 00 16:02:06
    INDEX 01 16:05:06
  TRACK 06 AUDIO
    TITLE "Cataclysmic"
    PERFORMER "Joe Satriani"
    INDEX 00 21:27:69
    INDEX 01 21:30:69
  TRACK 07 AUDIO
    TITLE "San Francisco Blue"
    PERFORMER "Joe Satriani"
    INDEX 00 26:33:65
    INDEX 01 26:36:65
  TRACK 08 AUDIO
    TITLE "Keep On Movin'"
    PERFORMER "Joe Satriani"
    INDEX 00 29:56:18
    INDEX 01 29:59:18
  TRACK 09 AUDIO
    TITLE "All Of My Life"
    PERFORMER "Joe Satriani"
    INDEX 00 34:22:48
    INDEX 01 34:25:48
  TRACK 10 AUDIO
    TITLE "A Phase I'm Going Through"
    PERFORMER "Joe Satriani"
    INDEX 00 38:28:35
    INDEX 01 38:31:35
  TRACK 11 AUDIO
    TITLE "Scarborough Stomp"
    PERFORMER "Joe Satriani"
    INDEX 00 42:31:14
    INDEX 01 42:34:14
  TRACK 12 AUDIO
    TITLE "Butterfly And Zebra"
    PERFORMER "Joe Satriani"
    INDEX 00 46:33:58
    INDEX 01 46:37:58
  TRACK 13 AUDIO
    TITLE "If There Is No Heaven"
    PERFORMER "Joe Satriani"
    INDEX 00 48:25:28
    INDEX 01 48:25:29
  TRACK 14 AUDIO
    TITLE "Stars Race Across The Sky"
    PERFORMER "Joe Satriani"
    INDEX 00 53:33:09
    INDEX 01 53:36:09
  TRACK 15 AUDIO
    TITLE "Goodbye Supernova"
    PERFORMER "Joe Satriani"
    INDEX 00 58:21:29
    INDEX 01 58:24:29

Код:

fooCDtect - foobar2000 + auCDtect, baralgin.

auCDtect: CD records authenticity detector, version 0.8.2
Copyright (c) 2004 Oleg Berngardt. All rights reserved.
Copyright (c) 2004 Alexander Djourik. All rights reserved.

     mode: 0

===========================================
    Track: 01. Joe Satriani - Shockwave Supernova

Processing file: [01. Joe Satriani - Shockwave Supernova.aucdtect]
Detected average hi-boundary frequency: 2.017797e+004 Hz
Detected average lo-boundary frequency: 1.341500e+004 Hz
Detected average hi-cut frequency: 2.167767e+004 Hz
Detected average lo-cut frequency: 1.073013e+004 Hz
Maximum probablis boundary frequency: 2.189100e+004 Hz
Coefficient of nonlinearity of a phase: 8.037216e-001
First order smothness: 3.395311e-001
Second order smothness: 4.963622e-001

------------------------------------------------------------
This track looks like CDDA with probability 100%

===========================================
    Track: 02. Joe Satriani - Lost In A Memory

Processing file: [02. Joe Satriani - Lost In A Memory.aucdtect]
Detected average hi-boundary frequency: 2.043504e+004 Hz
Detected average lo-boundary frequency: 1.486832e+004 Hz
Detected average hi-cut frequency: 2.168033e+004 Hz
Detected average lo-cut frequency: 1.042526e+004 Hz
Maximum probablis boundary frequency: 2.189100e+004 Hz
Coefficient of nonlinearity of a phase: 4.346325e-001
First order smothness: 4.339207e-001
Second order smothness: 5.234949e-001

------------------------------------------------------------
This track looks like CDDA with probability 100%

===========================================
    Track: 03. Joe Satriani - Crazy Joey

Processing file: [03. Joe Satriani - Crazy Joey.aucdtect]
Detected average hi-boundary frequency: 2.037482e+004 Hz
Detected average lo-boundary frequency: 1.386686e+004 Hz
Detected average hi-cut frequency: 2.167913e+004 Hz
Detected average lo-cut frequency: 1.140662e+004 Hz
Maximum probablis boundary frequency: 2.189100e+004 Hz
Coefficient of nonlinearity of a phase: 1.538866e-001
First order smothness: 4.262436e-001
Second order smothness: 4.618353e-001

------------------------------------------------------------
This track looks like CDDA with probability 100%

===========================================
    Track: 04. Joe Satriani - In My Pocket

Processing file: [04. Joe Satriani - In My Pocket.aucdtect]
Detected average hi-boundary frequency: 2.043574e+004 Hz
Detected average lo-boundary frequency: 1.469770e+004 Hz
Detected average hi-cut frequency: 2.165634e+004 Hz
Detected average lo-cut frequency: 1.409282e+004 Hz
Maximum probablis boundary frequency: 2.189100e+004 Hz
Coefficient of nonlinearity of a phase: 4.805570e-002
First order smothness: 4.735489e-001
Second order smothness: 5.536370e-001

------------------------------------------------------------
This track looks like CDDA with probability 100%

===========================================
    Track: 05. Joe Satriani - On Peregrine Wings

Processing file: [05. Joe Satriani - On Peregrine Wings.aucdtect]
Detected average hi-boundary frequency: 2.025877e+004 Hz
Detected average lo-boundary frequency: 1.387769e+004 Hz
Detected average hi-cut frequency: 2.164382e+004 Hz
Detected average lo-cut frequency: 1.093392e+004 Hz
Maximum probablis boundary frequency: 2.189100e+004 Hz
Coefficient of nonlinearity of a phase: 9.699748e-001
First order smothness: 3.529073e-001
Second order smothness: 5.817501e-001

------------------------------------------------------------
This track looks like CDDA with probability 100%

===========================================
    Track: 06. Joe Satriani - Cataclysmic

Processing file: [06. Joe Satriani - Cataclysmic.aucdtect]
Detected average hi-boundary frequency: 2.033324e+004 Hz
Detected average lo-boundary frequency: 1.388226e+004 Hz
Detected average hi-cut frequency: 2.165607e+004 Hz
Detected average lo-cut frequency: 1.365684e+004 Hz
Maximum probablis boundary frequency: 2.134200e+004 Hz
Coefficient of nonlinearity of a phase: 4.568581e-001
First order smothness: 3.610429e-001
Second order smothness: 6.573620e-001

------------------------------------------------------------
This track looks like CDDA with probability 100%

===========================================
    Track: 07. Joe Satriani - San Francisco Blue

Processing file: [07. Joe Satriani - San Francisco Blue.aucdtect]
Detected average hi-boundary frequency: 2.017004e+004 Hz
Detected average lo-boundary frequency: 1.404356e+004 Hz
Detected average hi-cut frequency: 2.165627e+004 Hz
Detected average lo-cut frequency: 9.910024e+003 Hz
Maximum probablis boundary frequency: 2.189100e+004 Hz
Coefficient of nonlinearity of a phase: 6.114985e-001
First order smothness: 3.743590e-001
Second order smothness: 4.013986e-001

------------------------------------------------------------
This track looks like CDDA with probability 100%

===========================================
    Track: 08. Joe Satriani - Keep On Movin'

Processing file: [08. Joe Satriani - Keep On Movin'.aucdtect]
Detected average hi-boundary frequency: 2.026784e+004 Hz
Detected average lo-boundary frequency: 1.349868e+004 Hz
Detected average hi-cut frequency: 2.158055e+004 Hz
Detected average lo-cut frequency: 1.004076e+004 Hz
Maximum probablis boundary frequency: 2.189100e+004 Hz
Coefficient of nonlinearity of a phase: 2.609282e-001
First order smothness: 4.170783e-001
Second order smothness: 5.119972e-001

------------------------------------------------------------
This track looks like CDDA with probability 100%

===========================================
    Track: 09. Joe Satriani - All Of My Life

Processing file: [09. Joe Satriani - All Of My Life.aucdtect]
Detected average hi-boundary frequency: 2.034129e+004 Hz
Detected average lo-boundary frequency: 1.407476e+004 Hz
Detected average hi-cut frequency: 2.163729e+004 Hz
Detected average lo-cut frequency: 6.357753e+003 Hz
Maximum probablis boundary frequency: 2.189100e+004 Hz
Coefficient of nonlinearity of a phase: 6.448570e-001
First order smothness: 4.318530e-001
Second order smothness: 4.119449e-001

------------------------------------------------------------
This track looks like CDDA with probability 100%

===========================================
    Track: 10. Joe Satriani - A Phase I'm Going Through

Processing file: [10. Joe Satriani - A Phase I'm Going Through.aucdtect]
Detected average hi-boundary frequency: 2.007534e+004 Hz
Detected average lo-boundary frequency: 1.382718e+004 Hz
Detected average hi-cut frequency: 2.166506e+004 Hz
Detected average lo-cut frequency: 8.770132e+003 Hz
Maximum probablis boundary frequency: 2.189100e+004 Hz
Coefficient of nonlinearity of a phase: 2.699118e-001
First order smothness: 3.571152e-001
Second order smothness: 5.199690e-001

------------------------------------------------------------
This track looks like CDDA with probability 100%

===========================================
    Track: 11. Joe Satriani - Scarborough Stomp

Processing file: [11. Joe Satriani - Scarborough Stomp.aucdtect]
Detected average hi-boundary frequency: 2.028511e+004 Hz
Detected average lo-boundary frequency: 1.373877e+004 Hz
Detected average hi-cut frequency: 2.164424e+004 Hz
Detected average lo-cut frequency: 1.179287e+004 Hz
Maximum probablis boundary frequency: 2.189100e+004 Hz
Coefficient of nonlinearity of a phase: 5.366427e-001
First order smothness: 3.533747e-001
Second order smothness: 5.531420e-001

------------------------------------------------------------
This track looks like CDDA with probability 100%

===========================================
    Track: 12. Joe Satriani - Butterfly And Zebra

Processing file: [12. Joe Satriani - Butterfly And Zebra.aucdtect]
Detected average hi-boundary frequency: 2.026699e+004 Hz
Detected average lo-boundary frequency: 1.272902e+004 Hz
Detected average hi-cut frequency: 2.163923e+004 Hz
Detected average lo-cut frequency: 1.240382e+004 Hz
Maximum probablis boundary frequency: 2.036800e+004 Hz
Coefficient of nonlinearity of a phase: 1.681446e+000
First order smothness: 7.070009e-001
Second order smothness: 6.006914e-001

------------------------------------------------------------
This track looks like CDDA with probability 100%

===========================================
    Track: 13. Joe Satriani - If There Is No Heaven

Processing file: [13. Joe Satriani - If There Is No Heaven.aucdtect]
Detected average hi-boundary frequency: 2.024149e+004 Hz
Detected average lo-boundary frequency: 1.343105e+004 Hz
Detected average hi-cut frequency: 2.164834e+004 Hz
Detected average lo-cut frequency: 8.981522e+003 Hz
Maximum probablis boundary frequency: 2.189100e+004 Hz
Coefficient of nonlinearity of a phase: 2.725559e-001
First order smothness: 3.663546e-001
Second order smothness: 5.372999e-001

------------------------------------------------------------
This track looks like CDDA with probability 100%

===========================================
    Track: 14. Joe Satriani - Stars Race Across The Sky

Processing file: [14. Joe Satriani - Stars Race Across The Sky.aucdtect]
Detected average hi-boundary frequency: 2.045500e+004 Hz
Detected average lo-boundary frequency: 1.438323e+004 Hz
Detected average hi-cut frequency: 2.159474e+004 Hz
Detected average lo-cut frequency: 1.012736e+004 Hz
Maximum probablis boundary frequency: 2.189100e+004 Hz
Coefficient of nonlinearity of a phase: 1.631102e-001
First order smothness: 4.128381e-001
Second order smothness: 5.347019e-001

------------------------------------------------------------
This track looks like CDDA with probability 100%

===========================================
    Track: 15. Joe Satriani - Goodbye Supernova

Processing file: [15. Joe Satriani - Goodbye Supernova.aucdtect]
Detected average hi-boundary frequency: 2.030009e+004 Hz
Detected average lo-boundary frequency: 1.397851e+004 Hz
Detected average hi-cut frequency: 2.174282e+004 Hz
Detected average lo-cut frequency: 8.976664e+003 Hz
Maximum probablis boundary frequency: 2.189100e+004 Hz
Coefficient of nonlinearity of a phase: 1.227783e-001
First order smothness: 3.878480e-001
Second order smothness: 5.337259e-001

------------------------------------------------------------
This track looks like CDDA with probability 100%

===========================================

Код:

foobar2000 1.2.8 / Dynamic Range Meter 1.1.1
log date: 2015-08-02 20:22:27

--------------------------------------------------------------------------------
Analyzed: Joe Satriani / Shockwave Supernova
--------------------------------------------------------------------------------

DR         Peak         RMS     Duration Track
--------------------------------------------------------------------------------
DR8       -1.08 dB   -10.72 dB      3:53 01-Shockwave Supernova
DR9       -1.15 dB   -11.59 dB      4:16 02-Lost In A Memory
DR10      -1.04 dB   -12.88 dB      3:40 03-Crazy Joey
DR9       -1.00 dB   -11.76 dB      4:16 04-In My Pocket
DR8       -1.09 dB   -10.27 dB      5:26 05-On Peregrine Wings
DR8       -1.11 dB   -10.60 dB      5:06 06-Cataclysmic
DR9       -1.08 dB   -11.74 dB      3:22 07-San Francisco Blue
DR9       -1.05 dB   -11.92 dB      4:26 08-Keep On Movin'
DR8       -1.09 dB   -10.88 dB      4:06 09-All Of My Life
DR9       -1.06 dB   -11.03 dB      4:03 10-A Phase I'm Going Through
DR9       -1.10 dB   -11.12 dB      4:04 11-Scarborough Stomp
DR9       -3.34 dB   -14.76 dB      1:48 12-Butterfly And Zebra
DR9       -1.08 dB   -11.63 dB      5:11 13-If There Is No Heaven
DR9       -1.00 dB   -11.58 dB      4:48 14-Stars Race Across The Sky
DR8       -0.91 dB    -9.67 dB      5:48 15-Goodbye Supernova
--------------------------------------------------------------------------------

Number of tracks:  15
Official DR value: DR9

Samplerate:        44100 Hz
Channels:          2
Bits per sample:   16
Bitrate:           905 kbps
Codec:             FLAC
================================================================================
При скачивании, если необходимо, переименуйте папку, в которой будет находиться альбом
Большая просьба к скачавшим поддерживать раздачу! Помогайте другим, ведь вам тоже может понадобиться помощь!
Не забываем говорить "Спасибо"!
Комментарии приветствуются!
info [Профиль]  [ЛС] 
Показать сообщения:    
Ответить на тему

Текущее время: 08-Июл 05:14

Часовой пояс: GMT + 4



Вы не можете начинать темы
Вы не можете отвечать на сообщения
Вы не можете редактировать свои сообщения
Вы не можете удалять свои сообщения
Вы не можете голосовать в опросах
Вы не можете прикреплять файлы к сообщениям
Вы не можете скачивать файлы