Ошибка

(Hard Rock) Led Zeppelin - Physical Graffiti (40th Anniversary Deluxe Edition) - 2015, WAVPack (image+.cue)+cover, lossless

Ответить на тему
 
Автор Сообщение

karlmenni

Пол: Пол:Муж

Стаж: 5 лет 6 месяцев

Сообщений: 1559

Россия
Рейтинг

post 12-Мар-2015 17:25 0[+]

[Цитировать] 

Led Zeppelin - Physical Graffiti (40th Anniversary Deluxe Edition)
pic="http://i.imgur.com/quG07Qd.png"

Жанр: Hard Rock
Год издания данного носителя: 2015
Страна-производитель носителя: UK
Лейбл: Atlantic
Каталоговый номер: 8122795794
Аудио кодек: WAVPack
Тип рипа: image+.cue
Битрейт аудио: lossless
Продолжительность: 2:04:20
Источник (релизер): Alder
Полиграфия: Присутствует

Треклист:
1. Custard Pie
2. The Rover
3. In My Time Of Dying
4. Houses Of The Holy
5. Trampled Under Foot
6. Kashmir

Код:

Exact Audio Copy V1.0 beta 3 from 29. August 2011
EAC extraction logfile from 20. February 2015, 15:08
Led Zeppelin / Physical Graffiti 40th Anniversary Deluxe[CD1]
Used drive  : PIONEER DVD-RW  DVR-111L   Adapter: 4  ID: 0
Read mode               : Secure
Utilize accurate stream : Yes
Defeat audio cache      : Yes
Make use of C2 pointers : No
Read offset correction                      : 48
Overread into Lead-In and Lead-Out          : No
Fill up missing offset samples with silence : Yes
Delete leading and trailing silent blocks   : No
Null samples used in CRC calculations       : Yes
Used interface                              : Installed external ASPI interface
Used output format              : User Defined Encoder
Selected bitrate                : 128 kBit/s
Quality                         : High
Add ID3 tag                     : No
Command line compressor         : C:\Program Files (x86)\Exact Audio Copy\wavpack-4.60.1\wavpack.exe
Additional command line options : -hm -w "Year=%year%" -w "Genre=%genre%" %source% %dest%
TOC of the extracted CD
     Track |   Start  |  Length  | Start sector | End sector
    ---------------------------------------------------------
        1  |  0:00.00 |  4:16.41 |         0    |    19240
        2  |  4:16.41 |  5:39.35 |     19241    |    44700
        3  |  9:56.01 | 11:08.33 |     44701    |    94833
        4  | 21:04.34 |  4:04.52 |     94834    |   113185
        5  | 25:09.11 |  5:36.62 |    113186    |   138447
        6  | 30:45.73 |  8:39.22 |    138448    |   177394
Range status and errors
Selected range
     Filename G:\Rips by Alder\Led Zeppelin - Physical Graffiti 40th Anniversary Deluxe[CD1].wav
     Peak level 98.1 %
     Extraction speed 6.5 X
     Range quality 100.0 %
     Test CRC DFF5B55F
     Copy CRC DFF5B55F
     Copy OK
No errors occurred
AccurateRip summary
Track  1  not present in database
Track  2  not present in database
Track  3  not present in database
Track  4  not present in database
Track  5  not present in database
Track  6  not present in database
None of the tracks are present in the AccurateRip database
End of status report

Код:

REM GENRE "Hard Blues-Rock"
REM DATE 1994
REM DISCID 52093D06
REM COMMENT "ExactAudioCopy v1.0b3"
PERFORMER "Led Zeppelin"
TITLE "Physical Graffiti 40th Anniversary Deluxe[CD1]"
FILE "Led Zeppelin - Physical Graffiti 40th Anniversary Deluxe[CD1].wv" WAVE
  TRACK 01 AUDIO
    TITLE "Custard Pie"
    PERFORMER "Led Zeppelin"
    INDEX 01 00:00:00
  TRACK 02 AUDIO
    TITLE "The Rover"
    PERFORMER "Led Zeppelin"
    INDEX 00 04:16:40
    INDEX 01 04:16:41
  TRACK 03 AUDIO
    TITLE "In My Time of Dying"
    PERFORMER "Led Zeppelin"
    INDEX 00 09:56:00
    INDEX 01 09:56:01
  TRACK 04 AUDIO
    TITLE "Houses of the Holy"
    PERFORMER "Led Zeppelin"
    INDEX 01 21:04:34
  TRACK 05 AUDIO
    TITLE "Trampled under Foot"
    PERFORMER "Led Zeppelin"
    INDEX 00 25:09:10
    INDEX 01 25:09:11
  TRACK 06 AUDIO
    TITLE "Kashmir"
    PERFORMER "Led Zeppelin"
    INDEX 00 30:45:72
    INDEX 01 30:45:73
Треклист:
1. In The Light
2. Bron – Yr
3. Down By The Seaside
4. Ten Years Gone
5. Night Flight
6. The Wanton Song
7. Boogie With Stu
8. Black Country Woman
9. Sick Again

Код:

Exact Audio Copy V1.0 beta 3 from 29. August 2011
EAC extraction logfile from 20. February 2015, 15:25
Led Zeppelin / Physical Graffiti 40th Anniversary Deluxe[CD2]
Used drive  : PIONEER DVD-RW  DVR-111L   Adapter: 4  ID: 0
Read mode               : Secure
Utilize accurate stream : Yes
Defeat audio cache      : Yes
Make use of C2 pointers : No
Read offset correction                      : 48
Overread into Lead-In and Lead-Out          : No
Fill up missing offset samples with silence : Yes
Delete leading and trailing silent blocks   : No
Null samples used in CRC calculations       : Yes
Used interface                              : Installed external ASPI interface
Used output format              : User Defined Encoder
Selected bitrate                : 128 kBit/s
Quality                         : High
Add ID3 tag                     : No
Command line compressor         : C:\Program Files (x86)\Exact Audio Copy\wavpack-4.60.1\wavpack.exe
Additional command line options : -hm -w "Year=%year%" -w "Genre=%genre%" %source% %dest%
TOC of the extracted CD
     Track |   Start  |  Length  | Start sector | End sector
    ---------------------------------------------------------
        1  |  0:00.00 |  8:48.59 |         0    |    39658
        2  |  8:48.59 |  2:06.42 |     39659    |    49150
        3  | 10:55.26 |  5:15.38 |     49151    |    72813
        4  | 16:10.64 |  6:34.69 |     72814    |   102432
        5  | 22:45.58 |  3:38.19 |    102433    |   118801
        6  | 26:24.02 |  4:08.54 |    118802    |   137455
        7  | 30:32.56 |  3:52.54 |    137456    |   154909
        8  | 34:25.35 |  4:24.48 |    154910    |   174757
        9  | 38:50.08 |  4:44.36 |    174758    |   196093
Range status and errors
Selected range
     Filename G:\Rips by Alder\Led Zeppelin - Physical Graffiti 40th Anniversary Deluxe[CD2].wav
     Peak level 97.7 %
     Extraction speed 6.7 X
     Range quality 100.0 %
     Test CRC 4757B46B
     Copy CRC 4757B46B
     Copy OK
No errors occurred
AccurateRip summary
Track  1  not present in database
Track  2  not present in database
Track  3  not present in database
Track  4  not present in database
Track  5  not present in database
Track  6  not present in database
Track  7  not present in database
Track  8  not present in database
Track  9  not present in database
None of the tracks are present in the AccurateRip database
End of status report

Код:

REM GENRE Rock
REM DATE 1975
REM DISCID 7C0A3609
REM COMMENT "ExactAudioCopy v1.0b3"
PERFORMER "Led Zeppelin"
TITLE "Physical Graffiti 40th Anniversary Deluxe[CD2]"
FILE "Led Zeppelin - Physical Graffiti 40th Anniversary Deluxe[CD2].wv" WAVE
  TRACK 01 AUDIO
    TITLE "In The Light"
    PERFORMER "Led Zeppelin"
    INDEX 01 00:00:00
  TRACK 02 AUDIO
    TITLE "Bron-yr-Aur"
    PERFORMER "Led Zeppelin"
    INDEX 01 08:48:59
  TRACK 03 AUDIO
    TITLE "Down By The Seaside"
    PERFORMER "Led Zeppelin"
    INDEX 01 10:55:26
  TRACK 04 AUDIO
    TITLE "Ten Years Gone"
    PERFORMER "Led Zeppelin"
    INDEX 01 16:10:64
  TRACK 05 AUDIO
    TITLE "Night Flight"
    PERFORMER "Led Zeppelin"
    INDEX 01 22:45:58
  TRACK 06 AUDIO
    TITLE "Wanton Song"
    PERFORMER "Led Zeppelin"
    INDEX 01 26:24:02
  TRACK 07 AUDIO
    TITLE "Boogie With Stu"
    PERFORMER "Led Zeppelin"
    INDEX 01 30:32:56
  TRACK 08 AUDIO
    TITLE "Black Country Woman"
    PERFORMER "Led Zeppelin"
    INDEX 01 34:25:35
  TRACK 09 AUDIO
    TITLE "Sick Again"
    PERFORMER "Led Zeppelin"
    INDEX 01 38:50:08
Треклист:
1. Brandy & Coke (Trampled Under Foot – Initial Rough Mix)
2. Sick Again (Early Version)
3. In My Time Of Dying (Initial Rough Mix)
4. Houses Of The Holy (Rough Mix With Overdubs)
5. Everybody Makes It Through (In The Light Early Version/In Transit)
6. Boogie With Stu (Sunset Sound Mix)
7. Driving Through Kashmir (Kashmir Rough Orchestra Mix)

Код:

Exact Audio Copy V1.0 beta 3 from 29. August 2011
EAC extraction logfile from 20. February 2015, 15:43
Led Zeppelin / Physical Graffiti 40th Anniversary Deluxe[CD3]
Used drive  : PIONEER DVD-RW  DVR-111L   Adapter: 4  ID: 0
Read mode               : Secure
Utilize accurate stream : Yes
Defeat audio cache      : Yes
Make use of C2 pointers : No
Read offset correction                      : 48
Overread into Lead-In and Lead-Out          : No
Fill up missing offset samples with silence : Yes
Delete leading and trailing silent blocks   : No
Null samples used in CRC calculations       : Yes
Used interface                              : Installed external ASPI interface
Used output format              : User Defined Encoder
Selected bitrate                : 128 kBit/s
Quality                         : High
Add ID3 tag                     : No
Command line compressor         : C:\Program Files (x86)\Exact Audio Copy\wavpack-4.60.1\wavpack.exe
Additional command line options : -hm -w "Year=%year%" -w "Genre=%genre%" %source% %dest%
TOC of the extracted CD
     Track |   Start  |  Length  | Start sector | End sector
    ---------------------------------------------------------
        1  |  0:00.00 |  5:39.16 |         0    |    25440
        2  |  5:39.16 |  2:22.60 |     25441    |    36150
        3  |  8:02.01 | 10:48.07 |     36151    |    84757
        4  | 18:50.08 |  3:51.59 |     84758    |   102141
        5  | 22:41.67 |  6:29.36 |    102142    |   131352
        6  | 29:11.28 |  3:39.58 |    131353    |   147835
        7  | 32:51.11 |  8:41.08 |    147836    |   186918
Range status and errors
Selected range
     Filename G:\Rips by Alder\Led Zeppelin - Physical Graffiti 40th Anniversary Deluxe[CD3].wav
     Peak level 99.2 %
     Extraction speed 6.6 X
     Range quality 100.0 %
     Test CRC DC75489E
     Copy CRC DC75489E
     Copy OK
No errors occurred
AccurateRip summary
Track  1  not present in database
Track  2  not present in database
Track  3  not present in database
Track  4  not present in database
Track  5  not present in database
Track  6  not present in database
Track  7  not present in database
None of the tracks are present in the AccurateRip database
End of status report

Код:

REM GENRE Rock
REM DATE 1975
REM DISCID 5209BC07
REM COMMENT "ExactAudioCopy v1.0b3"
PERFORMER "Led Zeppelin"
TITLE "Physical Graffiti 40th Anniversary Deluxe[CD3]"
FILE "Led Zeppelin - Physical Graffiti 40th Anniversary Deluxe[CD3].wv" WAVE
  TRACK 01 AUDIO
    TITLE "Brandy & Coke (Trampled Under Foot) (Initial Rough Mix)"
    PERFORMER "Led Zeppelin"
    INDEX 01 00:00:00
  TRACK 02 AUDIO
    TITLE "Sick Again (Early Version)"
    PERFORMER "Led Zeppelin"
    INDEX 01 05:39:16
  TRACK 03 AUDIO
    TITLE "In My Time of Dying (Initial Rough Mix)"
    PERFORMER "Led Zeppelin"
    INDEX 01 08:02:01
  TRACK 04 AUDIO
    TITLE "Houses of the Holy (Rough Mix with Overdubs)"
    PERFORMER "Led Zeppelin"
    INDEX 01 18:50:08
  TRACK 05 AUDIO
    TITLE "Everybody Makes It Through (In the Light) (Early Version / In Transit)"
    PERFORMER "Led Zeppelin"
    INDEX 01 22:41:67
  TRACK 06 AUDIO
    TITLE "Boogie with Stu (Sunset Sound Mix) "
    PERFORMER "Led Zeppelin"
    INDEX 01 29:11:28
  TRACK 07 AUDIO
    TITLE "Driving Through Kashmir (Kashmir) (Rough Orchestra Mix)"
    PERFORMER "Led Zeppelin"
    INDEX 01 32:51:11
info [Профиль]  [ЛС] 

Сумраk

Пол: Пол:Муж

Стаж: 5 лет 7 месяцев

Сообщений: 65

Куба
Рейтинг

post 12-Мар-2015 23:01 (спустя 5 часов) [-]0[+]

[Цитировать] 

Сначала не понял... решил что Бонэм всё-таки сбежал с того света) ан нет..
info [Профиль]  [ЛС] 

slauer551

Пол: Пол:Муж

Стаж: 10 лет

Сообщений: 80

Эстония
Рейтинг

post 13-Мар-2015 14:12 (спустя 15 часов) [-]0[+]

[Цитировать] 

Альбом на века. kolob_117
info [Профиль]  [ЛС] 

kosm2121

Пол: Пол:Муж

Стаж: 7 лет 2 месяца

Сообщений: 2

Россия
Рейтинг

post 08-Июн-2015 23:41 (спустя 2 месяца 26 дней) [-]0[+]

[Цитировать] 

(kolob137) (kolob137) (kolob137) Дааааа!!!!! эти вещи нужно в коллеации иметь обяз!!!!
info [Профиль]  [ЛС] 
Показать сообщения:    
Ответить на тему

Текущее время: 08-Июл 04:39

Часовой пояс: GMT + 4



Вы не можете начинать темы
Вы не можете отвечать на сообщения
Вы не можете редактировать свои сообщения
Вы не можете удалять свои сообщения
Вы не можете голосовать в опросах
Вы не можете прикреплять файлы к сообщениям
Вы не можете скачивать файлы