Ошибка

(Electro-Punk / 8bit) Bondage Fairies - What You Didn't Know When You Hired Me - 2006, FLAC (image+.cue), lossless

Ответить на тему
 
Автор Сообщение

Fobosov

Пол: Пол:Муж

Стаж: 9 лет 6 месяцев

Сообщений: 73

Предупреждений: 1

Украина
Рейтинг

post 05-Июн-2013 09:57 0[+]

[Цитировать] 

Bondage Fairies - What You Didn't Know When You Hired Me


pic="http://s001.youpic.su/pictures/1370376000/fd49aae660b6bb5b90dcdc61a0e14b23.jpg"


Жанр: Electro-Punk / 8bit
Год издания данного носителя: 2006
Страна-производитель носителя: Sweden
Лейбл: Lobotom Records
Каталоговый номер: LOBOTOM18
Аудио кодек: FLAC
Тип рипа: image+.cue
Битрейт аудио: lossless
Продолжительность: 00:32:06
Полиграфия: Отсутствует
Треклист:
01.Faze (2:22)
02.He-Man (2:52)
03.Miss Volkova (2:21)
04.Levenus Supremus (2:04)
05.Disco Fever (4:07)
06.Äppeltysken (2:05)
07.Indie Girl (3:11)
08.Cancerfest (1:26)
09.Gay Wedding (3:21)
10.Pink-Eye Paranoia (2:27)
11.What You Didn't Know When You Hired Me (1:01)
12.Finkus Cooked My Cock (1:12)
13.Gay Wedding (Instrumental) (1:11)
14.Wanna Dance? (2:27)
Exact Audio Copy V0.99 prebeta 1 from 25. May 2007 

EAC extraction logfile from 24. July 2007, 17:08

Bondage Fairies / What You Didn't Know When You Hired Me

Used drive : SAMSUNG DVD-ROM SD-616T Adapter: 0 ID: 0

Read mode : Secure
Utilize accurate stream : Yes
Defeat audio cache : Yes
Make use of C2 pointers : No

Read offset correction : 1182
Overread into Lead-In and Lead-Out : No
Fill up missing offset samples with silence : Yes
Delete leading and trailing silent blocks : No
Used interface : Installed external ASPI interface

Used output format : User Defined Encoder
Selected bitrate : 192 kBit/s
Quality : High
Add ID3 tag : No
Command line compressor : C:Program FilesFlac's Audiobinflac.exe
Additional command line options : V -T "artist=%a" -T "title=%t" -T "album=%g" -T "date=%y" -T "tracknumber=%n" -T "genre=%m" -T "comment=High Quality, EAC secure, Lossless flac " %s

TOC of the extracted CD

Track | Start | Length | Start sector | End sector
---------------------------------------------------------
1 | 0:00.00 | 2:22.25 | 0 | 10674
2 | 2:22.25 | 2:51.41 | 10675 | 23540
3 | 5:13.66 | 2:21.16 | 23541 | 34131
4 | 7:35.07 | 2:04.12 | 34132 | 43443
5 | 9:39.19 | 4:07.03 | 43444 | 61971
6 | 13:46.22 | 2:04.69 | 61972 | 71340
7 | 15:51.16 | 3:10.73 | 71341 | 85663
8 | 19:02.14 | 1:25.38 | 85664 | 92076
9 | 20:27.52 | 3:21.14 | 92077 | 107165
10 | 23:48.66 | 2:26.66 | 107166 | 118181
11 | 26:15.57 | 1:01.31 | 118182 | 122787
12 | 27:17.13 | 1:11.71 | 122788 | 128183
13 | 28:29.09 | 1:10.59 | 128184 | 133492
14 | 29:39.68 | 2:26.62 | 133493 | 144504

Range status and errors

Selected range

Filename C:Audio ripBondage Fairies - What You Didn't Know When You Hired Me.wav

Peak level 100.0 %
Range quality 100.0 %
Copy CRC 58FF76E2
Copy OK

AccurateRip summary
Track 1 accurately ripped (confidence 1) [4EAD6801]
Track 2 accurately ripped (confidence 1) [43C14170]
Track 3 accurately ripped (confidence 1) [9B3C2140]
Track 4 accurately ripped (confidence 1) [97BB18FB]
Track 5 accurately ripped (confidence 1) [3D131D06]
Track 6 accurately ripped (confidence 1) [8FC68B0C]
Track 7 accurately ripped (confidence 1) [DAA46998]
Track 8 accurately ripped (confidence 1) [C02F85F0]
Track 9 accurately ripped (confidence 1) [0934C924]
Track 10 accurately ripped (confidence 1) [03345584]
Track 11 accurately ripped (confidence 1) [F546BAA2]
Track 12 accurately ripped (confidence 1) [E9D2081A]
Track 13 accurately ripped (confidence 1) [372C190E]
Track 14 accurately ripped (confidence 1) [9EF6AD86]
No errors occurred

End of status report
REM GENRE Electro-punk 
REM DATE 2005
REM DISCID B707860E
REM COMMENT "ExactAudioCopy v0.99pb1"
PERFORMER "Bondage Fairies"
TITLE "What You Didn't Know When You Hired Me"
FILE "Bondage Fairies - What You Didn't Know When You Hired Me.flac" WAVE
TRACK 01 AUDIO
TITLE "Faze"
PERFORMER "Bondage Fairies"
INDEX 01 00:00:00
TRACK 02 AUDIO
TITLE "He-Man"
PERFORMER "Bondage Fairies"
INDEX 00 02:20:43
INDEX 01 02:22:25
TRACK 03 AUDIO
TITLE "Miss Volkova"
PERFORMER "Bondage Fairies"
INDEX 00 05:12:11
INDEX 01 05:13:66
TRACK 04 AUDIO
TITLE "Levenus Supremus"
PERFORMER "Bondage Fairies"
INDEX 00 07:33:28
INDEX 01 07:35:07
TRACK 05 AUDIO
TITLE "Disco Fever"
PERFORMER "Bondage Fairies"
INDEX 00 09:37:20
INDEX 01 09:39:19
TRACK 06 AUDIO
TITLE "Äppeltysken"
PERFORMER "Bondage Fairies"
INDEX 00 13:44:23
INDEX 01 13:46:22
TRACK 07 AUDIO
TITLE "Indie Girl"
PERFORMER "Bondage Fairies"
INDEX 00 15:49:15
INDEX 01 15:51:16
TRACK 08 AUDIO
TITLE "Cancerfest"
PERFORMER "Bondage Fairies"
INDEX 00 19:00:14
INDEX 01 19:02:14
TRACK 09 AUDIO
TITLE "Gay Wedding"
PERFORMER "Bondage Fairies"
INDEX 00 20:25:70
INDEX 01 20:27:52
TRACK 10 AUDIO
TITLE "Pink-Eye Paranoia"
PERFORMER "Bondage Fairies"
INDEX 00 23:46:65
INDEX 01 23:48:66
TRACK 11 AUDIO
TITLE "What You Didn't Know When You Hired Me"
PERFORMER "Bondage Fairies"
INDEX 00 26:13:57
INDEX 01 26:15:57
TRACK 12 AUDIO
TITLE "Finkus Cooked My Cock"
PERFORMER "Bondage Fairies"
INDEX 00 27:15:31
INDEX 01 27:17:13
TRACK 13 AUDIO
TITLE "Gay Wedding (Instrumental)"
PERFORMER "Bondage Fairies"
INDEX 00 28:27:07
INDEX 01 28:29:09
TRACK 14 AUDIO
TITLE "Wanna Dance?"
PERFORMER "Bondage Fairies"
INDEX 00 29:38:13
INDEX 01 29:39:68

info [Профиль]  [ЛС] 

BlowJoby

Пол: Пол:Муж

Стаж: 8 лет 10 месяцев

Сообщений: 9

Россия
Рейтинг

post 01-Июл-2013 14:42 (спустя 26 дней) [-]0[+]

[Цитировать] 

А нет ли в ALAC? Буду очень благодарен за релиз. :3
info [Профиль]  [ЛС] 
Показать сообщения:    
Ответить на тему

Текущее время: 27-Май 15:35

Часовой пояс: GMT + 4



Вы не можете начинать темы
Вы не можете отвечать на сообщения
Вы не можете редактировать свои сообщения
Вы не можете удалять свои сообщения
Вы не можете голосовать в опросах
Вы не можете прикреплять файлы к сообщениям
Вы не можете скачивать файлы