Ошибка

(Dark Ambient, Industrial, Tribal) Tzolk'in ‎– Haab' - 2008, FLAC (tracks+.cue)+cover, lossless

Ответить на тему
 
Автор Сообщение

Fobosov

Пол: Пол:Муж

Стаж: 9 лет 6 месяцев

Сообщений: 73

Предупреждений: 1

Украина
Рейтинг

post 26-Апр-2013 20:14 0[+]

[Цитировать] 

Tzolk'in ‎– Haab'


pic="http://s001.youpic.su/pictures/1366920000/b304949584af3a416edc5b65523f505a.jpeg"


Жанр: Dark Ambient, Industrial, Tribal
Год издания данного носителя: 2008
Страна-производитель носителя: Germany
Лейбл: Ant-Zen
Каталоговый номер: ACT210
Аудио кодек: FLAC
Тип рипа: tracks+.cue
Битрейт аудио: lossless
Продолжительность: 00:53:28
Источник (релизер): what.cd (LostInSound)
Полиграфия: Присутствует
Треклист:
01. Muwan (6:04)
02. Kumk'U (6:48)
03. Uayeb (6:49)
04. K'Ank'In (6:42)
05. Sotz (7:16)
06. K'ayab (6:12)
07. Yaxk'In (6:44)
08. Xul (6:54)
Exact Audio Copy V0.99 prebeta 3 from 28. July 2007 

EAC extraction logfile from 7. February 2008, 21:54

Tzolk'In / Haab'

Used drive : PLEXTOR DVDR PX-716AL Adapter: 3 ID: 1

Read mode : Secure
Utilize accurate stream : Yes
Defeat audio cache : Yes
Make use of C2 pointers : No

Read offset correction : 30
Overread into Lead-In and Lead-Out : No
Fill up missing offset samples with silence : Yes
Delete leading and trailing silent blocks : No
Null samples used in CRC calculations : Yes
Used interface : Installed external ASPI interface
Gap handling : Appended to previous track

Used output format : User Defined Encoder
Selected bitrate : 192 kBit/s
Quality : High
Add ID3 tag : No
Command line compressor : C:ProgrammeExact Audio CopyFlacflac.exe
Additional command line options : -8 -A tukey(0.25) -A gauss(0.1875) -b 4096 -V -T "artist=%a" -T "title=%t" -T "album=%g" -T "date=%y" -T "tracknumber=%n" -T "genre=%m" %s --sector-align

TOC of the extracted CD

Track | Start | Length | Start sector | End sector
---------------------------------------------------------
1 | 0:00.00 | 6:04.25 | 0 | 27324
2 | 6:04.25 | 6:47.62 | 27325 | 57911
3 | 12:52.12 | 6:48.45 | 57912 | 88556
4 | 19:40.57 | 6:42.13 | 88557 | 118719
5 | 26:22.70 | 7:15.51 | 118720 | 151395
6 | 33:38.46 | 6:12.13 | 151396 | 179308
7 | 39:50.59 | 6:44.15 | 179309 | 209623
8 | 46:34.74 | 6:54.00 | 209624 | 240673

Track 1

Filename c:workTzolk'In - Haab'�1 - Muwan.wav

Pre-gap length 0:00:02.00

Peak level 96.6 %
Track quality 100.0 %
Test CRC FFEAB6B6
Copy CRC FFEAB6B6
Track not present in AccurateRip database
Copy OK

Track 2

Filename c:workTzolk'In - Haab'�2 - Kumk'U.wav

Pre-gap length 0:00:00.34

Peak level 96.6 %
Track quality 100.0 %
Test CRC AA35FD90
Copy CRC AA35FD90
Track not present in AccurateRip database
Copy OK

Track 3

Filename c:workTzolk'In - Haab'�3 - Uayeb.wav

Pre-gap length 0:00:00.32

Peak level 96.6 %
Track quality 100.0 %
Test CRC 385D80B0
Copy CRC 385D80B0
Track not present in AccurateRip database
Copy OK

Track 4

Filename c:workTzolk'In - Haab'�4 - K'Ank'In.wav

Pre-gap length 0:00:00.42

Peak level 96.6 %
Track quality 100.0 %
Test CRC 4CA98FC1
Copy CRC 4CA98FC1
Track not present in AccurateRip database
Copy OK

Track 5

Filename c:workTzolk'In - Haab'�5 - Sotz.wav

Pre-gap length 0:00:01.00

Peak level 96.6 %
Track quality 99.9 %
Test CRC 229BE09D
Copy CRC 229BE09D
Track not present in AccurateRip database
Copy OK

Track 6

Filename c:workTzolk'In - Haab'�6 - K'ayab.wav

Pre-gap length 0:00:00.25

Peak level 96.6 %
Track quality 100.0 %
Test CRC 14D48EEC
Copy CRC 14D48EEC
Track not present in AccurateRip database
Copy OK

Track 7

Filename c:workTzolk'In - Haab'�7 - Yaxk'In.wav

Pre-gap length 0:00:00.32

Peak level 96.6 %
Track quality 100.0 %
Test CRC E8500B93
Copy CRC E8500B93
Track not present in AccurateRip database
Copy OK

Track 8

Filename c:workTzolk'In - Haab'�8 - Xul.wav

Pre-gap length 0:00:00.16

Peak level 96.6 %
Track quality 100.0 %
Test CRC E9BB8610
Copy CRC E9BB8610
Track not present in AccurateRip database
Copy OK

None of the tracks are present in the AccurateRip database

No errors occurred

End of status report
REM GENRE Electronic 
REM DATE 2008
REM DISCID 6D0C8808
REM COMMENT "ExactAudioCopy v0.99pb3"
PERFORMER "Tzolk'In"
TITLE "Haab'"
FILE "Tzolk'In - Haab'�1 - Muwan.wav" WAVE
TRACK 01 AUDIO
TITLE "Muwan"
PERFORMER "Tzolk'In"
INDEX 01 00:00:00
TRACK 02 AUDIO
TITLE "Kumk'U"
PERFORMER "Tzolk'In"
INDEX 00 06:03:74
FILE "Tzolk'In - Haab'�2 - Kumk'U.wav" WAVE
INDEX 01 00:00:00
TRACK 03 AUDIO
TITLE "Uayeb"
PERFORMER "Tzolk'In"
INDEX 00 06:47:38
FILE "Tzolk'In - Haab'�3 - Uayeb.wav" WAVE
INDEX 01 00:00:00
TRACK 04 AUDIO
TITLE "K'Ank'In"
PERFORMER "Tzolk'In"
INDEX 00 06:48:13
FILE "Tzolk'In - Haab'�4 - K'Ank'In.wav" WAVE
INDEX 01 00:00:00
TRACK 05 AUDIO
TITLE "Sotz"
PERFORMER "Tzolk'In"
INDEX 00 06:41:13
FILE "Tzolk'In - Haab'�5 - Sotz.wav" WAVE
INDEX 01 00:00:00
TRACK 06 AUDIO
TITLE "K'ayab"
PERFORMER "Tzolk'In"
INDEX 00 07:15:32
FILE "Tzolk'In - Haab'�6 - K'ayab.wav" WAVE
INDEX 01 00:00:00
TRACK 07 AUDIO
TITLE "Yaxk'In"
PERFORMER "Tzolk'In"
INDEX 00 06:11:64
FILE "Tzolk'In - Haab'�7 - Yaxk'In.wav" WAVE
INDEX 01 00:00:00
TRACK 08 AUDIO
TITLE "Xul"
PERFORMER "Tzolk'In"
INDEX 00 06:44:03
FILE "Tzolk'In - Haab'�8 - Xul.wav" WAVE
INDEX 01 00:00:00
Второй альбом франко-бельгийского дуэта TZOLK'IN снова отправляет слушателей в захватывающее дух и по-настоящему волнительное путешествие по красочным, окутанным покровом смертельной тайны и жестокой мистики мирам мрачноватого эмбиента, современной ритуально-трибальной музыки и экспериментальной idm-электроники, вдохновленных мифологией древней цивилизации майя. На мой взгляд, восемь композиций диска "Haab'" звучат в музыкальном плане если не божественно, то безупречно. Мы имеем дело с очень качественным, грандиозным, эпическим по размаху индустриальным эмбиентом, в котором присутствуют воинственные, трагические и медитативные моменты. Я считаю, что новый альбом проекта по многим параметрам превосходит дебют 2004 года "Tzolk'in" (Divine Comedy Records). На "Haab'" музыкантам удалось найти просто идеальный баланс между причудливыми, плавно извивающимися, угнетающими и тяжело нависающими перкуссионными прогрессиями и грациозными электронными мелодиями EMPUSAE (которые мы могли слышать на альбоме "Error 404: Metaphorical Loss") и характерными для FLINT GLASS гибкими, массивно вибрирующими урбанистическими ритмами, потусторонними голосами и инопланетными эмбиентными ландшафтами. Причем, за основу, вероятнее всего, были взяты треки бельгийца, а французский музыкант аккуратно обогатил их собственными звуковыми решениями. В итоге альбом "Haab'" звучит как мощный, глубоко задевающий на эмоциональном уровне, экзотический атмосферно-ритмический саундтрек, воспевающий фантомы и обряды проклятой древней цивилизации. Под мерную и тяжелую воинственную ритмическую поступь и громовые раскаты из недр мрачных композиций TZOLK'IN на свет проливаются красивейшие мелодии, от которых по спине бегут мурашки или вырастают невидимые крылья, позволяющие в мыслях улететь в сторону Амазонки. Думаю, что отдельным мелодическим откровениям на альбоме мог бы позавидовать сам Бетховен. Действительно, невозможно спокойно реагировать на такие великолепные и величественные мелодичные композиции, как "Muwan", "Kumk'u", "Uayeb" или "K'ank'in". Конечно же, помимо перестукивающихся и перекатывающихся ритмов и густых мелодий в композициях дуэта присутствует много устрашающих шорохов и эхо, протяжных звуков труб, громыханий церемониальных барабанов и тамтамов, стонущей, звенящей и гудящей электроники и мимолетных шумовых приливов и отливов индустриального толка. В нескольких треках ("Sotz", "K'ayab", "Yaxk'in", "Xul") музыканты делают ставку на более динамичный, хлесткий, воинственный и грозный саунд, выдавая на гора потрясающие по драйву вещи, которыми можно смело поливать клубную публику и заправлять стереосистемы автомобилей. Так получилось, что последние композиции располагаются во второй части альбома, а первая звучит более спокойно, хотя специфического драйва ей также не занимать (еще неизвестно, что в данном случае работает эффективнее). Вывод из всего вышесказанного напрашивается сам собой: "Haab'" - настоящий шедевр ритуально-трибального индустриального эмбиента, на котором органично переплелись стили EMPUSAE и FLINT GLASS и который рекомендуется для обязательного приобретения всеми поклонниками качественной современной электронной музыки. Это именно тот случай, когда довольными должны остаться как фанаты дарк эмбиента, так и ценители ритмического нойза, индастриэла и idm-электроники. Я считаю, что перед нами лучший жанровый релиз немецкого лейбла с момента издания альбома SQUAREMETER "Aswad"
(с) vAlien/DJ Commando LABELLA

info [Профиль]  [ЛС] 
Показать сообщения:    
Ответить на тему

Текущее время: 24-Май 00:26

Часовой пояс: GMT + 4



Вы не можете начинать темы
Вы не можете отвечать на сообщения
Вы не можете редактировать свои сообщения
Вы не можете удалять свои сообщения
Вы не можете голосовать в опросах
Вы не можете прикреплять файлы к сообщениям
Вы не можете скачивать файлы