Ошибка

(Industrial, Experimental) How To Destroy Angels - Welcome Oblivion (White Label CD Edition) - 2013, FLAC (tracks+.cue)+cover, lossless

Ответить на тему
 
Автор Сообщение

Resistance

Пол: Пол:Муж

Стаж: 12 лет

Сообщений: 3640

Россия
Рейтинг

post 10-Мар-2013 13:06 0[+]

[Цитировать] 

How To Destroy Angels - Welcome Oblivion (White Label CD Edition)


pic="http://i52.fastpic.ru/big/2013/0305/a1/0a3ecd72f6a4ca9f0aa851f8e94677a1.jpg"


Жанр: Industrial, Experimental
Год издания данного носителя: 2013
Страна-производитель носителя: USA
Лейбл: Sony Music
Каталоговый номер: 88765475461
Аудио кодек: FLAC
Тип рипа: tracks+.cue
Битрейт аудио: lossless
Продолжительность: 01:15:15
Полиграфия: Присутствует
Треклист:
01. The wake-up (1:43)
02. Keep it together (4:27)
03. And the sky began to scream (3:57)
04. Ice age (6:56)
05. Welcome oblivion (3:47)
06. On the wing (4:52)
07. Too late, all gone (6:15)
08. The province of fear (4:13)
09. How long? (3:54)
10. Strings and attractors (4:28)
11. Recursive self-improvement (6:28)
12. Unintended consequences (5:18)
13. We fade away (6:44)
14. The loop closes (4:50)
15. Hallowed ground (7:19)
Exact Audio Copy V1.0 beta 2 from 29. April 2011 

EAC extraction logfile from 8. March 2013, 13:27

How To Destroy Angels / Welcome oblivion

Used drive : BENQ DVD DD DW1640 Adapter: 0 ID: 0

Read mode : Secure
Utilize accurate stream : Yes
Defeat audio cache : Yes
Make use of C2 pointers : No

Read offset correction : 618
Overread into Lead-In and Lead-Out : No
Fill up missing offset samples with silence : Yes
Delete leading and trailing silent blocks : No
Null samples used in CRC calculations : Yes
Used interface : Native Win32 interface for Win NT & 2000
Gap handling : Appended to previous track

Used output format : User Defined Encoder
Selected bitrate : 896 kBit/s
Quality : High
Add ID3 tag : No
Command line compressor : C:Program Files (x86)Exact Audio CopyFlacflac.exe
Additional command line options : -8 -V -T "ARTIST=%artist%" -T "TITLE=%title%" -T "ALBUM=%albumtitle%" -T "DATE=%year%" -T "TRACKNUMBER=%tracknr%" -T "GENRE=%genre%" -T "PERFORMER=%albuminterpret%" -T "COMPOSER=%composer%" %haslyrics%--tag-from-file=LYRICS

TOC of the extracted CD

Track | Start | Length | Start sector | End sector
---------------------------------------------------------
1 | 0:00.00 | 1:42.64 | 0 | 7713
2 | 1:42.64 | 4:26.60 | 7714 | 27723
3 | 6:09.49 | 3:56.41 | 27724 | 45464
4 | 10:06.15 | 6:56.34 | 45465 | 76698
5 | 17:02.49 | 3:47.14 | 76699 | 93737
6 | 20:49.63 | 4:52.32 | 93738 | 115669
7 | 25:42.20 | 6:14.48 | 115670 | 143767
8 | 31:56.68 | 4:13.18 | 143768 | 162760
9 | 36:10.11 | 3:53.52 | 162761 | 180287
10 | 40:03.63 | 4:28.25 | 180288 | 200412
11 | 44:32.13 | 6:27.69 | 200413 | 229506
12 | 51:00.07 | 5:18.03 | 229507 | 253359
13 | 56:18.10 | 6:44.00 | 253360 | 283659
14 | 63:02.10 | 4:50.13 | 283660 | 305422
15 | 67:52.23 | 7:18.60 | 305423 | 338332

Track 1

Filename F:mp3sFull AlbumsHow to destroy angels - Welcome oblivion (2013) (Whitelabel-CD)�1 The wake-up.wav

Pre-gap length 0:00:02.00

Peak level 100.0 %
Extraction speed 4.7 X
Track quality 100.0 %
Test CRC D7B58F5C
Copy CRC D7B58F5C
Track not present in AccurateRip database
Copy OK

Track 2

Filename F:mp3sFull AlbumsHow to destroy angels - Welcome oblivion (2013) (Whitelabel-CD)�2 Keep it together.wav

Peak level 100.0 %
Extraction speed 6.1 X
Track quality 100.0 %
Test CRC 763E20D3
Copy CRC 763E20D3
Track not present in AccurateRip database
Copy OK

Track 3

Filename F:mp3sFull AlbumsHow to destroy angels - Welcome oblivion (2013) (Whitelabel-CD)�3 And the sky began to scream.wav

Peak level 100.0 %
Extraction speed 6.5 X
Track quality 100.0 %
Test CRC CFEA52B4
Copy CRC CFEA52B4
Track not present in AccurateRip database
Copy OK

Track 4

Filename F:mp3sFull AlbumsHow to destroy angels - Welcome oblivion (2013) (Whitelabel-CD)�4 Ice age.wav

Peak level 100.0 %
Extraction speed 7.5 X
Track quality 100.0 %
Test CRC 321AD3EC
Copy CRC 321AD3EC
Track not present in AccurateRip database
Copy OK

Track 5

Filename F:mp3sFull AlbumsHow to destroy angels - Welcome oblivion (2013) (Whitelabel-CD)�5 Welcome oblivion.wav

Peak level 100.0 %
Extraction speed 7.5 X
Track quality 100.0 %
Test CRC D75FA0E2
Copy CRC D75FA0E2
Track not present in AccurateRip database
Copy OK

Track 6

Filename F:mp3sFull AlbumsHow to destroy angels - Welcome oblivion (2013) (Whitelabel-CD)�6 On the wing.wav

Peak level 100.0 %
Extraction speed 8.3 X
Track quality 100.0 %
Test CRC BDAE5D0B
Copy CRC BDAE5D0B
Track not present in AccurateRip database
Copy OK

Track 7

Filename F:mp3sFull AlbumsHow to destroy angels - Welcome oblivion (2013) (Whitelabel-CD)�7 Too late, all gone.wav

Peak level 100.0 %
Extraction speed 8.9 X
Track quality 100.0 %
Test CRC 477C772E
Copy CRC 477C772E
Track not present in AccurateRip database
Copy OK

Track 8

Filename F:mp3sFull AlbumsHow to destroy angels - Welcome oblivion (2013) (Whitelabel-CD)�8 The province of fear.wav

Peak level 100.0 %
Extraction speed 9.0 X
Track quality 100.0 %
Test CRC 3EE3C028
Copy CRC 3EE3C028
Track not present in AccurateRip database
Copy OK

Track 9

Filename F:mp3sFull AlbumsHow to destroy angels - Welcome oblivion (2013) (Whitelabel-CD)�9 How long.wav

Peak level 100.0 %
Extraction speed 7.6 X
Track quality 99.9 %
Test CRC BEB1DF1D
Copy CRC BEB1DF1D
Track not present in AccurateRip database
Copy OK

Track 10

Filename F:mp3sFull AlbumsHow to destroy angels - Welcome oblivion (2013) (Whitelabel-CD)10 Strings and attractors.wav

Peak level 100.0 %
Extraction speed 9.6 X
Track quality 100.0 %
Test CRC DADBEE39
Copy CRC DADBEE39
Track not present in AccurateRip database
Copy OK

Track 11

Filename F:mp3sFull AlbumsHow to destroy angels - Welcome oblivion (2013) (Whitelabel-CD)11 Recursive self-improvement.wav

Peak level 100.0 %
Extraction speed 10.2 X
Track quality 100.0 %
Test CRC 20EF8250
Copy CRC 20EF8250
Track not present in AccurateRip database
Copy OK

Track 12

Filename F:mp3sFull AlbumsHow to destroy angels - Welcome oblivion (2013) (Whitelabel-CD)12 Unintended consequences.wav

Peak level 100.0 %
Extraction speed 9.1 X
Track quality 99.9 %
Test CRC 02F1C69A
Copy CRC 02F1C69A
Track not present in AccurateRip database
Copy OK

Track 13

Filename F:mp3sFull AlbumsHow to destroy angels - Welcome oblivion (2013) (Whitelabel-CD)13 We fade away.wav

Peak level 100.0 %
Extraction speed 11.1 X
Track quality 100.0 %
Test CRC 9B3859BE
Copy CRC 9B3859BE
Track not present in AccurateRip database
Copy OK

Track 14

Filename F:mp3sFull AlbumsHow to destroy angels - Welcome oblivion (2013) (Whitelabel-CD)14 The loop closes.wav

Peak level 100.0 %
Extraction speed 9.6 X
Track quality 99.9 %
Test CRC 9145E752
Copy CRC 9145E752
Track not present in AccurateRip database
Copy OK

Track 15

Filename F:mp3sFull AlbumsHow to destroy angels - Welcome oblivion (2013) (Whitelabel-CD)15 Hallowed ground.wav

Peak level 99.9 %
Extraction speed 11.0 X
Track quality 100.0 %
Test CRC C0A2B18A
Copy CRC C0A2B18A
Track not present in AccurateRip database
Copy OK

None of the tracks are present in the AccurateRip database

No errors occurred

End of status report

==== Log checksum D302A40B5EC4231E653B197B8BDDE87AF7926D3BF907B8A11ACF0FB3FC39B3DB ====
REM DISCID B9119F0F 
REM COMMENT "ExactAudioCopy v1.0b2"
FILE "01 The wake-up.wav" WAVE
TRACK 01 AUDIO
INDEX 01 00:00:00
FILE "02 Keep it together.wav" WAVE
TRACK 02 AUDIO
FLAGS DCP
INDEX 01 00:00:00
FILE "03 And the sky began to scream.wav" WAVE
TRACK 03 AUDIO
FLAGS DCP
INDEX 01 00:00:00
FILE "04 Ice age.wav" WAVE
TRACK 04 AUDIO
FLAGS DCP
INDEX 01 00:00:00
FILE "05 Welcome oblivion.wav" WAVE
TRACK 05 AUDIO
FLAGS DCP
INDEX 01 00:00:00
FILE "06 On the wing.wav" WAVE
TRACK 06 AUDIO
FLAGS DCP
INDEX 01 00:00:00
FILE "07 Too late, all gone.wav" WAVE
TRACK 07 AUDIO
FLAGS DCP
INDEX 01 00:00:00
FILE "08 The province of fear.wav" WAVE
TRACK 08 AUDIO
FLAGS DCP
INDEX 01 00:00:00
FILE "09 How long.wav" WAVE
TRACK 09 AUDIO
FLAGS DCP
INDEX 01 00:00:00
FILE "10 Strings and attractors.wav" WAVE
TRACK 10 AUDIO
FLAGS DCP
INDEX 01 00:00:00
FILE "11 Recursive self-improvement.wav" WAVE
TRACK 11 AUDIO
FLAGS DCP
INDEX 01 00:00:00
FILE "12 Unintended consequences.wav" WAVE
TRACK 12 AUDIO
FLAGS DCP
INDEX 01 00:00:00
FILE "13 We fade away.wav" WAVE
TRACK 13 AUDIO
FLAGS DCP
INDEX 01 00:00:00
FILE "14 The loop closes.wav" WAVE
TRACK 14 AUDIO
FLAGS DCP
INDEX 01 00:00:00
FILE "15 Hallowed ground.wav" WAVE
TRACK 15 AUDIO
FLAGS DCP
INDEX 01 00:00:00
info [Профиль]  [ЛС] 

syntaxerror

Пол: Пол:Муж

Стаж: 10 лет

Сообщений: 49

Рейтинг

post 10-Мар-2013 15:44 (спустя 2 часа 37 минут) [-]0[+]

[Цитировать] 

Очень крутой альбом.
info [Профиль]  [ЛС] 
Показать сообщения:    
Ответить на тему

Текущее время: 22-Май 09:33

Часовой пояс: GMT + 4



Вы не можете начинать темы
Вы не можете отвечать на сообщения
Вы не можете редактировать свои сообщения
Вы не можете удалять свои сообщения
Вы не можете голосовать в опросах
Вы не можете прикреплять файлы к сообщениям
Вы не можете скачивать файлы