Ошибка

(Trance) Richard Durand - The World (2012) - 2012, FLAC (image+.cue), lossless

Ответить на тему
 
Автор Сообщение

bi0skin

Пол: Пол:Муж

Стаж: 9 лет 6 месяцев

Сообщений: 38

Рейтинг

post 06-Янв-2013 18:07 0[+]

[Цитировать] 

Richard Durand - The World (2012)


pic="http://s020.radikal.ru/i702/1301/c2/da4c0da6e744.jpg"


Жанр: Trance
Год издания данного носителя: 2012
Лейбл: Open Gate Records
Каталоговый номер: ПРЗ CD06018
Аудио кодек: FLAC
Тип рипа: image+.cue
Битрейт аудио: lossless
Продолжительность: 01:17:05
Полиграфия: Отсутствует
Треклист:
01. In Control (intro) (1:25)
02. Take Your Time (feat Denis Sender) (4:54)
03. Crashed (with Paul Oakenfold) (5:20)
04. Stand Again (feat Leah) (4:54)
05. Free Fall (feat Stefan Viljoen) (4:39)
06. Loose Unit (with TyDi) (5:02)
07. Pleasure (with Protoculture) (5:31)
08. Zoom (5:06)
09. Sequence (3:56)
10. Last Train To Moscow (with Bobina) (6:21)
11. Devils Inside (with Heatbeat) (5:21)
12. Trancefusion (5:49)
13. Veda (feat Progressive Brothers) (4:35)
14. Chopstick (5:56)
15. Signs (with Huge Euge) (4:24)
16. Paint The Sky (with Pedro Del Mar feat Roberta Harrison - bonus track) (3:46)
Exact Audio Copy V1.0 beta 3 from 29. August 2011 

EAC extraction logfile from 3. January 2013, 17:20

Richard Durand / The World

Used drive : HL-DT-STDVDRAM GH22NS40 Adapter: 1 ID: 1

Read mode : Secure
Utilize accurate stream : Yes
Defeat audio cache : Yes
Make use of C2 pointers : No

Read offset correction : 667
Overread into Lead-In and Lead-Out : No
Fill up missing offset samples with silence : Yes
Delete leading and trailing silent blocks : No
Null samples used in CRC calculations : Yes
Used interface : Native Win32 interface for Win NT & 2000

Used output format : User Defined Encoder
Selected bitrate : 320 kBit/s
Quality : High
Add ID3 tag : No
Command line compressor : D:ПрограммыEACExact Audio CopyFlacflac.exe
Additional command line options : -V -8 -T "Date=%year%" -T "Genre=%genre%" %source%

TOC of the extracted CD

Track | Start | Length | Start sector | End sector
---------------------------------------------------------
1 | 0:00.00 | 1:25.45 | 0 | 6419
2 | 1:25.45 | 4:54.39 | 6420 | 28508
3 | 6:20.09 | 5:20.00 | 28509 | 52508
4 | 11:40.09 | 4:54.39 | 52509 | 74597
5 | 16:34.48 | 4:39.50 | 74598 | 95572
6 | 21:14.23 | 5:02.23 | 95573 | 118245
7 | 26:16.46 | 5:31.02 | 118246 | 143072
8 | 31:47.48 | 5:06.31 | 143073 | 166053
9 | 36:54.04 | 3:56.14 | 166054 | 183767
10 | 40:50.18 | 6:21.58 | 183768 | 212400
11 | 47:12.01 | 5:21.27 | 212401 | 236502
12 | 52:33.28 | 5:49.37 | 236503 | 262714
13 | 58:22.65 | 4:35.35 | 262715 | 283374
14 | 62:58.25 | 5:56.21 | 283375 | 310095
15 | 68:54.46 | 4:24.03 | 310096 | 329898
16 | 73:18.49 | 3:46.38 | 329899 | 346886

Range status and errors

Selected range

Filename E:Richard Durand - The World 2012Richard Durand - The World.wav

Peak level 100.0 %
Extraction speed 2.1 X
Range quality 100.0 %
Test CRC D87DD2F5
Copy CRC D87DD2F5
Copy OK

No errors occurred

AccurateRip summary
Track 1 not present in database
Track 2 not present in database
Track 3 not present in database
Track 4 not present in database
Track 5 not present in database
Track 6 not present in database
Track 7 not present in database
Track 8 not present in database
Track 9 not present in database
Track 10 not present in database
Track 11 not present in database
Track 12 not present in database
Track 13 not present in database
Track 14 not present in database
Track 15 not present in database
Track 16 not present in database
None of the tracks are present in the AccurateRip database

End of status report

==== Log checksum 5A5EA909007FA9B017FB429402C7236D900CA0A8FD0C4CD9BEACEDADC5169126 ====
REM GENRE Trance 
REM DATE 2012
REM DISCID E2121110
REM COMMENT "ExactAudioCopy v1.0b3"
PERFORMER "Richard Durand"
TITLE "The World"
FILE "Richard Durand - The World.flac" WAVE
TRACK 01 AUDIO
TITLE "01 In Control (Intro)"
PERFORMER "01 Richard Durand"
FLAGS DCP
INDEX 01 00:00:00
TRACK 02 AUDIO
TITLE "02 Take Your Time"
PERFORMER "02 Richard Durand featuring Denis Sender"
FLAGS DCP
INDEX 01 01:25:45
TRACK 03 AUDIO
TITLE "03 Crashed "
PERFORMER "03 Richard Durand with Paul Oakenfold"
FLAGS DCP
INDEX 01 06:20:09
TRACK 04 AUDIO
TITLE "04 Stand Again "
PERFORMER "04 Richard Durand featuring Leah"
FLAGS DCP
INDEX 01 11:40:09
TRACK 05 AUDIO
TITLE "05 Free Fall "
PERFORMER "05 Richard Durand featuring Stefan Viljoen"
FLAGS DCP
INDEX 01 16:34:48
TRACK 06 AUDIO
TITLE "06 Loose Unit "
PERFORMER "06 Richard Durand with tyDi"
FLAGS DCP
INDEX 01 21:14:23
TRACK 07 AUDIO
TITLE "07 Pleasure "
PERFORMER "07 Richard Durand with Protoculture"
FLAGS DCP
INDEX 01 26:16:46
TRACK 08 AUDIO
TITLE "Zoom"
PERFORMER "08 Richard Durand"
FLAGS DCP
INDEX 01 31:47:48
TRACK 09 AUDIO
TITLE "Sequence"
PERFORMER "09 Richard Durand"
FLAGS DCP
INDEX 01 36:54:04
TRACK 10 AUDIO
TITLE "10 Last Train To Moscow "
PERFORMER "10 Richard Durand with Bobina"
FLAGS DCP
INDEX 01 40:50:18
TRACK 11 AUDIO
TITLE "11 Devils Inside "
PERFORMER "11 Richard Durand with Heatbeat"
FLAGS DCP
INDEX 01 47:12:01
TRACK 12 AUDIO
TITLE "Trancefusion"
PERFORMER "12 Richard Durand"
FLAGS DCP
INDEX 01 52:33:28
TRACK 13 AUDIO
TITLE "13 Veda "
PERFORMER "13 Richard Durand featuring Progressive Brothers"
FLAGS DCP
INDEX 01 58:22:65
TRACK 14 AUDIO
TITLE "Chopstick"
PERFORMER "14 Richard Durand"
FLAGS DCP
INDEX 01 62:58:25
TRACK 15 AUDIO
TITLE "15 Signs "
PERFORMER "15 Richard Durand with Huge Euge"
FLAGS DCP
INDEX 01 68:54:46
TRACK 16 AUDIO
TITLE "16 Paint The Sky "
PERFORMER "16 Richard Durand featuring Roberta Harrison"
FLAGS DCP
INDEX 01 73:18:49
info [Профиль]  [ЛС] 
Показать сообщения:    
Ответить на тему

Текущее время: 19-Май 23:34

Часовой пояс: GMT + 4



Вы не можете начинать темы
Вы не можете отвечать на сообщения
Вы не можете редактировать свои сообщения
Вы не можете удалять свои сообщения
Вы не можете голосовать в опросах
Вы не можете прикреплять файлы к сообщениям
Вы не можете скачивать файлы