Ошибка

(Dark Electro, EBM, Industrial) BlakOpz - Blood, Sweat And Fear (2012) - 2012, FLAC (image+.cue)+cover, lossless

Ответить на тему
 
Автор Сообщение

bi0skin

Пол: Пол:Муж

Стаж: 9 лет 6 месяцев

Сообщений: 38

Рейтинг

post 09-Дек-2012 14:12 0[+]

[Цитировать] 

BlakOpz - Blood, Sweat And Fear (2012)


pic="http://s53.radikal.ru/i140/1212/11/28a2b0bbda75.jpg"


Жанр: Dark Electro, EBM, Industrial
Год издания данного носителя: 2012
Страна-производитель носителя: Japan
Лейбл: Deathwatch Asia
Каталоговый номер: DWA 212
Аудио кодек: FLAC
Тип рипа: image+.cue
Битрейт аудио: lossless
Продолжительность: 01:19:56
Полиграфия: Присутствует
Треклист:
01. The Assignment [0:52]
02. Brainwashed [5:35]
03. Hunted [5:39]
04. Pretty Lies [6:35]
05. Who Drugged Me? (feat. Mighty Mike Saga) [6:30]
06. Domino (One By One) [5:48]
07. It's Not Human v2.0 [5:46]
08. Blakout [5:57]
09. United (feat. Rexx Arkana of FGFC820) [4:58]
10. Hell Inside [4:55]
11. March Of The Unknown [5:04]
12. Injustice For All [5:24]
13. Brainwashed (Studio-X remix) [Bonus track] [5:01]
14. Blakout (Die Sektor remix) [Bonus track] [6:06]
15. Injustice For All (Terrorkode remix) [Bonus track] [5:46]
Exact Audio Copy V1.0 beta 3 from 29. August 2011 

Отчёт EAC об извлечении, выполненном 25. ноября 2012, 22:41

BlakOPz / Blood, Sweat And Fear

Дисковод: _NEC DVD_RW ND-3520A Adapter: 0 ID: 1

Режим чтения : Достоверность
Использование точного потока : Да
Отключение кэша аудио : Да
Использование указателей C2 : Нет

Коррекция смещения при чтении : 48
Способность читать области Lead-in и Lead-out : Нет
Заполнение пропущенных сэмплов тишиной : Да
Удаление блоков с тишиной в начале и конце : Нет
При вычислениях CRC использовались нулевые сэмплы : Да
Интерфейс : Установленный внешний ASPI-интерфейс

Выходной формат : Пользовательский кодировщик
Выбранный битрейт : 1024 kBit/s
Качество : Высокий
Добавление ID3-тега : Нет
Утилита сжатия : C:Program FilesExact Audio CopyFlacflac.exe
Дополнительные параметры : -6 -V -T "Date=%year%" -T "Genre=%genre%" %source%

TOC извлечённого CD

Трек | Старт | Длительность | Начальный сектор | Конечный сектор
---------------------------------------------------------------------
1 | 0:00.40 | 0:51.61 | 40 | 3925
2 | 0:52.26 | 5:34.44 | 3926 | 29019
3 | 6:26.70 | 5:38.60 | 29020 | 54429
4 | 12:05.55 | 6:35.37 | 54430 | 84091
5 | 18:41.17 | 6:29.67 | 84092 | 113333
6 | 25:11.09 | 5:48.15 | 113334 | 139448
7 | 30:59.24 | 5:46.23 | 139449 | 165421
8 | 36:45.47 | 5:56.44 | 165422 | 192165
9 | 42:42.16 | 4:57.70 | 192166 | 214510
10 | 47:40.11 | 4:55.01 | 214511 | 236636
11 | 52:35.12 | 5:03.73 | 236637 | 259434
12 | 57:39.10 | 5:23.39 | 259435 | 283698
13 | 63:02.49 | 5:01.15 | 283699 | 306288
14 | 68:03.64 | 6:06.31 | 306289 | 333769
15 | 74:10.20 | 5:46.06 | 333770 | 359725

Характеристики диапазона извлечения и сообщения об ошибках

Выбранный диапазон

Имя файла C:BlakOPz - Blood, Sweat And Fear.wav

Пиковый уровень 100.0 %
Скорость извлечения 2.3 X
Качество диапазона 100.0 %
CRC теста CB4A4793
CRC копии CB4A4793
Копирование... OK

Ошибок не произошло

AccurateRip: сводка

Трек 1 отсутствует в базе данных
Трек 2 отсутствует в базе данных
Трек 3 отсутствует в базе данных
Трек 4 отсутствует в базе данных
Трек 5 отсутствует в базе данных
Трек 6 отсутствует в базе данных
Трек 7 отсутствует в базе данных
Трек 8 отсутствует в базе данных
Трек 9 отсутствует в базе данных
Трек 10 отсутствует в базе данных
Трек 11 отсутствует в базе данных
Трек 12 отсутствует в базе данных
Трек 13 отсутствует в базе данных
Трек 14 отсутствует в базе данных
Трек 15 отсутствует в базе данных

Ни одного трека нет в базе AccurateRip

Конец отчёта

==== Контрольная сумма отчёта 4C4B7A758C99F9A51A2C5B132F057873C048CE0A10D1BFB88C3FB63CE484F4B9 ====
REM GENRE "Dark Electro / Industrial" 
REM DATE 2012
REM DISCID D112BC0F
REM COMMENT "ExactAudioCopy v1.0b3"
PERFORMER "BlakOPz"
TITLE "Blood, Sweat And Fear"
FILE "BlakOPz - Blood, Sweat And Fear.flac" WAVE
TRACK 01 AUDIO
TITLE "The Assignment"
PERFORMER "BlakOPz"
ISRC 000000000000
INDEX 00 00:00:00
INDEX 01 00:00:40
TRACK 02 AUDIO
TITLE "Brainwashed"
PERFORMER "BlakOPz"
ISRC 000000000000
INDEX 00 00:52:15
INDEX 01 00:52:26
TRACK 03 AUDIO
TITLE "Hunted"
PERFORMER "BlakOPz"
ISRC 000000000000
INDEX 01 06:26:70
TRACK 04 AUDIO
TITLE "Pretty Lies"
PERFORMER "BlakOPz"
ISRC 000000000000
INDEX 01 12:05:55
TRACK 05 AUDIO
TITLE "Who Drugged Me? (feat. Mighty Mike Saga)"
PERFORMER "BlakOPz"
ISRC 000000000000
INDEX 00 18:41:13
INDEX 01 18:41:17
TRACK 06 AUDIO
TITLE "Domino (One By One)"
PERFORMER "BlakOPz"
ISRC 000000000000
INDEX 00 25:10:66
INDEX 01 25:11:09
TRACK 07 AUDIO
TITLE "It's Not Human v2.0"
PERFORMER "BlakOPz"
ISRC 000000000000
INDEX 00 30:59:02
INDEX 01 30:59:24
TRACK 08 AUDIO
TITLE "Blakout"
PERFORMER "BlakOPz"
ISRC 000000000000
INDEX 00 36:45:43
INDEX 01 36:45:47
TRACK 09 AUDIO
TITLE "United (feat. Rexx Arkana of FGFC820)"
PERFORMER "BlakOPz"
ISRC 000000000000
INDEX 00 42:42:15
INDEX 01 42:42:16
TRACK 10 AUDIO
TITLE "Hell Inside"
PERFORMER "BlakOPz"
ISRC 000000000000
INDEX 00 47:40:02
INDEX 01 47:40:11
TRACK 11 AUDIO
TITLE "March Of The Unknown"
PERFORMER "BlakOPz"
ISRC 000000000000
INDEX 00 52:35:11
INDEX 01 52:35:12
TRACK 12 AUDIO
TITLE "Injustice For All"
PERFORMER "BlakOPz"
ISRC 000000000000
INDEX 00 57:38:66
INDEX 01 57:39:10
TRACK 13 AUDIO
TITLE "Brainwashed (Studio-X remix) [bonus track]"
PERFORMER "BlakOPz"
ISRC 000000000000
INDEX 00 63:02:05
INDEX 01 63:02:49
TRACK 14 AUDIO
TITLE "Blakout (Die Sektor remix) [bonus track]"
PERFORMER "BlakOPz"
ISRC 000000000000
INDEX 00 68:03:47
INDEX 01 68:03:64
TRACK 15 AUDIO
TITLE "Injustice For All (Terrorkode remix) [bonus track]"
PERFORMER "BlakOPz"
ISRC 000000000000
INDEX 00 74:10:12
INDEX 01 74:10:20
info [Профиль]  [ЛС] 
Показать сообщения:    
Ответить на тему

Текущее время: 22-Май 09:25

Часовой пояс: GMT + 4



Вы не можете начинать темы
Вы не можете отвечать на сообщения
Вы не можете редактировать свои сообщения
Вы не можете удалять свои сообщения
Вы не можете голосовать в опросах
Вы не можете прикреплять файлы к сообщениям
Вы не можете скачивать файлы