Ошибка

(Experimental, Electronic, New Rave) Crystal Castles - Crystal Castles (III) - 2012, FLAC (tracks+.cue), lossless

Ответить на тему
 
Автор Сообщение

kossmos

Пол: Пол:Муж

Стаж: 12 лет

Сообщений: 269

Украина
Рейтинг

post 10-Ноя-2012 11:28 0[+]

[Цитировать] 

Crystal Castles - Crystal Castles (III)


pic="http://s002.youpic.su/pictures/1352494800/b08b015fadd0045398fbfa9789988a57.jpg"


Жанр: Experimental, Electronic, New Rave
Год издания данного носителя: 2012
Лейбл: Polydor Ltd.
Каталоговый номер: 3720275
Аудио кодек: FLAC
Тип рипа: tracks+.cue
Битрейт аудио: lossless
Продолжительность: 00:39:38
Источник (релизер): What.CD (ponyp)
Полиграфия: Отсутствует

Треклист:
01. Plague [4:56]
02. Kerosene [3:12]
03. Wrath of God [3:07]
04. Affection [2:37]
05. Pale Flesh [3:00]
06. Sad Eyes [3:27]
07. Insulin [1:47]
08. Transgender [3:05]
09. Violent Youth [4:22]
10. Telepath [3:55]
11. Mercenary [2:39]
12. Child I Will Hurt You [3:33]
X Lossless Decoder version 20121027 (142.1) 

XLD extraction logfile from 2012-11-09 19:04:21 +0200

Crystal Castles / (III)

Used drive : MATSHITA DVD-R UJ-898 (revision HC10)

Ripper mode : XLD Secure Ripper
Disable audio cache : OK for the drive with a cache less than 1375KiB
Make use of C2 pointers : NO
Read offset correction : 102
Max retry count : 100
Gap status : Analyzed, Appended (except HTOA)

TOC of the extracted CD
Track | Start | Length | Start sector | End sector
---------------------------------------------------------
1 | 00:00:00 | 04:55:66 | 0 | 22190
2 | 04:55:66 | 03:12:03 | 22191 | 36593
3 | 08:07:69 | 03:06:47 | 36594 | 50590
4 | 11:14:41 | 02:37:24 | 50591 | 62389
5 | 13:51:65 | 02:59:49 | 62390 | 75863
6 | 16:51:39 | 03:27:02 | 75864 | 91390
7 | 20:18:41 | 01:46:62 | 91391 | 99402
8 | 22:05:28 | 03:04:57 | 99403 | 113259
9 | 25:10:10 | 04:21:49 | 113260 | 132883
10 | 29:31:59 | 03:54:38 | 132884 | 150471
11 | 33:26:22 | 02:39:24 | 150472 | 162420
12 | 36:05:46 | 03:33:00 | 162421 | 178395

AccurateRip Summary
Disc not found in AccurateRip DB.

All Tracks
Album gain : -7.53 dB
Peak : 0.988953
Statistics
Read error : 0
Jitter error (maybe fixed) : 0
Retry sector count : 0
Damaged sector count : 0

Track 01
Filename : /Users/sixsixsix/Downloads/What.CD/upload archive/cc/Crystal Castles - (III) (2012) [MP3 320]/01 Plague.mp3
/Users/sixsixsix/Downloads/What.CD/upload archive/cc/Crystal Castles - (III) (2012) [V0]/01 Plague.mp3
/Users/sixsixsix/Downloads/What.CD/upload archive/cc/Crystal Castles - (III) (2012) [FLAC]/01 Plague.flac
Pre-gap length : 00:02:00

Track gain : -6.71 dB
Peak : 0.988556
CRC32 hash (test run) : FD40BF2B
CRC32 hash : FD40BF2B
CRC32 hash (skip zero) : EE29A562
AccurateRip v1 signature : 47A13A5D
AccurateRip v2 signature : EA3CB24C
->Track not present in AccurateRip database.
Statistics
Read error : 0
Jitter error (maybe fixed) : 0
Retry sector count : 0
Damaged sector count : 0

Track 02
Filename : /Users/sixsixsix/Downloads/What.CD/upload archive/cc/Crystal Castles - (III) (2012) [MP3 320]/02 Kerosene.mp3
/Users/sixsixsix/Downloads/What.CD/upload archive/cc/Crystal Castles - (III) (2012) [V0]/02 Kerosene.mp3
/Users/sixsixsix/Downloads/What.CD/upload archive/cc/Crystal Castles - (III) (2012) [FLAC]/02 Kerosene.flac

Track gain : -5.38 dB
Peak : 0.988556
CRC32 hash (test run) : 1A367FE1
CRC32 hash : 1A367FE1
CRC32 hash (skip zero) : 5D9369D6
AccurateRip v1 signature : F5EF8B75
AccurateRip v2 signature : 1803E5EC
->Track not present in AccurateRip database.
Statistics
Read error : 0
Jitter error (maybe fixed) : 0
Retry sector count : 0
Damaged sector count : 0

Track 03
Filename : /Users/sixsixsix/Downloads/What.CD/upload archive/cc/Crystal Castles - (III) (2012) [MP3 320]/03 Wrath of God.mp3
/Users/sixsixsix/Downloads/What.CD/upload archive/cc/Crystal Castles - (III) (2012) [V0]/03 Wrath of God.mp3
/Users/sixsixsix/Downloads/What.CD/upload archive/cc/Crystal Castles - (III) (2012) [FLAC]/03 Wrath of God.flac
Pre-gap length : 00:00:03

Track gain : -7.99 dB
Peak : 0.933228
CRC32 hash (test run) : 81F6B152
CRC32 hash : 81F6B152
CRC32 hash (skip zero) : D89AC974
AccurateRip v1 signature : 3BB5DF81
AccurateRip v2 signature : C6635687
->Track not present in AccurateRip database.
Statistics
Read error : 0
Jitter error (maybe fixed) : 0
Retry sector count : 0
Damaged sector count : 0

Track 04
Filename : /Users/sixsixsix/Downloads/What.CD/upload archive/cc/Crystal Castles - (III) (2012) [MP3 320]/04 Affection.mp3
/Users/sixsixsix/Downloads/What.CD/upload archive/cc/Crystal Castles - (III) (2012) [V0]/04 Affection.mp3
/Users/sixsixsix/Downloads/What.CD/upload archive/cc/Crystal Castles - (III) (2012) [FLAC]/04 Affection.flac

Track gain : -7.86 dB
Peak : 0.987701
CRC32 hash (test run) : 79AAACB7
CRC32 hash : 79AAACB7
CRC32 hash (skip zero) : 98478458
AccurateRip v1 signature : FF6E7192
AccurateRip v2 signature : 404FF28F
->Track not present in AccurateRip database.
Statistics
Read error : 0
Jitter error (maybe fixed) : 0
Retry sector count : 0
Damaged sector count : 0

Track 05
Filename : /Users/sixsixsix/Downloads/What.CD/upload archive/cc/Crystal Castles - (III) (2012) [MP3 320]/05 Pale Flesh.mp3
/Users/sixsixsix/Downloads/What.CD/upload archive/cc/Crystal Castles - (III) (2012) [V0]/05 Pale Flesh.mp3
/Users/sixsixsix/Downloads/What.CD/upload archive/cc/Crystal Castles - (III) (2012) [FLAC]/05 Pale Flesh.flac
Pre-gap length : 00:00:46

Track gain : -8.12 dB
Peak : 0.988556
CRC32 hash (test run) : B38A1F93
CRC32 hash : B38A1F93
CRC32 hash (skip zero) : 12763FC3
AccurateRip v1 signature : B4A1DDD3
AccurateRip v2 signature : 1CC1F4D6
->Track not present in AccurateRip database.
Statistics
Read error : 0
Jitter error (maybe fixed) : 0
Retry sector count : 0
Damaged sector count : 0

Track 06
Filename : /Users/sixsixsix/Downloads/What.CD/upload archive/cc/Crystal Castles - (III) (2012) [MP3 320]/06 Sad Eyes.mp3
/Users/sixsixsix/Downloads/What.CD/upload archive/cc/Crystal Castles - (III) (2012) [V0]/06 Sad Eyes.mp3
/Users/sixsixsix/Downloads/What.CD/upload archive/cc/Crystal Castles - (III) (2012) [FLAC]/06 Sad Eyes.flac
Pre-gap length : 00:00:64

Track gain : -6.97 dB
Peak : 0.988556
CRC32 hash (test run) : 0243BF96
CRC32 hash : 0243BF96
CRC32 hash (skip zero) : 5E4ACC39
AccurateRip v1 signature : B110929B
AccurateRip v2 signature : 77F06613
->Track not present in AccurateRip database.
Statistics
Read error : 0
Jitter error (maybe fixed) : 0
Retry sector count : 0
Damaged sector count : 0

Track 07
Filename : /Users/sixsixsix/Downloads/What.CD/upload archive/cc/Crystal Castles - (III) (2012) [MP3 320]/07 Insulin.mp3
/Users/sixsixsix/Downloads/What.CD/upload archive/cc/Crystal Castles - (III) (2012) [V0]/07 Insulin.mp3
/Users/sixsixsix/Downloads/What.CD/upload archive/cc/Crystal Castles - (III) (2012) [FLAC]/07 Insulin.flac

Track gain : -9.61 dB
Peak : 0.820160
CRC32 hash (test run) : B45BB00F
CRC32 hash : B45BB00F
CRC32 hash (skip zero) : 0B6040B5
AccurateRip v1 signature : B6291B36
AccurateRip v2 signature : 6F6BE063
->Track not present in AccurateRip database.
Statistics
Read error : 0
Jitter error (maybe fixed) : 0
Retry sector count : 0
Damaged sector count : 0

Track 08
Filename : /Users/sixsixsix/Downloads/What.CD/upload archive/cc/Crystal Castles - (III) (2012) [MP3 320]/08 Transgender.mp3
/Users/sixsixsix/Downloads/What.CD/upload archive/cc/Crystal Castles - (III) (2012) [V0]/08 Transgender.mp3
/Users/sixsixsix/Downloads/What.CD/upload archive/cc/Crystal Castles - (III) (2012) [FLAC]/08 Transgender.flac

Track gain : -5.62 dB
Peak : 0.929413
CRC32 hash (test run) : 4B2CF412
CRC32 hash : 4B2CF412
CRC32 hash (skip zero) : 1CAE5D34
AccurateRip v1 signature : F6086A2E
AccurateRip v2 signature : B6529426
->Track not present in AccurateRip database.
Statistics
Read error : 0
Jitter error (maybe fixed) : 0
Retry sector count : 0
Damaged sector count : 0

Track 09
Filename : /Users/sixsixsix/Downloads/What.CD/upload archive/cc/Crystal Castles - (III) (2012) [MP3 320]/09 Violent Youth.mp3
/Users/sixsixsix/Downloads/What.CD/upload archive/cc/Crystal Castles - (III) (2012) [V0]/09 Violent Youth.mp3
/Users/sixsixsix/Downloads/What.CD/upload archive/cc/Crystal Castles - (III) (2012) [FLAC]/09 Violent Youth.flac

Track gain : -6.11 dB
Peak : 0.988953
CRC32 hash (test run) : 55CABBF1
CRC32 hash : 55CABBF1
CRC32 hash (skip zero) : 1DC776F0
AccurateRip v1 signature : 5D45594D
AccurateRip v2 signature : 6353663F
->Track not present in AccurateRip database.
Statistics
Read error : 0
Jitter error (maybe fixed) : 0
Retry sector count : 0
Damaged sector count : 0

Track 10
Filename : /Users/sixsixsix/Downloads/What.CD/upload archive/cc/Crystal Castles - (III) (2012) [MP3 320]/10 Telepath.mp3
/Users/sixsixsix/Downloads/What.CD/upload archive/cc/Crystal Castles - (III) (2012) [V0]/10 Telepath.mp3
/Users/sixsixsix/Downloads/What.CD/upload archive/cc/Crystal Castles - (III) (2012) [FLAC]/10 Telepath.flac

Track gain : -5.72 dB
Peak : 0.988556
CRC32 hash (test run) : 2830F371
CRC32 hash : 2830F371
CRC32 hash (skip zero) : 51986216
AccurateRip v1 signature : E6B09B62
AccurateRip v2 signature : 115F6F30
->Track not present in AccurateRip database.
Statistics
Read error : 0
Jitter error (maybe fixed) : 0
Retry sector count : 0
Damaged sector count : 0

Track 11
Filename : /Users/sixsixsix/Downloads/What.CD/upload archive/cc/Crystal Castles - (III) (2012) [MP3 320]/11 Mercenary.mp3
/Users/sixsixsix/Downloads/What.CD/upload archive/cc/Crystal Castles - (III) (2012) [V0]/11 Mercenary.mp3
/Users/sixsixsix/Downloads/What.CD/upload archive/cc/Crystal Castles - (III) (2012) [FLAC]/11 Mercenary.flac

Track gain : -6.28 dB
Peak : 0.988556
CRC32 hash (test run) : 91DE5C24
CRC32 hash : 91DE5C24
CRC32 hash (skip zero) : 8CBF716D
AccurateRip v1 signature : C6BBE373
AccurateRip v2 signature : 3F9E92C0
->Track not present in AccurateRip database.
Statistics
Read error : 0
Jitter error (maybe fixed) : 0
Retry sector count : 0
Damaged sector count : 0

Track 12
Filename : /Users/sixsixsix/Downloads/What.CD/upload archive/cc/Crystal Castles - (III) (2012) [MP3 320]/12 Child I Will Hurt You.mp3
/Users/sixsixsix/Downloads/What.CD/upload archive/cc/Crystal Castles - (III) (2012) [V0]/12 Child I Will Hurt You.mp3
/Users/sixsixsix/Downloads/What.CD/upload archive/cc/Crystal Castles - (III) (2012) [FLAC]/12 Child I Will Hurt You.flac
Pre-gap length : 00:00:63

Track gain : -8.86 dB
Peak : 0.988556
CRC32 hash (test run) : D246A497
CRC32 hash : D246A497
CRC32 hash (skip zero) : CD87DD3D
AccurateRip v1 signature : 8CDDF382
AccurateRip v2 signature : 7B9DC0D1
->Track not present in AccurateRip database.
Statistics
Read error : 0
Jitter error (maybe fixed) : 0
Retry sector count : 0
Damaged sector count : 0

No errors occurred

End of status report
TITLE "(III)" 
PERFORMER "Crystal Castles"
CATALOG 0602537202751
REM DATE "2012"
REM DISCNUMBER 1
REM TOTALDISCS 1
REM DISCID 96094A0C
REM REPLAYGAIN_ALBUM_GAIN -7.53 dB
REM REPLAYGAIN_ALBUM_PEAK 0.988953
FILE "01 Plague.flac" WAVE
TRACK 01 AUDIO
TITLE "Plague"
ISRC GBUM71205191
REM REPLAYGAIN_TRACK_GAIN -6.71 dB
REM REPLAYGAIN_TRACK_PEAK 0.988556
INDEX 01 00:00:00
FILE "02 Kerosene.flac" WAVE
TRACK 02 AUDIO
TITLE "Kerosene"
ISRC GBUM71206687
REM REPLAYGAIN_TRACK_GAIN -5.38 dB
REM REPLAYGAIN_TRACK_PEAK 0.988556
INDEX 01 00:00:00
TRACK 03 AUDIO
TITLE "Wrath of God"
ISRC GBUM71206684
REM REPLAYGAIN_TRACK_GAIN -7.99 dB
REM REPLAYGAIN_TRACK_PEAK 0.933228
INDEX 00 03:12:00
FILE "03 Wrath of God.flac" WAVE
INDEX 01 00:00:00
FILE "04 Affection.flac" WAVE
TRACK 04 AUDIO
TITLE "Affection"
ISRC GBUM71206685
REM REPLAYGAIN_TRACK_GAIN -7.86 dB
REM REPLAYGAIN_TRACK_PEAK 0.987701
INDEX 01 00:00:00
TRACK 05 AUDIO
TITLE "Pale Flesh"
ISRC GBUM71206688
REM REPLAYGAIN_TRACK_GAIN -8.12 dB
REM REPLAYGAIN_TRACK_PEAK 0.988556
INDEX 00 02:36:53
FILE "05 Pale Flesh.flac" WAVE
INDEX 01 00:00:00
TRACK 06 AUDIO
TITLE "Sad Eyes"
ISRC GBUM71206686
REM REPLAYGAIN_TRACK_GAIN -6.97 dB
REM REPLAYGAIN_TRACK_PEAK 0.988556
INDEX 00 02:58:60
FILE "06 Sad Eyes.flac" WAVE
INDEX 01 00:00:00
FILE "07 Insulin.flac" WAVE
TRACK 07 AUDIO
TITLE "Insulin"
ISRC GBUM71206690
REM REPLAYGAIN_TRACK_GAIN -9.61 dB
REM REPLAYGAIN_TRACK_PEAK 0.820160
INDEX 01 00:00:00
FILE "08 Transgender.flac" WAVE
TRACK 08 AUDIO
TITLE "Transgender"
ISRC GBUM71206689
REM REPLAYGAIN_TRACK_GAIN -5.62 dB
REM REPLAYGAIN_TRACK_PEAK 0.929413
INDEX 01 00:00:00
FILE "09 Violent Youth.flac" WAVE
TRACK 09 AUDIO
TITLE "Violent Youth"
ISRC GBUM71206692
REM REPLAYGAIN_TRACK_GAIN -6.11 dB
REM REPLAYGAIN_TRACK_PEAK 0.988953
INDEX 01 00:00:00
FILE "10 Telepath.flac" WAVE
TRACK 10 AUDIO
TITLE "Telepath"
ISRC GBUM71206693
REM REPLAYGAIN_TRACK_GAIN -5.72 dB
REM REPLAYGAIN_TRACK_PEAK 0.988556
INDEX 01 00:00:00
FILE "11 Mercenary.flac" WAVE
TRACK 11 AUDIO
TITLE "Mercenary"
ISRC GBUM71206691
REM REPLAYGAIN_TRACK_GAIN -6.28 dB
REM REPLAYGAIN_TRACK_PEAK 0.988556
INDEX 01 00:00:00
TRACK 12 AUDIO
TITLE "Child I Will Hurt You"
ISRC GBUM71206694
REM REPLAYGAIN_TRACK_GAIN -8.86 dB
REM REPLAYGAIN_TRACK_PEAK 0.988556
INDEX 00 02:38:36
FILE "12 Child I Will Hurt You.flac" WAVE
INDEX 01 00:00:00
info [Профиль]  [ЛС] 

sONg

Стаж: 10 лет

Сообщений: 1

СССР
Рейтинг

post 10-Ноя-2012 14:19 (спустя 2 часа 51 минута) [-]0[+]

[Цитировать] 

Огромнейшее спасибо!
info [Профиль]  [ЛС] 

busik730

Пол: Пол:Муж

Стаж: 12 лет

Сообщений: 210

Россия
Рейтинг

post 10-Ноя-2012 15:40 (спустя 1 час 20 минут) [-]0[+]

[Цитировать] 

спасибо,сам смитт велел)
info [Профиль]  [ЛС] 
Показать сообщения:    
Ответить на тему

Текущее время: 23-Май 01:27

Часовой пояс: GMT + 4



Вы не можете начинать темы
Вы не можете отвечать на сообщения
Вы не можете редактировать свои сообщения
Вы не можете удалять свои сообщения
Вы не можете голосовать в опросах
Вы не можете прикреплять файлы к сообщениям
Вы не можете скачивать файлы