Ошибка

(Score) Health - Max Payne 3 - 2012, FLAC (tracks+.cue), lossless

Ответить на тему
 
Автор Сообщение

Rock Star

Пол: Пол:Муж

Стаж: 10 лет

Сообщений: 780

Рейтинг

post 07-Окт-2012 13:51 4[+]

[Цитировать] 

pic="http://i37.fastpic.ru/big/2012/0518/aa/d4cec140674908273f0e977bf357dbaa.jpg"

Max Payne 3
pic="http://i37.fastpic.ru/big/2012/0518/aa/d4cec140674908273f0e977bf357dbaa.jpg"

Жанр: Score Год издания данного носителя: 2012 Происхождение исполнителей: USA
Аудио кодек: FLAC Тип рипа: tracks+.cue Битрейт аудио: lossless Продолжительность: 1:14:27 Рип: MiLØ

1. TEARS (4:18)
2. PAINKILLER (6:16)
3. THE GIRL (4:35)
4. MAX: KILL (3:08)
5. TORTURE (3:34)
6. MAX: DOCKS (2:37)
7. COMBAT DRUGS (3:18)
8. U.F.E. (1:04)
9. DEAD (4:19)
10. SHELLS (5:28)
11. +90 (1:27)
12. FABIANA (2:32)
13. MAX: FAVELA (2:01)
14. MAX: NJ (4:14)
15. GUNS (2:14)
16. MAX: PANAMA (4:09)
17. THE IMPERIAL PALACE (1:50)
18. 16 230 (2:11)
19. FUTURE (4:42)
20. MAX: FINALE (2:05)
21. BIRTH (1:16)
22. PAIN (3:32)
23. 9 CIRCULOS (3:16)
Exact Audio Copy V1.0 beta 3 from 29. August 2011 

EAC extraction logfile from 6. October 2012, 21:46

HEALTH / Max Payne 3 The Official Soundtrack

Used drive : PIONEER DVD-RW DVRKD08L Adapter: 1 ID: 0

Read mode : Secure
Utilize accurate stream : Yes
Defeat audio cache : Yes
Make use of C2 pointers : No

Read offset correction : 48
Overread into Lead-In and Lead-Out : No
Fill up missing offset samples with silence : Yes
Delete leading and trailing silent blocks : No
Null samples used in CRC calculations : Yes
Used interface : Native Win32 interface for Win NT & 2000
Gap handling : Appended to previous track

Used output format : User Defined Encoder
Selected bitrate : 768 kBit/s
Quality : High
Add ID3 tag : No
Command line compressor : C:\Program Files (x86)\Exact Audio Copy\FLAC\FLAC.EXE
Additional command line options : -6 -V -T "ARTIST=%artist%" -T "TITLE=%title%" -T "ALBUM=%albumtitle%" -T "DATE=%year%" -T "TRACKNUMBER=%tracknr%" -T "GENRE=%genre%" -T "COMMENT=%comment%" -T "BAND=%albuminterpret%" -T "ALBUMARTIST=%albuminterpret%" -T "COMPOSER=%composer%" %haslyrics%--tag-from-file=LYRICS="%lyricsfile%"%haslyrics% -T "DISCNUMBER=%cdnumber%" -T "TOTALDISCS=%totalcds%" -T "TOTALTRACKS=%numtracks%" %hascover%--picture="%coverfile%"%hascover% %source% -o %dest%

TOC of the extracted CD

Track | Start | Length | Start sector | End sector
---------------------------------------------------------
1 | 0:00.00 | 4:18.45 | 0 | 19394
2 | 4:18.45 | 6:16.71 | 19395 | 47665
3 | 10:35.41 | 4:36.01 | 47666 | 68366
4 | 15:11.42 | 3:09.11 | 68367 | 82552
5 | 18:20.53 | 3:34.45 | 82553 | 98647
6 | 21:55.23 | 2:38.24 | 98648 | 110521
7 | 24:33.47 | 3:19.13 | 110522 | 125459
8 | 27:52.60 | 1:05.18 | 125460 | 130352
9 | 28:58.03 | 4:19.51 | 130353 | 149828
10 | 33:17.54 | 5:29.37 | 149829 | 174540
11 | 38:47.16 | 1:27.61 | 174541 | 181126
12 | 40:15.02 | 2:32.54 | 181127 | 192580
13 | 42:47.56 | 2:02.36 | 192581 | 201766
14 | 44:50.17 | 4:14.54 | 201767 | 220870
15 | 49:04.71 | 2:14.54 | 220871 | 230974
16 | 51:19.50 | 4:10.29 | 230975 | 249753
17 | 55:30.04 | 1:51.16 | 249754 | 258094
18 | 57:21.20 | 2:11.42 | 258095 | 267961
19 | 59:32.62 | 4:42.43 | 267962 | 289154
20 | 64:15.30 | 2:05.52 | 289155 | 298581
21 | 66:21.07 | 1:17.25 | 298582 | 304381
22 | 67:38.32 | 3:32.50 | 304382 | 320331
23 | 71:11.07 | 3:16.34 | 320332 | 335065

Track 1

Filename C:\Users\MiLO\EAC\Max Payne 3 The Official Soundtrack\01 TEARS.wav

Pre-gap length 0:00:02.00

Peak level 97.7 %
Extraction speed 2.7 X
Track quality 99.9 %
Test CRC 6FA5F2F9
Copy CRC 6FA5F2F9
Track not present in AccurateRip database
Copy OK

Track 2

Filename C:\Users\MiLO\EAC\Max Payne 3 The Official Soundtrack\02 PAINKILLER.wav

Pre-gap length 0:00:01.00

Peak level 97.7 %
Extraction speed 3.5 X
Track quality 100.0 %
Test CRC 0CB42014
Copy CRC 0CB42014
Track not present in AccurateRip database
Copy OK

Track 3

Filename C:\Users\MiLO\EAC\Max Payne 3 The Official Soundtrack\03 THE GIRL.wav

Pre-gap length 0:00:01.00

Peak level 97.7 %
Extraction speed 3.7 X
Track quality 100.0 %
Test CRC 674023DC
Copy CRC 674023DC
Track not present in AccurateRip database
Copy OK

Track 4

Filename C:\Users\MiLO\EAC\Max Payne 3 The Official Soundtrack\04 MAX- KILL.wav

Pre-gap length 0:00:01.00

Peak level 97.7 %
Extraction speed 3.6 X
Track quality 100.0 %
Test CRC 04FB0324
Copy CRC 04FB0324
Track not present in AccurateRip database
Copy OK

Track 5

Filename C:\Users\MiLO\EAC\Max Payne 3 The Official Soundtrack\05 TORTURE.wav

Pre-gap length 0:00:01.00

Peak level 99.0 %
Extraction speed 3.9 X
Track quality 100.0 %
Test CRC 57B7B26A
Copy CRC 57B7B26A
Track not present in AccurateRip database
Copy OK

Track 6

Filename C:\Users\MiLO\EAC\Max Payne 3 The Official Soundtrack\06 MAX- DOCKS.wav

Pre-gap length 0:00:01.00

Peak level 100.0 %
Extraction speed 3.9 X
Track quality 100.0 %
Test CRC 424383F6
Copy CRC 424383F6
Track not present in AccurateRip database
Copy OK

Track 7

Filename C:\Users\MiLO\EAC\Max Payne 3 The Official Soundtrack\07 COMBAT DRUGS.wav

Pre-gap length 0:00:01.00

Peak level 97.7 %
Extraction speed 3.6 X
Track quality 99.9 %
Test CRC 3D7C3AFB
Copy CRC 3D7C3AFB
Track not present in AccurateRip database
Copy OK

Track 8

Filename C:\Users\MiLO\EAC\Max Payne 3 The Official Soundtrack\08 U.F.E..wav

Pre-gap length 0:00:01.00

Peak level 97.7 %
Extraction speed 3.2 X
Track quality 100.0 %
Test CRC 82A68204
Copy CRC 82A68204
Track not present in AccurateRip database
Copy OK

Track 9

Filename C:\Users\MiLO\EAC\Max Payne 3 The Official Soundtrack\09 DEAD.wav

Pre-gap length 0:00:01.00

Peak level 97.7 %
Extraction speed 4.5 X
Track quality 100.0 %
Test CRC EEA77103
Copy CRC EEA77103
Track not present in AccurateRip database
Copy OK

Track 10

Filename C:\Users\MiLO\EAC\Max Payne 3 The Official Soundtrack\10 SHELLS.wav

Pre-gap length 0:00:01.00

Peak level 98.8 %
Extraction speed 4.8 X
Track quality 100.0 %
Test CRC 22ABCA9E
Copy CRC 22ABCA9E
Track not present in AccurateRip database
Copy OK

Track 11

Filename C:\Users\MiLO\EAC\Max Payne 3 The Official Soundtrack\11 +90.wav

Pre-gap length 0:00:01.00

Peak level 98.1 %
Extraction speed 3.8 X
Track quality 100.0 %
Test CRC 32E2554A
Copy CRC 32E2554A
Track not present in AccurateRip database
Copy OK

Track 12

Filename C:\Users\MiLO\EAC\Max Payne 3 The Official Soundtrack\12 FABIANA.wav

Pre-gap length 0:00:01.00

Peak level 97.7 %
Extraction speed 3.8 X
Track quality 99.9 %
Test CRC A0D6078C
Copy CRC A0D6078C
Track not present in AccurateRip database
Copy OK

Track 13

Filename C:\Users\MiLO\EAC\Max Payne 3 The Official Soundtrack\13 MAX- FAVELA.wav

Pre-gap length 0:00:01.00

Peak level 98.2 %
Extraction speed 3.5 X
Track quality 99.9 %
Test CRC B562D287
Copy CRC B562D287
Track not present in AccurateRip database
Copy OK

Track 14

Filename C:\Users\MiLO\EAC\Max Payne 3 The Official Soundtrack\14 MAX- NJ.wav

Pre-gap length 0:00:01.00

Peak level 98.9 %
Extraction speed 5.0 X
Track quality 100.0 %
Test CRC 8DB9F7DE
Copy CRC 8DB9F7DE
Track not present in AccurateRip database
Copy OK

Track 15

Filename C:\Users\MiLO\EAC\Max Payne 3 The Official Soundtrack\15 GUNS.wav

Pre-gap length 0:00:01.00

Peak level 98.0 %
Extraction speed 4.6 X
Track quality 100.0 %
Test CRC D1A72695
Copy CRC D1A72695
Track not present in AccurateRip database
Copy OK

Track 16

Filename C:\Users\MiLO\EAC\Max Payne 3 The Official Soundtrack\16 MAX- PANAMA.wav

Pre-gap length 0:00:01.00

Peak level 98.8 %
Extraction speed 5.3 X
Track quality 100.0 %
Test CRC 3384422B
Copy CRC 3384422B
Track not present in AccurateRip database
Copy OK

Track 17

Filename C:\Users\MiLO\EAC\Max Payne 3 The Official Soundtrack\17 THE IMPERIAL PALACE.wav

Pre-gap length 0:00:01.00

Peak level 100.0 %
Extraction speed 3.7 X
Track quality 99.9 %
Test CRC 13C01948
Copy CRC 13C01948
Track not present in AccurateRip database
Copy OK

Track 18

Filename C:\Users\MiLO\EAC\Max Payne 3 The Official Soundtrack\18 16 230.wav

Pre-gap length 0:00:01.00

Peak level 99.1 %
Extraction speed 4.9 X
Track quality 100.0 %
Test CRC E085F2A1
Copy CRC E085F2A1
Track not present in AccurateRip database
Copy OK

Track 19

Filename C:\Users\MiLO\EAC\Max Payne 3 The Official Soundtrack\19 FUTURE.wav

Pre-gap length 0:00:01.00

Peak level 99.0 %
Extraction speed 5.6 X
Track quality 100.0 %
Test CRC 270E5183
Copy CRC 270E5183
Track not present in AccurateRip database
Copy OK

Track 20

Filename C:\Users\MiLO\EAC\Max Payne 3 The Official Soundtrack\20 MAX- FINALE.wav

Pre-gap length 0:00:01.00

Peak level 99.2 %
Extraction speed 5.0 X
Track quality 100.0 %
Test CRC 807A6546
Copy CRC 807A6546
Track not present in AccurateRip database
Copy OK

Track 21

Filename C:\Users\MiLO\EAC\Max Payne 3 The Official Soundtrack\21 BIRTH.wav

Pre-gap length 0:00:01.00

Peak level 100.0 %
Extraction speed 3.3 X
Track quality 99.8 %
Test CRC AF47CC99
Copy CRC AF47CC99
Track not present in AccurateRip database
Copy OK

Track 22

Filename C:\Users\MiLO\EAC\Max Payne 3 The Official Soundtrack\22 PAIN.wav

Pre-gap length 0:00:01.00

Peak level 98.9 %
Extraction speed 5.7 X
Track quality 100.0 %
Test CRC 910EA6A8
Copy CRC 910EA6A8
Track not present in AccurateRip database
Copy OK

Track 23

Filename C:\Users\MiLO\EAC\Max Payne 3 The Official Soundtrack\23 9 CIRCULOS.wav

Pre-gap length 0:00:01.00

Peak level 100.0 %
Extraction speed 5.6 X
Track quality 100.0 %
Test CRC F02960AA
Copy CRC F02960AA
Track not present in AccurateRip database
Copy OK

None of the tracks are present in the AccurateRip database

No errors occurred

End of status report

==== Log checksum 12801B4A4764C0650D0DE6701F92889C7EB65DE1C51D5B179611B16CEE48C46C ====
REM GENRE "Original Soundtrack" 
REM DATE 2012
REM DISCID 5F117317
REM COMMENT "ExactAudioCopy v1.0b3"
PERFORMER "HEALTH"
TITLE "Max Payne 3 The Official Soundtrack"
FILE "01 TEARS.wav" WAVE
TRACK 01 AUDIO
TITLE "TEARS"
PERFORMER "HEALTH"
INDEX 01 00:00:00
TRACK 02 AUDIO
TITLE "PAINKILLER"
PERFORMER "HEALTH"
INDEX 00 04:17:45
FILE "02 PAINKILLER.wav" WAVE
INDEX 01 00:00:00
TRACK 03 AUDIO
TITLE "THE GIRL"
PERFORMER "HEALTH"
INDEX 00 06:15:71
FILE "03 THE GIRL.wav" WAVE
INDEX 01 00:00:00
TRACK 04 AUDIO
TITLE "MAX: KILL"
PERFORMER "HEALTH"
INDEX 00 04:35:01
FILE "04 MAX- KILL.wav" WAVE
INDEX 01 00:00:00
TRACK 05 AUDIO
TITLE "TORTURE"
PERFORMER "HEALTH"
INDEX 00 03:08:11
FILE "05 TORTURE.wav" WAVE
INDEX 01 00:00:00
TRACK 06 AUDIO
TITLE "MAX: DOCKS"
PERFORMER "HEALTH"
INDEX 00 03:33:45
FILE "06 MAX- DOCKS.wav" WAVE
INDEX 01 00:00:00
TRACK 07 AUDIO
TITLE "COMBAT DRUGS"
PERFORMER "HEALTH"
INDEX 00 02:37:24
FILE "07 COMBAT DRUGS.wav" WAVE
INDEX 01 00:00:00
TRACK 08 AUDIO
TITLE "U.F.E."
PERFORMER "HEALTH"
INDEX 00 03:18:13
FILE "08 U.F.E..wav" WAVE
INDEX 01 00:00:00
TRACK 09 AUDIO
TITLE "DEAD"
PERFORMER "HEALTH"
INDEX 00 01:04:18
FILE "09 DEAD.wav" WAVE
INDEX 01 00:00:00
TRACK 10 AUDIO
TITLE "SHELLS"
PERFORMER "HEALTH"
INDEX 00 04:18:51
FILE "10 SHELLS.wav" WAVE
INDEX 01 00:00:00
TRACK 11 AUDIO
TITLE "+90"
PERFORMER "HEALTH"
INDEX 00 05:28:37
FILE "11 +90.wav" WAVE
INDEX 01 00:00:00
TRACK 12 AUDIO
TITLE "FABIANA"
PERFORMER "HEALTH"
INDEX 00 01:26:61
FILE "12 FABIANA.wav" WAVE
INDEX 01 00:00:00
TRACK 13 AUDIO
TITLE "MAX: FAVELA"
PERFORMER "HEALTH"
INDEX 00 02:31:54
FILE "13 MAX- FAVELA.wav" WAVE
INDEX 01 00:00:00
TRACK 14 AUDIO
TITLE "MAX: NJ"
PERFORMER "HEALTH"
INDEX 00 02:01:36
FILE "14 MAX- NJ.wav" WAVE
INDEX 01 00:00:00
TRACK 15 AUDIO
TITLE "GUNS"
PERFORMER "HEALTH"
INDEX 00 04:13:54
FILE "15 GUNS.wav" WAVE
INDEX 01 00:00:00
TRACK 16 AUDIO
TITLE "MAX: PANAMA"
PERFORMER "HEALTH"
INDEX 00 02:13:54
FILE "16 MAX- PANAMA.wav" WAVE
INDEX 01 00:00:00
TRACK 17 AUDIO
TITLE "THE IMPERIAL PALACE"
PERFORMER "HEALTH"
INDEX 00 04:09:29
FILE "17 THE IMPERIAL PALACE.wav" WAVE
INDEX 01 00:00:00
TRACK 18 AUDIO
TITLE "16 230"
PERFORMER "HEALTH"
INDEX 00 01:50:16
FILE "18 16 230.wav" WAVE
INDEX 01 00:00:00
TRACK 19 AUDIO
TITLE "FUTURE"
PERFORMER "HEALTH"
INDEX 00 02:10:42
FILE "19 FUTURE.wav" WAVE
INDEX 01 00:00:00
TRACK 20 AUDIO
TITLE "MAX: FINALE"
PERFORMER "HEALTH"
INDEX 00 04:41:43
FILE "20 MAX- FINALE.wav" WAVE
INDEX 01 00:00:00
TRACK 21 AUDIO
TITLE "BIRTH"
PERFORMER "HEALTH"
INDEX 00 02:04:52
FILE "21 BIRTH.wav" WAVE
INDEX 01 00:00:00
TRACK 22 AUDIO
TITLE "PAIN"
PERFORMER "HEALTH"
INDEX 00 01:16:25
FILE "22 PAIN.wav" WAVE
INDEX 01 00:00:00
TRACK 23 AUDIO
TITLE "9 CIRCULOS"
PERFORMER "EMICIDA"
INDEX 00 03:31:50
FILE "23 9 CIRCULOS.wav" WAVE
INDEX 01 00:00:00
info [Профиль]  [ЛС] 

post 08-Окт-2012 12:57 (спустя 23 часа) [-]0[+]

Топик был перенесен из форума Анонсы в форум Саундтреки к играм (lossless)

FranzFerdinand
 
Показать сообщения:    
Ответить на тему

Текущее время: 21-Май 17:25

Часовой пояс: GMT + 4



Вы не можете начинать темы
Вы не можете отвечать на сообщения
Вы не можете редактировать свои сообщения
Вы не можете удалять свои сообщения
Вы не можете голосовать в опросах
Вы не можете прикреплять файлы к сообщениям
Вы не можете скачивать файлы