Ошибка

(Dancehall) Mavado - Gangsta For Life : The Symphony Of David Brooks - 2007, FLAC (tracks+.cue), lossless

Ответить на тему
 
Автор Сообщение

MrPavlik

Пол: Пол:Муж

Стаж: 9 лет 2 месяца

Сообщений: 152

Россия
Рейтинг

post 05-Окт-2012 08:05 0[+]

[Цитировать] 

Mavado - Gangsta For Life : The Symphony Of David Brooks

pic="http://s002.youpic.su/pictures/1349380800/36d737be2b0a8307741783b0da432f9a.jpg"
Жанр: Dancehall
Год издания данного носителя: 2007
Страна-производитель носителя: USA
Тип релиза: tracks+.cue
Аудио кодек: FLAC
Битрейт аудио: lossless
Продолжительность: 01:01:44
Треклист:
01. Parental Advisory (0:18)
02. Angriest Introduction (0:42)
03. Real McKoy with a full Clip feat. Busy Signal (3:31)
04. Weh dem a do (2:46)
05. A father's prayer (1:27)
06. They fear me (4:26)
07. Definition of a gangster (0:34)
08. Dreaming (3:22)
09. Don't cry (2:22)
10. Cassava piece radio (2:00)
11. Dying feat. Serani (3:29)
12. David's Interlude (0:39)
13. Top shotta nah miss (2:58)
14. Joey D. Ratt (0:39)
15. Last night (2:44)
16. A snitch's Eulogy (1:22)
17. Amazing Grace (3:23)
18. Touch the road (3:25)
19. Me and my Dogs (3:57)
20. APB (0:10)
21. Gully side (2:52)
22. Squeeze breast (2:54)
23. Heart beat (4:14)
24. Sadness (4:15)
25. Born & Raised (3:30)
Лейбл: VP Records
Каталоговый номер: VPCD 1781
Каталоговый номер Amazon (ASIN): B000QCQUJ2
Тип рипа: tracks+.cue
Уровень сжатия аудио кодеком: EAC FLAC -8
Дополнительная информация: Рип оригинального импортного диска из США, приобретенного в Интернет-магазине Amazon.

Exact Audio Copy V0.99 prebeta 4 from 23. January 2008 

EAC extraction logfile from 5. October 2012, 9:35

Mavado / Gangsta for life

Used drive : ASUS DRW-22B2ST Adapter: 1 ID: 0

Read mode : Secure
Utilize accurate stream : Yes
Defeat audio cache : Yes
Make use of C2 pointers : No

Read offset correction : 6
Overread into Lead-In and Lead-Out : No
Fill up missing offset samples with silence : Yes
Delete leading and trailing silent blocks : No
Null samples used in CRC calculations : Yes
Used interface : Native Win32 interface for Win NT & 2000
Gap handling : Appended to previous track

Used output format : User Defined Encoder
Selected bitrate : 128 kBit/s
Quality : High
Add ID3 tag : No
Command line compressor : C:\Program Files (x86)\Exact Audio Copy\Flac\flac.exe
Additional command line options : -8 -V -T "ARTIST=%a" -T "TITLE=%t" -T "ALBUM=%g" -T "DATE=%y" -T "TRACKNUMBER=%n" -T "GENRE=%m" -T "COMMENT=EAC FLAC -8" %s

TOC of the extracted CD

Track | Start | Length | Start sector | End sector
---------------------------------------------------------
1 | 0:00.00 | 0:18.18 | 0 | 1367
2 | 0:18.18 | 0:41.62 | 1368 | 4504
3 | 1:00.05 | 3:31.22 | 4505 | 20351
4 | 4:31.27 | 2:46.26 | 20352 | 32827
5 | 7:17.53 | 1:26.59 | 32828 | 39336
6 | 8:44.37 | 4:25.58 | 39337 | 59269
7 | 13:10.20 | 0:33.41 | 59270 | 61785
8 | 13:43.61 | 3:22.27 | 61786 | 76962
9 | 17:06.13 | 2:21.50 | 76963 | 87587
10 | 19:27.63 | 1:59.69 | 87588 | 96581
11 | 21:27.57 | 3:29.17 | 96582 | 112273
12 | 24:56.74 | 0:38.67 | 112274 | 115190
13 | 25:35.66 | 2:58.02 | 115191 | 128542
14 | 28:33.68 | 0:39.10 | 128543 | 131477
15 | 29:13.03 | 2:43.52 | 131478 | 143754
16 | 31:56.55 | 1:21.73 | 143755 | 149902
17 | 33:18.53 | 3:22.49 | 149903 | 165101
18 | 36:41.27 | 3:24.45 | 165102 | 180446
19 | 40:05.72 | 3:56.46 | 180447 | 198192
20 | 44:02.43 | 0:09.46 | 198193 | 198913
21 | 44:12.14 | 2:52.26 | 198914 | 211839
22 | 47:04.40 | 2:53.63 | 211840 | 224877
23 | 49:58.28 | 4:13.56 | 224878 | 243908
24 | 54:12.09 | 4:15.13 | 243909 | 263046
25 | 58:27.22 | 3:30.36 | 263047 | 278832

Track 1

Filename E:\Mavado - Gangsta for life (2007) [tapochek.net]\01. Mavado – Parental Advisory.wav

Pre-gap length 0:00:02.00

Peak level 100.0 %
Track quality 99.4 %
Test CRC 3CD3607D
Copy CRC 3CD3607D
Accurately ripped (confidence 1) [EC04681C]
Copy OK

Track 2

Filename E:\Mavado - Gangsta for life (2007) [tapochek.net]\02. Mavado – Angriest Introduction.wav

Peak level 99.9 %
Track quality 99.7 %
Test CRC 65D4AE73
Copy CRC 65D4AE73
Accurately ripped (confidence 1) [7C35AB75]
Copy OK

Track 3

Filename E:\Mavado - Gangsta for life (2007) [tapochek.net]\03. Mavado – Real McKoy with a full Clip feat. Busy Signal.wav

Peak level 99.9 %
Track quality 100.0 %
Test CRC 8E3219CC
Copy CRC 8E3219CC
Accurately ripped (confidence 1) [C89D4C77]
Copy OK

Track 4

Filename E:\Mavado - Gangsta for life (2007) [tapochek.net]\04. Mavado – Weh dem a do.wav

Peak level 100.0 %
Track quality 99.9 %
Test CRC D5E82768
Copy CRC D5E82768
Accurately ripped (confidence 1) [6D4320C4]
Copy OK

Track 5

Filename E:\Mavado - Gangsta for life (2007) [tapochek.net]\05. Mavado – A father's prayer.wav

Peak level 100.0 %
Track quality 100.0 %
Test CRC 08662522
Copy CRC 08662522
Accurately ripped (confidence 1) [69CD4FE7]
Copy OK

Track 6

Filename E:\Mavado - Gangsta for life (2007) [tapochek.net]\06. Mavado – They fear me.wav

Peak level 88.1 %
Track quality 100.0 %
Test CRC CAB56CBD
Copy CRC CAB56CBD
Accurately ripped (confidence 1) [8BD7FBBE]
Copy OK

Track 7

Filename E:\Mavado - Gangsta for life (2007) [tapochek.net]\07. Mavado – Definition of a gangster.wav

Peak level 100.0 %
Track quality 99.6 %
Test CRC 60B74582
Copy CRC 60B74582
Accurately ripped (confidence 1) [878A7E3B]
Copy OK

Track 8

Filename E:\Mavado - Gangsta for life (2007) [tapochek.net]\08. Mavado – Dreaming.wav

Peak level 100.0 %
Track quality 100.0 %
Test CRC 88818FD4
Copy CRC 88818FD4
Accurately ripped (confidence 1) [429CAE08]
Copy OK

Track 9

Filename E:\Mavado - Gangsta for life (2007) [tapochek.net]\09. Mavado – Don't cry.wav

Peak level 100.0 %
Track quality 100.0 %
Test CRC 9615FD23
Copy CRC 9615FD23
Accurately ripped (confidence 1) [E6F2F521]
Copy OK

Track 10

Filename E:\Mavado - Gangsta for life (2007) [tapochek.net]\10. Mavado – Cassava piece radio.wav

Peak level 100.0 %
Track quality 100.0 %
Test CRC EA85CA94
Copy CRC EA85CA94
Accurately ripped (confidence 1) [EEB0A26D]
Copy OK

Track 11

Filename E:\Mavado - Gangsta for life (2007) [tapochek.net]\11. Mavado – Dying feat. Serani.wav

Peak level 100.0 %
Track quality 100.0 %
Test CRC CC6D99DA
Copy CRC CC6D99DA
Accurately ripped (confidence 1) [90E3A4C7]
Copy OK

Track 12

Filename E:\Mavado - Gangsta for life (2007) [tapochek.net]\12. Mavado – David's Interlude.wav

Peak level 100.0 %
Track quality 100.0 %
Test CRC CAE51E10
Copy CRC CAE51E10
Accurately ripped (confidence 1) [0F54D92B]
Copy OK

Track 13

Filename E:\Mavado - Gangsta for life (2007) [tapochek.net]\13. Mavado – Top shotta nah miss.wav

Peak level 100.0 %
Track quality 100.0 %
Test CRC 8C95E976
Copy CRC 8C95E976
Accurately ripped (confidence 1) [33B25BA1]
Copy OK

Track 14

Filename E:\Mavado - Gangsta for life (2007) [tapochek.net]\14. Mavado – Joey D. Ratt.wav

Peak level 100.0 %
Track quality 100.0 %
Test CRC A2B6D530
Copy CRC A2B6D530
Accurately ripped (confidence 1) [DA52B69A]
Copy OK

Track 15

Filename E:\Mavado - Gangsta for life (2007) [tapochek.net]\15. Mavado – Last night.wav

Peak level 100.0 %
Track quality 99.9 %
Test CRC A7E6EA4E
Copy CRC A7E6EA4E
Accurately ripped (confidence 1) [712EAE3B]
Copy OK

Track 16

Filename E:\Mavado - Gangsta for life (2007) [tapochek.net]\16. Mavado – A snitch's Eulogy.wav

Peak level 100.0 %
Track quality 100.0 %
Test CRC F93EF7B9
Copy CRC F93EF7B9
Accurately ripped (confidence 1) [52D2DD13]
Copy OK

Track 17

Filename E:\Mavado - Gangsta for life (2007) [tapochek.net]\17. Mavado – Amazing Grace.wav

Peak level 100.0 %
Track quality 100.0 %
Test CRC 6081F65B
Copy CRC 6081F65B
Accurately ripped (confidence 1) [294DD1E6]
Copy OK

Track 18

Filename E:\Mavado - Gangsta for life (2007) [tapochek.net]\18. Mavado – Touch the road.wav

Peak level 99.9 %
Track quality 100.0 %
Test CRC 870EAFAC
Copy CRC 870EAFAC
Accurately ripped (confidence 1) [5A736B03]
Copy OK

Track 19

Filename E:\Mavado - Gangsta for life (2007) [tapochek.net]\19. Mavado – Me and my Dogs.wav

Peak level 100.0 %
Track quality 100.0 %
Test CRC C2BB1B86
Copy CRC C2BB1B86
Accurately ripped (confidence 1) [48168790]
Copy OK

Track 20

Filename E:\Mavado - Gangsta for life (2007) [tapochek.net]\20. Mavado – APB.wav

Peak level 100.0 %
Track quality 98.8 %
Test CRC EE1E0048
Copy CRC EE1E0048
Accurately ripped (confidence 1) [4BA1045E]
Copy OK

Track 21

Filename E:\Mavado - Gangsta for life (2007) [tapochek.net]\21. Mavado – Gully side.wav

Peak level 100.0 %
Track quality 99.9 %
Test CRC 227769B0
Copy CRC 227769B0
Accurately ripped (confidence 1) [C8604F6E]
Copy OK

Track 22

Filename E:\Mavado - Gangsta for life (2007) [tapochek.net]\22. Mavado – Squeeze breast.wav

Peak level 100.0 %
Track quality 100.0 %
Test CRC 383A8D7D
Copy CRC 383A8D7D
Accurately ripped (confidence 1) [57B46D7B]
Copy OK

Track 23

Filename E:\Mavado - Gangsta for life (2007) [tapochek.net]\23. Mavado – Heart beat.wav

Peak level 100.0 %
Track quality 100.0 %
Test CRC 70BDF89E
Copy CRC 70BDF89E
Accurately ripped (confidence 1) [A6168C9B]
Copy OK

Track 24

Filename E:\Mavado - Gangsta for life (2007) [tapochek.net]\24. Mavado – Sadness.wav

Peak level 100.0 %
Track quality 100.0 %
Test CRC 82FF07E3
Copy CRC 82FF07E3
Accurately ripped (confidence 1) [D17C2E9A]
Copy OK

Track 25

Filename E:\Mavado - Gangsta for life (2007) [tapochek.net]\25. Mavado – Born & Raised.wav

Peak level 100.0 %
Track quality 100.0 %
Test CRC 5CD711E0
Copy CRC 5CD711E0
Accurately ripped (confidence 1) [080CAFB3]
Copy OK

All tracks accurately ripped

No errors occurred

End of status report
REM GENRE "Dance Hall" 
REM DATE 2007
REM DISCID 4B0E8519
REM COMMENT "ExactAudioCopy v0.99pb4"
PERFORMER "Mavado"
TITLE "Gangsta for life"
FILE "01. Mavado – Parental Advisory.wav" WAVE
TRACK 01 AUDIO
TITLE "Parental Advisory"
PERFORMER "Mavado"
INDEX 01 00:00:00
FILE "02. Mavado – Angriest Introduction.wav" WAVE
TRACK 02 AUDIO
TITLE "Angriest Introduction"
PERFORMER "Mavado"
INDEX 01 00:00:00
FILE "03. Mavado – Real McKoy with a full Clip feat. Busy Signal.wav" WAVE
TRACK 03 AUDIO
TITLE "Real McKoy with a full Clip feat. Busy Signal"
PERFORMER "Mavado"
INDEX 01 00:00:00
FILE "04. Mavado – Weh dem a do.wav" WAVE
TRACK 04 AUDIO
TITLE "Weh dem a do"
PERFORMER "Mavado"
INDEX 01 00:00:00
FILE "05. Mavado – A father's prayer.wav" WAVE
TRACK 05 AUDIO
TITLE "A father's prayer"
PERFORMER "Mavado"
INDEX 01 00:00:00
FILE "06. Mavado – They fear me.wav" WAVE
TRACK 06 AUDIO
TITLE "They fear me"
PERFORMER "Mavado"
INDEX 01 00:00:00
FILE "07. Mavado – Definition of a gangster.wav" WAVE
TRACK 07 AUDIO
TITLE "Definition of a gangster"
PERFORMER "Mavado"
INDEX 01 00:00:00
FILE "08. Mavado – Dreaming.wav" WAVE
TRACK 08 AUDIO
TITLE "Dreaming"
PERFORMER "Mavado"
INDEX 01 00:00:00
FILE "09. Mavado – Don't cry.wav" WAVE
TRACK 09 AUDIO
TITLE "Don't cry"
PERFORMER "Mavado"
INDEX 01 00:00:00
FILE "10. Mavado – Cassava piece radio.wav" WAVE
TRACK 10 AUDIO
TITLE "Cassava piece radio"
PERFORMER "Mavado"
INDEX 01 00:00:00
FILE "11. Mavado – Dying feat. Serani.wav" WAVE
TRACK 11 AUDIO
TITLE "Dying feat. Serani"
PERFORMER "Mavado"
INDEX 01 00:00:00
FILE "12. Mavado – David's Interlude.wav" WAVE
TRACK 12 AUDIO
TITLE "David's Interlude"
PERFORMER "Mavado"
INDEX 01 00:00:00
FILE "13. Mavado – Top shotta nah miss.wav" WAVE
TRACK 13 AUDIO
TITLE "Top shotta nah miss"
PERFORMER "Mavado"
INDEX 01 00:00:00
FILE "14. Mavado – Joey D. Ratt.wav" WAVE
TRACK 14 AUDIO
TITLE "Joey D. Ratt"
PERFORMER "Mavado"
INDEX 01 00:00:00
FILE "15. Mavado – Last night.wav" WAVE
TRACK 15 AUDIO
TITLE "Last night"
PERFORMER "Mavado"
INDEX 01 00:00:00
FILE "16. Mavado – A snitch's Eulogy.wav" WAVE
TRACK 16 AUDIO
TITLE "A snitch's Eulogy"
PERFORMER "Mavado"
INDEX 01 00:00:00
FILE "17. Mavado – Amazing Grace.wav" WAVE
TRACK 17 AUDIO
TITLE "Amazing Grace"
PERFORMER "Mavado"
INDEX 01 00:00:00
FILE "18. Mavado – Touch the road.wav" WAVE
TRACK 18 AUDIO
TITLE "Touch the road"
PERFORMER "Mavado"
INDEX 01 00:00:00
FILE "19. Mavado – Me and my Dogs.wav" WAVE
TRACK 19 AUDIO
TITLE "Me and my Dogs"
PERFORMER "Mavado"
INDEX 01 00:00:00
FILE "20. Mavado – APB.wav" WAVE
TRACK 20 AUDIO
TITLE "APB"
PERFORMER "Mavado"
INDEX 01 00:00:00
FILE "21. Mavado – Gully side.wav" WAVE
TRACK 21 AUDIO
TITLE "Gully side"
PERFORMER "Mavado"
INDEX 01 00:00:00
FILE "22. Mavado – Squeeze breast.wav" WAVE
TRACK 22 AUDIO
TITLE "Squeeze breast"
PERFORMER "Mavado"
INDEX 01 00:00:00
FILE "23. Mavado – Heart beat.wav" WAVE
TRACK 23 AUDIO
TITLE "Heart beat"
PERFORMER "Mavado"
INDEX 01 00:00:00
FILE "24. Mavado – Sadness.wav" WAVE
TRACK 24 AUDIO
TITLE "Sadness"
PERFORMER "Mavado"
INDEX 01 00:00:00
FILE "25. Mavado – Born & Raised.wav" WAVE
TRACK 25 AUDIO
TITLE "Born & Raised"
PERFORMER "Mavado"
INDEX 01 00:00:00
Item: "E:\Mavado - Gangsta for life (2007) [tapochek.net]\01. Mavado – Parental Advisory.flac" 
MD5: B38F72A9B28EA2B85000E89B9E9C92D6
CRC32: 3CD3607D
No problems found.

Item: "E:\Mavado - Gangsta for life (2007) [tapochek.net]\02. Mavado – Angriest Introduction.flac"
MD5: 0468764605F949C1726E2CE217DB435D
CRC32: 65D4AE73
No problems found.

Item: "E:\Mavado - Gangsta for life (2007) [tapochek.net]\03. Mavado – Real McKoy with a full Clip feat. Busy Signal.flac"
MD5: 381412E29F89C15E3549FB8C83DA724D
CRC32: 8E3219CC
No problems found.

Item: "E:\Mavado - Gangsta for life (2007) [tapochek.net]\04. Mavado – Weh dem a do.flac"
MD5: 9751A6CDB694F057EA00F3B3AAE00C8D
CRC32: D5E82768
No problems found.

Item: "E:\Mavado - Gangsta for life (2007) [tapochek.net]\05. Mavado – A father's prayer.flac"
MD5: 9DFB1565C203E1C899A4F88A33A8D016
CRC32: 08662522
No problems found.

Item: "E:\Mavado - Gangsta for life (2007) [tapochek.net]\06. Mavado – They fear me.flac"
MD5: F0F66CB38F76F4A132AA41517E32B15A
CRC32: CAB56CBD
No problems found.

Item: "E:\Mavado - Gangsta for life (2007) [tapochek.net]\07. Mavado – Definition of a gangster.flac"
MD5: 6FE2D368593C3C1F50544302DBCDA92F
CRC32: 60B74582
No problems found.

Item: "E:\Mavado - Gangsta for life (2007) [tapochek.net]\08. Mavado – Dreaming.flac"
MD5: 0741645A5731FCD0B6AA149265839230
CRC32: 88818FD4
No problems found.

Item: "E:\Mavado - Gangsta for life (2007) [tapochek.net]\09. Mavado – Don't cry.flac"
MD5: 1EE8C8A8A2718EF24DB0A2BD03897360
CRC32: 9615FD23
No problems found.

Item: "E:\Mavado - Gangsta for life (2007) [tapochek.net]\10. Mavado – Cassava piece radio.flac"
MD5: 926FB696ED5E9763AD97DA610F44CD61
CRC32: EA85CA94
No problems found.

Item: "E:\Mavado - Gangsta for life (2007) [tapochek.net]\11. Mavado – Dying feat. Serani.flac"
MD5: 2C0A7D9B85436823BD3F7325517FB851
CRC32: CC6D99DA
No problems found.

Item: "E:\Mavado - Gangsta for life (2007) [tapochek.net]\12. Mavado – David's Interlude.flac"
MD5: 949ABAC277668ECC063E316A7F91846D
CRC32: CAE51E10
No problems found.

Item: "E:\Mavado - Gangsta for life (2007) [tapochek.net]\13. Mavado – Top shotta nah miss.flac"
MD5: 1850AE3E8260ECA8DD6E0D3962729C85
CRC32: 8C95E976
No problems found.

Item: "E:\Mavado - Gangsta for life (2007) [tapochek.net]\14. Mavado – Joey D. Ratt.flac"
MD5: E513BBDF4C3C075185A25C924F2AAE9C
CRC32: A2B6D530
No problems found.

Item: "E:\Mavado - Gangsta for life (2007) [tapochek.net]\15. Mavado – Last night.flac"
MD5: 83EF4641B66DA44CA2CCD6CD725064E1
CRC32: A7E6EA4E
No problems found.

Item: "E:\Mavado - Gangsta for life (2007) [tapochek.net]\16. Mavado – A snitch's Eulogy.flac"
MD5: 005E62B06BE75C0A06EE4E8F76473916
CRC32: F93EF7B9
No problems found.

Item: "E:\Mavado - Gangsta for life (2007) [tapochek.net]\17. Mavado – Amazing Grace.flac"
MD5: E0E24A8105E9F14BBD07EE53E8DFBBD8
CRC32: 6081F65B
No problems found.

Item: "E:\Mavado - Gangsta for life (2007) [tapochek.net]\18. Mavado – Touch the road.flac"
MD5: 1B8F15A6A21384D03C2B75A280B9B4CC
CRC32: 870EAFAC
No problems found.

Item: "E:\Mavado - Gangsta for life (2007) [tapochek.net]\19. Mavado – Me and my Dogs.flac"
MD5: 8BFFB2267BE86A27A6E6C6986347C8AA
CRC32: C2BB1B86
No problems found.

Item: "E:\Mavado - Gangsta for life (2007) [tapochek.net]\20. Mavado – APB.flac"
MD5: 96F07DB635AA7D037BAE27A1F3E30C7A
CRC32: EE1E0048
No problems found.

Item: "E:\Mavado - Gangsta for life (2007) [tapochek.net]\21. Mavado – Gully side.flac"
MD5: 73360E7547DE40D22725414C52F5DC19
CRC32: 227769B0
No problems found.

Item: "E:\Mavado - Gangsta for life (2007) [tapochek.net]\22. Mavado – Squeeze breast.flac"
MD5: A5B61029DBCFAFDD27C628BFD791C1A8
CRC32: 383A8D7D
No problems found.

Item: "E:\Mavado - Gangsta for life (2007) [tapochek.net]\23. Mavado – Heart beat.flac"
MD5: 36E53E1FA8D2861AB0C3A39AB2761234
CRC32: 70BDF89E
No problems found.

Item: "E:\Mavado - Gangsta for life (2007) [tapochek.net]\24. Mavado – Sadness.flac"
MD5: ACAE748F2860DF5C0AFFE87D0B9C371A
CRC32: 82FF07E3
No problems found.

Item: "E:\Mavado - Gangsta for life (2007) [tapochek.net]\25. Mavado – Born & Raised.flac"
MD5: E10A00FFF98703B9A1E93316AEFD8A53
CRC32: 5CD711E0
No problems found.

All items decoded successfully.
info [Профиль]  [ЛС] 

MrPavlik

Пол: Пол:Муж

Стаж: 9 лет 2 месяца

Сообщений: 152

Россия
Рейтинг

post 10-Окт-2012 09:37 (спустя 5 дней) [-]0[+]

[Цитировать] 

Рип идеален. Пометка UNKN у первого и двадцатого трека связана с тем, что там не песни, а запись голоса: у первого трека - предупреждение Parental Advisory, у двадцатого - превью к песне (также просто голос).
info [Профиль]  [ЛС] 

marios

Пол: Пол:Муж

Стаж: 8 лет 7 месяцев

Сообщений: 7

Украина
Рейтинг

post 10-Окт-2012 19:45 (спустя 10 часов) [-]1[+]

[Цитировать] 

Спасибо!
info [Профиль]  [ЛС] 
Показать сообщения:    
Ответить на тему

Текущее время: 13-Май 16:08

Часовой пояс: GMT + 4



Вы не можете начинать темы
Вы не можете отвечать на сообщения
Вы не можете редактировать свои сообщения
Вы не можете удалять свои сообщения
Вы не можете голосовать в опросах
Вы не можете прикреплять файлы к сообщениям
Вы не можете скачивать файлы