Ошибка

(Hip-Hop / R&B) Timbaland & Magoo - Under Construction Part II - 2008, FLAC (tracks+.cue), lossless

Ответить на тему
 
Автор Сообщение

MrPavlik

Пол: Пол:Муж

Стаж: 10 лет

Сообщений: 152

Россия
Рейтинг

post 04-Сен-2012 00:50 0[+]

[Цитировать] 

Timbaland & Magoo - Under Construction Part II

pic="http://s002.youpic.su/pictures/1346702400/d560f61c4351c7fb80ce956cb46f03ce.jpg"
Жанр: Hip-Hop / R&B
Год издания данного носителя: 2008
Страна-производитель носителя: Россия
Тип релиза: tracks+.cue
Аудио кодек: FLAC
Битрейт аудио: lossless
Продолжительность: 01:02:49
Треклист:
01. Straight Outta Virginia (Intro) (2:04)
02. Cop That Disc (ft Missy Elliott) (3:33)
03. Shenanigans (ft Bubba Sparks) (3:47)
04. Leavin' (ft Attitude) (3:36)
05. That Shit Ain't Gonna Work (3:58)
06. Don't Make Me Take It There (ft Frank Lee White) (4:26)
07. Indian Flute (ft Sebastian & Raje Shwari) (3:22)
08. Can We Do It Again (3:53)
09. Naughty Eye (ft Sebastian & Raje Shwari) (4:56)
10. N 2 Da Music (ft Brandy) (3:57)
11. Hold On (ft Wyclef Jean) (5:04)
12. Insane (ft Candice ''Gg'' Nelson) (4:32)
13. Throwback (3:46)
14. Kold Cutz (4:24)
15. I Got Luv 4 Ya (4:08)
16. Naughty Eye II (ft Beenie Man) (''Hips'') (3:33)
Лейбл: Universal Music Russia
Каталоговый номер: 460502600271
Тип рипа: tracks+.cue
Уровень сжатия аудио кодеком: EAC FLAC -8
Дополнительная информация: после создания рипа данные о CD были внесены в базу AccurateRip.

Exact Audio Copy V0.99 prebeta 4 from 23. January 2008 

EAC extraction logfile from 4. September 2012, 2:35

Timbaland & Magoo / Under Construction Part II

Used drive : ASUS DRW-22B2ST Adapter: 1 ID: 0

Read mode : Secure
Utilize accurate stream : Yes
Defeat audio cache : Yes
Make use of C2 pointers : No

Read offset correction : 6
Overread into Lead-In and Lead-Out : No
Fill up missing offset samples with silence : Yes
Delete leading and trailing silent blocks : No
Null samples used in CRC calculations : Yes
Used interface : Native Win32 interface for Win NT & 2000
Gap handling : Appended to previous track

Used output format : User Defined Encoder
Selected bitrate : 128 kBit/s
Quality : High
Add ID3 tag : No
Command line compressor : C:\Program Files (x86)\Exact Audio Copy\Flac\flac.exe
Additional command line options : -8 -V -T "ARTIST=%a" -T "TITLE=%t" -T "ALBUM=%g" -T "DATE=%y" -T "TRACKNUMBER=%n" -T "GENRE=%m" -T "COMMENT=EAC FLAC -8" %s

TOC of the extracted CD

Track | Start | Length | Start sector | End sector
---------------------------------------------------------
1 | 0:00.00 | 2:03.57 | 0 | 9281
2 | 2:03.57 | 3:33.10 | 9282 | 25266
3 | 5:36.67 | 3:46.65 | 25267 | 42281
4 | 9:23.57 | 3:35.40 | 42282 | 58446
5 | 12:59.22 | 3:58.23 | 58447 | 76319
6 | 16:57.45 | 4:26.11 | 76320 | 96280
7 | 21:23.56 | 3:21.61 | 96281 | 111416
8 | 24:45.42 | 3:52.63 | 111417 | 128879
9 | 28:38.30 | 4:55.52 | 128880 | 151056
10 | 33:34.07 | 3:57.28 | 151057 | 168859
11 | 37:31.35 | 5:04.31 | 168860 | 191690
12 | 42:35.66 | 4:32.02 | 191691 | 212092
13 | 47:07.68 | 3:45.56 | 212093 | 229023
14 | 50:53.49 | 4:23.73 | 229024 | 248821
15 | 55:17.47 | 4:07.68 | 248822 | 267414
16 | 59:25.40 | 3:32.66 | 267415 | 283380

Track 1

Filename E:\Timbaland & Magoo - Under Construction Part II [tapochek.net]\01. Timbaland & Magoo – Straight Outta Virginia (Intro).wav

Pre-gap length 0:00:02.00

Peak level 98.1 %
Track quality 100.0 %
Test CRC 0D6AEB30
Copy CRC 0D6AEB30
Cannot be verified as accurate (confidence 15) [AC338F8F], AccurateRip returned [0001E370]
Copy OK

Track 2

Filename E:\Timbaland & Magoo - Under Construction Part II [tapochek.net]\02. Timbaland & Magoo – Cop That Disc (ft Missy Elliott).wav

Peak level 93.9 %
Track quality 100.0 %
Test CRC 53069003
Copy CRC 53069003
Cannot be verified as accurate (confidence 15) [B33C6890], AccurateRip returned [A415BD0B]
Copy OK

Track 3

Filename E:\Timbaland & Magoo - Under Construction Part II [tapochek.net]\03. Timbaland & Magoo – Shenanigans (ft Bubba Sparks).wav

Peak level 95.9 %
Track quality 100.0 %
Test CRC C9ABC4DD
Copy CRC C9ABC4DD
Cannot be verified as accurate (confidence 15) [1136E107], AccurateRip returned [1AA6D93C]
Copy OK

Track 4

Filename E:\Timbaland & Magoo - Under Construction Part II [tapochek.net]\04. Timbaland & Magoo – Leavin' (ft Attitude).wav

Peak level 97.8 %
Track quality 99.9 %
Test CRC 951EB546
Copy CRC 951EB546
Cannot be verified as accurate (confidence 15) [15A58454], AccurateRip returned [CE8C0421]
Copy OK

Track 5

Filename E:\Timbaland & Magoo - Under Construction Part II [tapochek.net]\05. Timbaland & Magoo – That Shit Ain't Gonna Work.wav

Peak level 99.5 %
Track quality 100.0 %
Test CRC 6D3ACC9A
Copy CRC 6D3ACC9A
Cannot be verified as accurate (confidence 15) [345DD3CE], AccurateRip returned [67E28C55]
Copy OK

Track 6

Filename E:\Timbaland & Magoo - Under Construction Part II [tapochek.net]\06. Timbaland & Magoo – Don't Make Me Take It There (ft Frank Lee White).wav

Peak level 96.7 %
Track quality 100.0 %
Test CRC 4E828C36
Copy CRC 4E828C36
Cannot be verified as accurate (confidence 15) [BE56B1CB], AccurateRip returned [D9282BE4]
Copy OK

Track 7

Filename E:\Timbaland & Magoo - Under Construction Part II [tapochek.net]\07. Timbaland & Magoo – Indian Flute (ft Sebastian & Raje Shwari).wav

Peak level 97.9 %
Track quality 100.0 %
Test CRC D640DAE6
Copy CRC D640DAE6
Cannot be verified as accurate (confidence 15) [5F351F72], AccurateRip returned [624126F9]
Copy OK

Track 8

Filename E:\Timbaland & Magoo - Under Construction Part II [tapochek.net]\08. Timbaland & Magoo – Can We Do It Again.wav

Peak level 97.9 %
Track quality 100.0 %
Test CRC DDD5A581
Copy CRC DDD5A581
Cannot be verified as accurate (confidence 15) [17B1B4B9], AccurateRip returned [5A8E639C]
Copy OK

Track 9

Filename E:\Timbaland & Magoo - Under Construction Part II [tapochek.net]\09. Timbaland & Magoo – Naughty Eye (ft Sebastian & Raje Shwari).wav

Peak level 93.6 %
Track quality 100.0 %
Test CRC 0A1D6324
Copy CRC 0A1D6324
Cannot be verified as accurate (confidence 15) [22E6A796], AccurateRip returned [05176A5D]
Copy OK

Track 10

Filename E:\Timbaland & Magoo - Under Construction Part II [tapochek.net]\10. Timbaland & Magoo – N 2 Da Music (ft Brandy).wav

Peak level 99.8 %
Track quality 100.0 %
Test CRC F639684D
Copy CRC F639684D
Cannot be verified as accurate (confidence 15) [F6D384FE], AccurateRip returned [1BBA4FCE]
Copy OK

Track 11

Filename E:\Timbaland & Magoo - Under Construction Part II [tapochek.net]\11. Timbaland & Magoo – Hold On (ft Wyclef Jean).wav

Peak level 99.5 %
Track quality 100.0 %
Test CRC F7C13963
Copy CRC F7C13963
Cannot be verified as accurate (confidence 15) [4F73A7CB], AccurateRip returned [20A2191A]
Copy OK

Track 12

Filename E:\Timbaland & Magoo - Under Construction Part II [tapochek.net]\12. Timbaland & Magoo – Insane (ft Candice ''Gg'' Nelson).wav

Peak level 99.9 %
Track quality 100.0 %
Test CRC CEC8BAD5
Copy CRC CEC8BAD5
Cannot be verified as accurate (confidence 15) [21339C13], AccurateRip returned [855710D4]
Copy OK

Track 13

Filename E:\Timbaland & Magoo - Under Construction Part II [tapochek.net]\13. Timbaland & Magoo – Throwback.wav

Peak level 97.9 %
Track quality 100.0 %
Test CRC 4E53E9ED
Copy CRC 4E53E9ED
Cannot be verified as accurate (confidence 15) [9E2B7316], AccurateRip returned [6E6CC6FF]
Copy OK

Track 14

Filename E:\Timbaland & Magoo - Under Construction Part II [tapochek.net]\14. Timbaland & Magoo – Kold Cutz.wav

Peak level 92.3 %
Track quality 99.9 %
Test CRC 4115BD34
Copy CRC 4115BD34
Cannot be verified as accurate (confidence 15) [C6C933BF], AccurateRip returned [D1705B4C]
Copy OK

Track 15

Filename E:\Timbaland & Magoo - Under Construction Part II [tapochek.net]\15. Timbaland & Magoo – I Got Luv 4 Ya.wav

Peak level 99.9 %
Track quality 100.0 %
Test CRC D3F26A7E
Copy CRC D3F26A7E
Cannot be verified as accurate (confidence 15) [6FFFC068], AccurateRip returned [3B9F4FCE]
Copy OK

Track 16

Filename E:\Timbaland & Magoo - Under Construction Part II [tapochek.net]\16. Timbaland & Magoo – Naughty Eye II (ft Beenie Man) (''Hips'').wav

Peak level 98.1 %
Track quality 99.9 %
Test CRC C687E8DA
Copy CRC C687E8DA
Cannot be verified as accurate (confidence 15) [E0A8AE60], AccurateRip returned [C7EF883D]
Copy OK

No tracks could be verified as accurate
You may have a different pressing from the one(s) in the database

No errors occurred

End of status report
REM GENRE Rap 
REM DATE 2003
REM DISCID E00EC210
REM COMMENT "ExactAudioCopy v0.99pb4"
PERFORMER "Timbaland & Magoo"
TITLE "Under Construction Part II"
FILE "01. Timbaland & Magoo – Straight Outta Virginia (Intro).wav" WAVE
TRACK 01 AUDIO
TITLE "Straight Outta Virginia (Intro)"
PERFORMER "Timbaland & Magoo"
FLAGS DCP
INDEX 01 00:00:00
FILE "02. Timbaland & Magoo – Cop That Disc (ft Missy Elliott).wav" WAVE
TRACK 02 AUDIO
TITLE "Cop That Disc (ft Missy Elliott)"
PERFORMER "Timbaland & Magoo"
FLAGS DCP
INDEX 01 00:00:00
FILE "03. Timbaland & Magoo – Shenanigans (ft Bubba Sparks).wav" WAVE
TRACK 03 AUDIO
TITLE "Shenanigans (ft Bubba Sparks)"
PERFORMER "Timbaland & Magoo"
FLAGS DCP
INDEX 01 00:00:00
FILE "04. Timbaland & Magoo – Leavin' (ft Attitude).wav" WAVE
TRACK 04 AUDIO
TITLE "Leavin' (ft Attitude)"
PERFORMER "Timbaland & Magoo"
FLAGS DCP
INDEX 01 00:00:00
FILE "05. Timbaland & Magoo – That Shit Ain't Gonna Work.wav" WAVE
TRACK 05 AUDIO
TITLE "That Shit Ain't Gonna Work"
PERFORMER "Timbaland & Magoo"
FLAGS DCP
INDEX 01 00:00:00
FILE "06. Timbaland & Magoo – Don't Make Me Take It There (ft Frank Lee White).wav" WAVE
TRACK 06 AUDIO
TITLE "Don't Make Me Take It There (ft Frank Lee White)"
PERFORMER "Timbaland & Magoo"
FLAGS DCP
INDEX 01 00:00:00
FILE "07. Timbaland & Magoo – Indian Flute (ft Sebastian & Raje Shwari).wav" WAVE
TRACK 07 AUDIO
TITLE "Indian Flute (ft Sebastian & Raje Shwari)"
PERFORMER "Timbaland & Magoo"
FLAGS DCP
INDEX 01 00:00:00
FILE "08. Timbaland & Magoo – Can We Do It Again.wav" WAVE
TRACK 08 AUDIO
TITLE "Can We Do It Again"
PERFORMER "Timbaland & Magoo"
FLAGS DCP
INDEX 01 00:00:00
FILE "09. Timbaland & Magoo – Naughty Eye (ft Sebastian & Raje Shwari).wav" WAVE
TRACK 09 AUDIO
TITLE "Naughty Eye (ft Sebastian & Raje Shwari)"
PERFORMER "Timbaland & Magoo"
FLAGS DCP
INDEX 01 00:00:00
FILE "10. Timbaland & Magoo – N 2 Da Music (ft Brandy).wav" WAVE
TRACK 10 AUDIO
TITLE "N 2 Da Music (ft Brandy)"
PERFORMER "Timbaland & Magoo"
FLAGS DCP
INDEX 01 00:00:00
FILE "11. Timbaland & Magoo – Hold On (ft Wyclef Jean).wav" WAVE
TRACK 11 AUDIO
TITLE "Hold On (ft Wyclef Jean)"
PERFORMER "Timbaland & Magoo"
FLAGS DCP
INDEX 01 00:00:00
FILE "12. Timbaland & Magoo – Insane (ft Candice ''Gg'' Nelson).wav" WAVE
TRACK 12 AUDIO
TITLE "Insane (ft Candice ''Gg'' Nelson)"
PERFORMER "Timbaland & Magoo"
FLAGS DCP
INDEX 01 00:00:00
FILE "13. Timbaland & Magoo – Throwback.wav" WAVE
TRACK 13 AUDIO
TITLE "Throwback"
PERFORMER "Timbaland & Magoo"
FLAGS DCP
INDEX 01 00:00:00
FILE "14. Timbaland & Magoo – Kold Cutz.wav" WAVE
TRACK 14 AUDIO
TITLE "Kold Cutz"
PERFORMER "Timbaland & Magoo"
FLAGS DCP
INDEX 01 00:00:00
FILE "15. Timbaland & Magoo – I Got Luv 4 Ya.wav" WAVE
TRACK 15 AUDIO
TITLE "I Got Luv 4 Ya"
PERFORMER "Timbaland & Magoo"
FLAGS DCP
INDEX 01 00:00:00
FILE "16. Timbaland & Magoo – Naughty Eye II (ft Beenie Man) (''Hips'').wav" WAVE
TRACK 16 AUDIO
TITLE "Naughty Eye II (ft Beenie Man) (''Hips'')"
PERFORMER "Timbaland & Magoo"
FLAGS DCP
INDEX 01 00:00:00
Item: "E:\Timbaland & Magoo - Under Construction Part II [tapochek.net]\01. Timbaland & Magoo – Straight Outta Virginia (Intro).flac" 
MD5: D98DB23C535D3AFFD65AEB1A90516E1B
CRC32: 0D6AEB30
No problems found.

Item: "E:\Timbaland & Magoo - Under Construction Part II [tapochek.net]\02. Timbaland & Magoo – Cop That Disc (ft Missy Elliott).flac"
MD5: 77C3BF24EC10FD3ACD174ABC41FEA8DD
CRC32: 53069003
No problems found.

Item: "E:\Timbaland & Magoo - Under Construction Part II [tapochek.net]\03. Timbaland & Magoo – Shenanigans (ft Bubba Sparks).flac"
MD5: 8DC164F4085E3C43343D24CDE33D3271
CRC32: C9ABC4DD
No problems found.

Item: "E:\Timbaland & Magoo - Under Construction Part II [tapochek.net]\04. Timbaland & Magoo – Leavin' (ft Attitude).flac"
MD5: 745D7F3B9F9B30C9332967F82CA5F095
CRC32: 951EB546
No problems found.

Item: "E:\Timbaland & Magoo - Under Construction Part II [tapochek.net]\05. Timbaland & Magoo – That Shit Ain't Gonna Work.flac"
MD5: 24434330D2ACA7AD2A13669E5FF32E56
CRC32: 6D3ACC9A
No problems found.

Item: "E:\Timbaland & Magoo - Under Construction Part II [tapochek.net]\06. Timbaland & Magoo – Don't Make Me Take It There (ft Frank Lee White).flac"
MD5: E61DBB0753729E98F1480100C563FB92
CRC32: 4E828C36
No problems found.

Item: "E:\Timbaland & Magoo - Under Construction Part II [tapochek.net]\07. Timbaland & Magoo – Indian Flute (ft Sebastian & Raje Shwari).flac"
MD5: EFB1F49401125698BA34A3A6D2AB8BBC
CRC32: D640DAE6
No problems found.

Item: "E:\Timbaland & Magoo - Under Construction Part II [tapochek.net]\08. Timbaland & Magoo – Can We Do It Again.flac"
MD5: B30938BE5990B9FC085F7B2F86C5A32D
CRC32: DDD5A581
No problems found.

Item: "E:\Timbaland & Magoo - Under Construction Part II [tapochek.net]\09. Timbaland & Magoo – Naughty Eye (ft Sebastian & Raje Shwari).flac"
MD5: 261F6F83AB61515B28CBF4F63DEE4F8E
CRC32: 0A1D6324
No problems found.

Item: "E:\Timbaland & Magoo - Under Construction Part II [tapochek.net]\10. Timbaland & Magoo – N 2 Da Music (ft Brandy).flac"
MD5: B62B2FDDDCE7B99B07DF715A188A33AB
CRC32: F639684D
No problems found.

Item: "E:\Timbaland & Magoo - Under Construction Part II [tapochek.net]\11. Timbaland & Magoo – Hold On (ft Wyclef Jean).flac"
MD5: C5624E55A396398ADC7415F0063E2D4C
CRC32: F7C13963
No problems found.

Item: "E:\Timbaland & Magoo - Under Construction Part II [tapochek.net]\12. Timbaland & Magoo – Insane (ft Candice ''Gg'' Nelson).flac"
MD5: E687E08CDF17FC64D66169543D00C99C
CRC32: CEC8BAD5
No problems found.

Item: "E:\Timbaland & Magoo - Under Construction Part II [tapochek.net]\13. Timbaland & Magoo – Throwback.flac"
MD5: 726E87479AF56204C83A1913B309875A
CRC32: 4E53E9ED
No problems found.

Item: "E:\Timbaland & Magoo - Under Construction Part II [tapochek.net]\14. Timbaland & Magoo – Kold Cutz.flac"
MD5: 0F4610F5E39C15EE5436E68CDC8704D9
CRC32: 4115BD34
No problems found.

Item: "E:\Timbaland & Magoo - Under Construction Part II [tapochek.net]\15. Timbaland & Magoo – I Got Luv 4 Ya.flac"
MD5: 87D78EBA472F2F665D1D6638C0D48777
CRC32: D3F26A7E
No problems found.

Item: "E:\Timbaland & Magoo - Under Construction Part II [tapochek.net]\16. Timbaland & Magoo – Naughty Eye II (ft Beenie Man) (''Hips'').flac"
MD5: 3587C63DCE142BFC198EC6C145D49E0A
CRC32: C687E8DA
No problems found.

All items decoded successfully.
info [Профиль]  [ЛС] 
Показать сообщения:    
Ответить на тему

Текущее время: 21-Май 16:02

Часовой пояс: GMT + 4



Вы не можете начинать темы
Вы не можете отвечать на сообщения
Вы не можете редактировать свои сообщения
Вы не можете удалять свои сообщения
Вы не можете голосовать в опросах
Вы не можете прикреплять файлы к сообщениям
Вы не можете скачивать файлы