Ошибка

(Reggae) Serani - No Games - 2009, FLAC (tracks+.cue), lossless

Ответить на тему
 
Автор Сообщение

MrPavlik

Пол: Пол:Муж

Стаж: 9 лет 2 месяца

Сообщений: 152

Россия
Рейтинг

post 28-Авг-2012 19:29 0[+]

[Цитировать] 

Serani - No Games

pic="http://s002.youpic.su/pictures/1346097600/0180859141ab0ee93912265e9736940b.jpg"
Жанр: Reggae
Год издания данного носителя: 2009
Страна-производитель носителя: England
Тип релиза: tracks+.cue
Аудио кодек: FLAC
Битрейт аудио: lossless
Продолжительность: 00:48:46
Треклист:
01. No Games (3:08)
02. Chauffeur Featuring Smoke From Field Mob (3:41)
03. Polka Dot (4:26)
04. When It's Cold Outside (2:49)
05. Be With You (3:35)
06. First Sight (4:13)
07. She Loves Me (3:06)
08. Naked (3:13)
09. Give Me (3:20)
10. Romance Me (3:43)
11. Take Me Higher (3:50)
12. Hey Sexy (3:53)
13. Faith In Me (2:58)
14. Mama Still Hungry (2:58)
Лейбл: Phase One Communications Inc.
Каталоговый номер: POC1000
Каталоговый номер Amazon (ASIN): B002R0HT6E
Тип рипа: tracks+.cue
Уровень сжатия аудио кодеком: EAC FLAC -8
Дополнительная информация: Рип оригинального импортного диска из США, приобретенного в Интернет-магазине Amazon.

Exact Audio Copy V0.99 prebeta 4 from 23. January 2008 

EAC extraction logfile from 26. April 2014, 2:24

Serani / No Games

Used drive : ASUS DRW-22B2ST Adapter: 2 ID: 0

Read mode : Secure
Utilize accurate stream : Yes
Defeat audio cache : Yes
Make use of C2 pointers : No

Read offset correction : 6
Overread into Lead-In and Lead-Out : No
Fill up missing offset samples with silence : Yes
Delete leading and trailing silent blocks : No
Null samples used in CRC calculations : Yes
Used interface : Native Win32 interface for Win NT & 2000
Gap handling : Appended to previous track

Used output format : User Defined Encoder
Selected bitrate : 128 kBit/s
Quality : High
Add ID3 tag : No
Command line compressor : C:\Program Files (x86)\Exact Audio Copy\Flac\flac.exe
Additional command line options : -8 -V -T "ARTIST=%a" -T "TITLE=%t" -T "ALBUM=%g" -T "DATE=%y" -T "TRACKNUMBER=%n" -T "GENRE=%m" -T "COMMENT=EAC FLAC -8" %s

TOC of the extracted CD

Track | Start | Length | Start sector | End sector
---------------------------------------------------------
1 | 0:00.00 | 3:08.15 | 0 | 14114
2 | 3:08.15 | 3:40.73 | 14115 | 30687
3 | 6:49.13 | 4:25.64 | 30688 | 50626
4 | 11:15.02 | 2:49.20 | 50627 | 63321
5 | 14:04.22 | 3:35.12 | 63322 | 79458
6 | 17:39.34 | 4:13.11 | 79459 | 98444
7 | 21:52.45 | 3:06.10 | 98445 | 112404
8 | 24:58.55 | 3:13.35 | 112405 | 126914
9 | 28:12.15 | 3:19.60 | 126915 | 141899
10 | 31:32.00 | 3:42.62 | 141900 | 158611
11 | 35:14.62 | 3:50.37 | 158612 | 175898
12 | 39:05.24 | 3:52.42 | 175899 | 193340
13 | 42:57.66 | 2:57.56 | 193341 | 206671
14 | 45:55.47 | 2:57.59 | 206672 | 220005

Track 1

Filename E:\Serani - No Games (2009) [tapochek.net]\01. Serani – No Games.wav

Pre-gap length 0:00:02.00

Peak level 98.8 %
Track quality 100.0 %
Test CRC 16DBCF47
Copy CRC 16DBCF47
Accurately ripped (confidence 2) [8D75BA00]
Copy OK

Track 2

Filename E:\Serani - No Games (2009) [tapochek.net]\02. Serani – Chauffeur Featuring Smoke From Field Mob.wav

Peak level 98.8 %
Track quality 100.0 %
Test CRC D2E4BD46
Copy CRC D2E4BD46
Accurately ripped (confidence 2) [24EEC1F9]
Copy OK

Track 3

Filename E:\Serani - No Games (2009) [tapochek.net]\03. Serani – Polka Dot.wav

Peak level 94.5 %
Track quality 100.0 %
Test CRC C32A5A7C
Copy CRC C32A5A7C
Accurately ripped (confidence 2) [2ABB911C]
Copy OK

Track 4

Filename E:\Serani - No Games (2009) [tapochek.net]\04. Serani – When It's Cold Outside.wav

Peak level 98.8 %
Track quality 100.0 %
Test CRC 4BCD1DB4
Copy CRC 4BCD1DB4
Accurately ripped (confidence 2) [91D100B0]
Copy OK

Track 5

Filename E:\Serani - No Games (2009) [tapochek.net]\05. Serani – Be With You.wav

Peak level 98.8 %
Track quality 99.9 %
Test CRC D9295BD4
Copy CRC D9295BD4
Accurately ripped (confidence 2) [D341681C]
Copy OK

Track 6

Filename E:\Serani - No Games (2009) [tapochek.net]\06. Serani – First Sight.wav

Peak level 98.8 %
Track quality 100.0 %
Test CRC 63478F7D
Copy CRC 63478F7D
Accurately ripped (confidence 2) [C98C6E3F]
Copy OK

Track 7

Filename E:\Serani - No Games (2009) [tapochek.net]\07. Serani – She Loves Me.wav

Peak level 98.8 %
Track quality 100.0 %
Test CRC 97801E82
Copy CRC 97801E82
Accurately ripped (confidence 2) [A0F189D1]
Copy OK

Track 8

Filename E:\Serani - No Games (2009) [tapochek.net]\08. Serani – Naked.wav

Peak level 98.8 %
Track quality 100.0 %
Test CRC 551160F4
Copy CRC 551160F4
Accurately ripped (confidence 2) [D4A47B90]
Copy OK

Track 9

Filename E:\Serani - No Games (2009) [tapochek.net]\09. Serani – Give Me.wav

Peak level 98.8 %
Track quality 100.0 %
Test CRC 6771E200
Copy CRC 6771E200
Accurately ripped (confidence 2) [901E19BC]
Copy OK

Track 10

Filename E:\Serani - No Games (2009) [tapochek.net]\10. Serani – Romance Me.wav

Peak level 98.8 %
Track quality 99.9 %
Test CRC 1FC457F2
Copy CRC 1FC457F2
Accurately ripped (confidence 2) [51C4F538]
Copy OK

Track 11

Filename E:\Serani - No Games (2009) [tapochek.net]\11. Serani – Take Me Higher.wav

Peak level 98.8 %
Track quality 100.0 %
Test CRC 738BFECB
Copy CRC 738BFECB
Accurately ripped (confidence 2) [AFECE681]
Copy OK

Track 12

Filename E:\Serani - No Games (2009) [tapochek.net]\12. Serani – Hey Sexy.wav

Peak level 98.8 %
Track quality 100.0 %
Test CRC 06F9822D
Copy CRC 06F9822D
Accurately ripped (confidence 2) [82A577AA]
Copy OK

Track 13

Filename E:\Serani - No Games (2009) [tapochek.net]\13. Serani – Faith In Me.wav

Peak level 98.8 %
Track quality 100.0 %
Test CRC 47249622
Copy CRC 47249622
Accurately ripped (confidence 2) [54A79DC1]
Copy OK

Track 14

Filename E:\Serani - No Games (2009) [tapochek.net]\14. Serani – Mama Still Hungry.wav

Peak level 98.8 %
Track quality 100.0 %
Test CRC B2F758B5
Copy CRC B2F758B5
Accurately ripped (confidence 2) [06FDB533]
Copy OK

All tracks accurately ripped

No errors occurred

End of status report
REM GENRE Reggae 
REM DATE 2009
REM DISCID BF0B750E
REM COMMENT "ExactAudioCopy v0.99pb4"
PERFORMER "Serani"
TITLE "No Games"
FILE "01. Serani – No Games.wav" WAVE
TRACK 01 AUDIO
TITLE "No Games"
PERFORMER "Serani"
INDEX 01 00:00:00
FILE "02. Serani – Chauffeur Featuring Smoke From Field Mob.wav" WAVE
TRACK 02 AUDIO
TITLE "Chauffeur Featuring Smoke From Field Mob"
PERFORMER "Serani"
INDEX 01 00:00:00
FILE "03. Serani – Polka Dot.wav" WAVE
TRACK 03 AUDIO
TITLE "Polka Dot"
PERFORMER "Serani"
INDEX 01 00:00:00
FILE "04. Serani – When It's Cold Outside.wav" WAVE
TRACK 04 AUDIO
TITLE "When It's Cold Outside"
PERFORMER "Serani"
INDEX 01 00:00:00
FILE "05. Serani – Be With You.wav" WAVE
TRACK 05 AUDIO
TITLE "Be With You"
PERFORMER "Serani"
INDEX 01 00:00:00
FILE "06. Serani – First Sight.wav" WAVE
TRACK 06 AUDIO
TITLE "First Sight"
PERFORMER "Serani"
INDEX 01 00:00:00
FILE "07. Serani – She Loves Me.wav" WAVE
TRACK 07 AUDIO
TITLE "She Loves Me"
PERFORMER "Serani"
INDEX 01 00:00:00
FILE "08. Serani – Naked.wav" WAVE
TRACK 08 AUDIO
TITLE "Naked"
PERFORMER "Serani"
INDEX 01 00:00:00
FILE "09. Serani – Give Me.wav" WAVE
TRACK 09 AUDIO
TITLE "Give Me"
PERFORMER "Serani"
INDEX 01 00:00:00
FILE "10. Serani – Romance Me.wav" WAVE
TRACK 10 AUDIO
TITLE "Romance Me"
PERFORMER "Serani"
INDEX 01 00:00:00
FILE "11. Serani – Take Me Higher.wav" WAVE
TRACK 11 AUDIO
TITLE "Take Me Higher"
PERFORMER "Serani"
INDEX 01 00:00:00
FILE "12. Serani – Hey Sexy.wav" WAVE
TRACK 12 AUDIO
TITLE "Hey Sexy"
PERFORMER "Serani"
INDEX 01 00:00:00
FILE "13. Serani – Faith In Me.wav" WAVE
TRACK 13 AUDIO
TITLE "Faith In Me"
PERFORMER "Serani"
INDEX 01 00:00:00
FILE "14. Serani – Mama Still Hungry.wav" WAVE
TRACK 14 AUDIO
TITLE "Mama Still Hungry"
PERFORMER "Serani"
INDEX 01 00:00:00
Item: "E:\Serani - No Games [tapochek.net]\01. Serani – No Games.flac" 
MD5: C7396D851ADE3B20F59B737598D2D685
CRC32: 16DBCF47
No problems found.

Item: "E:\Serani - No Games [tapochek.net]\02. Serani – Chauffeur Featuring Smoke From Field Mob.flac"
MD5: 89F60D080D2BC16EB0297531CA38A3C5
CRC32: D2E4BD46
No problems found.

Item: "E:\Serani - No Games [tapochek.net]\03. Serani – Polka Dot.flac"
MD5: C43C72C2B6F19B95845A026B0A9EEA1C
CRC32: C32A5A7C
No problems found.

Item: "E:\Serani - No Games [tapochek.net]\04. Serani – When It's Cold Outside.flac"
MD5: 6222CC837278B5714E492AB5FF0B7EA1
CRC32: 4BCD1DB4
No problems found.

Item: "E:\Serani - No Games [tapochek.net]\05. Serani – Be With You.flac"
MD5: D3EAE1F3F7ABF61D09F53B56A00CAC57
CRC32: D9295BD4
No problems found.

Item: "E:\Serani - No Games [tapochek.net]\06. Serani – First Sight.flac"
MD5: 34B7D9258FB7C2A5D1F62B3153D0972C
CRC32: 63478F7D
No problems found.

Item: "E:\Serani - No Games [tapochek.net]\07. Serani – She Loves Me.flac"
MD5: EF513EABA4BE80ADF4B224E2AABB6A2D
CRC32: 97801E82
No problems found.

Item: "E:\Serani - No Games [tapochek.net]\08. Serani – Naked.flac"
MD5: DB2C5A181F207BDF20806B3C27A8580F
CRC32: 551160F4
No problems found.

Item: "E:\Serani - No Games [tapochek.net]\09. Serani – Give Me.flac"
MD5: 84F3FB8FDCCF9196FB20BF010D8F96C1
CRC32: 6771E200
No problems found.

Item: "E:\Serani - No Games [tapochek.net]\10. Serani – Romance Me.flac"
MD5: 728F9ABACC16A783C2899C62C17E2FE4
CRC32: 1FC457F2
No problems found.

Item: "E:\Serani - No Games [tapochek.net]\11. Serani – Take Me Higher.flac"
MD5: 64EBBF2BA68213F3F7085AB477AA0E59
CRC32: 738BFECB
No problems found.

Item: "E:\Serani - No Games [tapochek.net]\12. Serani – Hey Sexy.flac"
MD5: B22D899DB4DC7E99E41FEEB216047C1C
CRC32: 06F9822D
No problems found.

Item: "E:\Serani - No Games [tapochek.net]\13. Serani – Faith In Me.flac"
MD5: 72985943176EA9AB1F570C3B8FB6E08C
CRC32: 47249622
No problems found.

Item: "E:\Serani - No Games [tapochek.net]\14. Serani – Mama Still Hungry.flac"
MD5: E66F40D602D79E18F9315B669CD8E516
CRC32: B2F758B5
No problems found.

All items decoded successfully.
info [Профиль]  [ЛС] 
Показать сообщения:    
Ответить на тему

Текущее время: 13-Май 15:54

Часовой пояс: GMT + 4



Вы не можете начинать темы
Вы не можете отвечать на сообщения
Вы не можете редактировать свои сообщения
Вы не можете удалять свои сообщения
Вы не можете голосовать в опросах
Вы не можете прикреплять файлы к сообщениям
Вы не можете скачивать файлы