Ошибка

(Classical) The 50 Greatest Pieces of Classical Music (London Philharmonic Orchestra) - 2011, FLAC (tracks+.cue), lossless

Ответить на тему
 
Автор Сообщение

Rock Star

Пол: Пол:Муж

Стаж: 9 лет 9 месяцев

Сообщений: 780

Рейтинг

post 23-Июл-2012 20:12 3[+]

[Цитировать] 

pic="http://s002.youpic.su/pictures/1340481600/559151775e11a80679140b8e8a285e2e.jpg"
The 50 Greatest Pieces of Classical Music
by London Philharmonic Orchestra & David Parry


Жанр: Classical Год издания данного носителя: 2009 Страна-производитель носителя: SE Аудио кодек: FLAC
Лейбл: X5 Music Group Каталоговый номер: X517500 Битрейт аудио: lossless Продолжительность: 4:23:11 Источник: what.cd

1. Carmina Burana: O Fortuna (2:42)
2. Orchestral Suite No. 3 In D Major, BWV 1068: Air (4:14)
3. Peer Gynt Suite No. 1, Op. 46: Morning Mood (3:44)
4. Symphony No. 5 In C Minor, Op. 67, "Fate": I. Allegro Con Brio (7:28)
5. Nocturne No. 2 In E-Flat Major, Op. 9 (4:53)
6. Canon In D Major (3:30)
7. Adagio for Strings (8:22)
8. The Four Seasons, Op. 8, "Spring": Allegro (3:12)
9. The Valkyrie: Ride of the Valkyries (5:11)
10. Suite Bergamasque, L 75: Clair de Lune (5:13)
11. Nabucco: Chorus of the Hebrew Slaves (Va', Pensiero, Sull'ali Dorate) (4:59)
12. The Planets, Op. 32: Jupiter, the Bringer of Jollity (7:45)
13. Symphony No. 9 In E Minor, Op. 95, "From the New World": II. Largo (12:49)
14. Brandenburg Concerto No. 3 In G Major, BWV 1048: Allegro (5:44)
15. Piano Concerto No. 21 In C Major, K. 467: II. Andante (7:17)
16. Hungarian Dance No. 5 In G Minor (2:38)
17. Thaïs: Meditation (5:01)
18. Pomp and Circumstance, Op. 39: Land of Hope and Glory (5:45)
19. Requiem, K. 626: Lacrimosa Dies Illa (2:49)
20. On the Beautiful Blue Danube, Op. 314 (5:51)
21. Bagatelle In A Minor, WoO 59, "Für Elise" (3:15)
22. Carmen Suite No. 2: Habanera (2:12)
23. Swan Lake Suite, Op. 20: Scéne (3:01)
24. Gymnopédie No. 1 (3:40)
25. Symphony No. 9 In D Minor, Op. 125, "Choral": Ode an Die Freude (2:32)
26. The Barber of Seville: Overture (6:58)
27. Ave Maria (after J.S. Bach) (2:34)
28. Peer Gynt Suite No. 1, Op. 46: In the Hall of the Mountain King (2:43)
29. Piano Sonata No. 14 In C-Sharp Minor, Op. 27:2, "Moonlight Sonata": Adagio Sostenuto (5:36)
30. Serenade No. 13 In G Major, K. 525, "Eine Kleine Nachtmusik": I. Allegro (5:51)
31. Adagio In G Minor for Strings and Organ (after T. Albinoni) (8:37)
32. Finlandia, Op. 26 (8:06)
33. String Quintet In e Major, Op. 13: Minuet (3:48)
34. Symphony No. 40 In G Minor, K. 550: I. Allegro Molto (7:02)
35. Cavatina (3:59)
36. Slavonic Dance No. 2, Op. 72 (5:35)
37. Messa Da Requiem: Dies Irae - Tuba Mirum (3:54)
38. Symphony No. 5: Adagietto (11:00)
39. Má Vlast (My Fatherland): Vltava (The Moldau River) (11:26)
40. Pavane (5:07)
41. Double Concerto In D Minor for Two Violins, BWV 1043: Vivace (3:38)
42. The Tales of Hoffmann: Barcarolle (3:33)
43. The Magic Flute, K. 620: Overture (6:24)
44. Piano Sonata No. 11 In A Major, K. 331: Rondo: Alla Turca (3:25)
45. L'Arlesienne Suite No. 1: Prelude (6:53)
46. Concerto Grosso No. 8 In G Minor, Op. 6, "Christmas Concerto": Allegro (2:27)
47. Radetzky March, Op. 228 (3:05)
48. Vocalise, Op. 34 (5:50)
49. Egmont, Op. 84: Overture (7:57)
50. The Messiah, HWV 56: Hallelujah Chorus (3:32)
X Lossless Decoder version 20120226 (139.1) 

XLD extraction logfile from 2012-03-07 15:58:59 -0800

London Philharmonic Orchestra / The 50 Greatest Pieces Of Classical Music

Used drive : PIONEER DVD-RW DVRTS08 (revision Q81B)

Ripper mode : XLD Secure Ripper
Disable audio cache : OK for the drive with a cache less than 1375KiB
Make use of C2 pointers : NO
Read offset correction : 48
Max retry count : 100
Gap status : Analyzed, Appended (except HTOA)

TOC of the extracted CD
Track | Start | Length | Start sector | End sector
---------------------------------------------------------
1 | 00:00:00 | 02:42:58 | 0 | 12207
2 | 02:42:58 | 04:14:32 | 12208 | 31289
3 | 06:57:15 | 03:44:51 | 31290 | 48140
4 | 10:41:66 | 07:28:14 | 48141 | 81754
5 | 18:10:05 | 04:53:12 | 81755 | 103741
6 | 23:03:17 | 03:30:08 | 103742 | 119499
7 | 26:33:25 | 08:22:46 | 119500 | 157195
8 | 34:55:71 | 03:12:56 | 157196 | 171651
9 | 38:08:52 | 05:11:24 | 171652 | 195000
10 | 43:20:01 | 05:13:68 | 195001 | 218543
11 | 48:33:69 | 04:59:19 | 218544 | 240987
12 | 53:33:13 | 07:45:72 | 240988 | 275934
13 | 61:19:10 | 12:49:34 | 275935 | 333643

AccurateRip Summary
Disc not found in AccurateRip DB.

All Tracks
Album gain : -4.31 dB
Peak : 0.987152
Statistics
Read error : 0
Jitter error (maybe fixed) : 0
Retry sector count : 0
Damaged sector count : 0

Track 01
Filename : /Volumes/kindablue/new_rips/LSO/London Philharmonic Orchestra - 2011 - The 50 Greatest Pieces Of Classical Music [FLAC (level 8)]/01 Carmina Burana: O Fortruna.flac
/Volumes/kindablue/new_rips/LSO/London Philharmonic Orchestra - 2011 - The 50 Greatest Pieces Of Classical Music [LAME MP3 (V0)]/01 Carmina Burana: O Fortruna.mp3
Pre-gap length : 00:02:00

Track gain : -6.49 dB
Peak : 0.987152
CRC32 hash (test run) : E5FD3B88
CRC32 hash : E5FD3B88
CRC32 hash (skip zero) : B328B855
AccurateRip signature : 841BF1DE
->Track not present in AccurateRip database.
Statistics
Read error : 0
Jitter error (maybe fixed) : 0
Retry sector count : 0
Damaged sector count : 0

Track 02
Filename : /Volumes/kindablue/new_rips/LSO/London Philharmonic Orchestra - 2011 - The 50 Greatest Pieces Of Classical Music [FLAC (level 8)]/02 Orchestral Suite No. 3: Air.flac
/Volumes/kindablue/new_rips/LSO/London Philharmonic Orchestra - 2011 - The 50 Greatest Pieces Of Classical Music [LAME MP3 (V0)]/02 Orchestral Suite No. 3: Air.mp3

Track gain : -1.18 dB
Peak : 0.810608
CRC32 hash (test run) : 0E0A3345
CRC32 hash : 0E0A3345
CRC32 hash (skip zero) : D59E7063
AccurateRip signature : BCEC7DB6
->Track not present in AccurateRip database.
Statistics
Read error : 0
Jitter error (maybe fixed) : 0
Retry sector count : 0
Damaged sector count : 0

Track 03
Filename : /Volumes/kindablue/new_rips/LSO/London Philharmonic Orchestra - 2011 - The 50 Greatest Pieces Of Classical Music [FLAC (level 8)]/03 Peer Gynt: Morning Mood.flac
/Volumes/kindablue/new_rips/LSO/London Philharmonic Orchestra - 2011 - The 50 Greatest Pieces Of Classical Music [LAME MP3 (V0)]/03 Peer Gynt: Morning Mood.mp3

Track gain : -4.32 dB
Peak : 0.985992
CRC32 hash (test run) : 547A3527
CRC32 hash : 547A3527
CRC32 hash (skip zero) : 044C8DDE
AccurateRip signature : F7003C19
->Track not present in AccurateRip database.
Statistics
Read error : 0
Jitter error (maybe fixed) : 0
Retry sector count : 0
Damaged sector count : 0

Track 04
Filename : /Volumes/kindablue/new_rips/LSO/London Philharmonic Orchestra - 2011 - The 50 Greatest Pieces Of Classical Music [FLAC (level 8)]/04 Symphony No. 5: Allegro Con Brio.flac
/Volumes/kindablue/new_rips/LSO/London Philharmonic Orchestra - 2011 - The 50 Greatest Pieces Of Classical Music [LAME MP3 (V0)]/04 Symphony No. 5: Allegro Con Brio.mp3

Track gain : -4.45 dB
Peak : 0.986267
CRC32 hash (test run) : 780595A5
CRC32 hash : 780595A5
CRC32 hash (skip zero) : 6E00EDE1
AccurateRip signature : 2F9E0F70
->Track not present in AccurateRip database.
Statistics
Read error : 0
Jitter error (maybe fixed) : 0
Retry sector count : 0
Damaged sector count : 0

Track 05
Filename : /Volumes/kindablue/new_rips/LSO/London Philharmonic Orchestra - 2011 - The 50 Greatest Pieces Of Classical Music [FLAC (level 8)]/05 Nocturne No. 2.flac
/Volumes/kindablue/new_rips/LSO/London Philharmonic Orchestra - 2011 - The 50 Greatest Pieces Of Classical Music [LAME MP3 (V0)]/05 Nocturne No. 2.mp3

Track gain : -0.43 dB
Peak : 0.985962
CRC32 hash (test run) : 4C5AD133
CRC32 hash : 4C5AD133
CRC32 hash (skip zero) : 71990B14
AccurateRip signature : 52C4CB52
->Track not present in AccurateRip database.
Statistics
Read error : 0
Jitter error (maybe fixed) : 0
Retry sector count : 0
Damaged sector count : 0

Track 06
Filename : /Volumes/kindablue/new_rips/LSO/London Philharmonic Orchestra - 2011 - The 50 Greatest Pieces Of Classical Music [FLAC (level 8)]/06 Canon.flac
/Volumes/kindablue/new_rips/LSO/London Philharmonic Orchestra - 2011 - The 50 Greatest Pieces Of Classical Music [LAME MP3 (V0)]/06 Canon.mp3

Track gain : -4.60 dB
Peak : 0.985962
CRC32 hash (test run) : 0E997505
CRC32 hash : 0E997505
CRC32 hash (skip zero) : E31C56D0
AccurateRip signature : 69A2ADAA
->Track not present in AccurateRip database.
Statistics
Read error : 0
Jitter error (maybe fixed) : 0
Retry sector count : 0
Damaged sector count : 0

Track 07
Filename : /Volumes/kindablue/new_rips/LSO/London Philharmonic Orchestra - 2011 - The 50 Greatest Pieces Of Classical Music [FLAC (level 8)]/07 Adagio For Strings.flac
/Volumes/kindablue/new_rips/LSO/London Philharmonic Orchestra - 2011 - The 50 Greatest Pieces Of Classical Music [LAME MP3 (V0)]/07 Adagio For Strings.mp3

Track gain : -4.99 dB
Peak : 0.984314
CRC32 hash (test run) : A7C85C90
CRC32 hash : A7C85C90
CRC32 hash (skip zero) : 5B64FDF4
AccurateRip signature : 55ED3E9E
->Track not present in AccurateRip database.
Statistics
Read error : 0
Jitter error (maybe fixed) : 0
Retry sector count : 0
Damaged sector count : 0

Track 08
Filename : /Volumes/kindablue/new_rips/LSO/London Philharmonic Orchestra - 2011 - The 50 Greatest Pieces Of Classical Music [FLAC (level 8)]/08 The Four Seasons, 'Spring': Allegro.flac
/Volumes/kindablue/new_rips/LSO/London Philharmonic Orchestra - 2011 - The 50 Greatest Pieces Of Classical Music [LAME MP3 (V0)]/08 The Four Seasons, 'Spring': Allegro.mp3

Track gain : -1.90 dB
Peak : 0.985809
CRC32 hash (test run) : B668BA9A
CRC32 hash : B668BA9A
CRC32 hash (skip zero) : 14170FF2
AccurateRip signature : 3F31D95B
->Track not present in AccurateRip database.
Statistics
Read error : 0
Jitter error (maybe fixed) : 0
Retry sector count : 0
Damaged sector count : 0

Track 09
Filename : /Volumes/kindablue/new_rips/LSO/London Philharmonic Orchestra - 2011 - The 50 Greatest Pieces Of Classical Music [FLAC (level 8)]/09 Ride Of The Valkyries.flac
/Volumes/kindablue/new_rips/LSO/London Philharmonic Orchestra - 2011 - The 50 Greatest Pieces Of Classical Music [LAME MP3 (V0)]/09 Ride Of The Valkyries.mp3

Track gain : -4.96 dB
Peak : 0.986572
CRC32 hash (test run) : E152C171
CRC32 hash : E152C171
CRC32 hash (skip zero) : 67D27E89
AccurateRip signature : 77F91A5E
->Track not present in AccurateRip database.
Statistics
Read error : 0
Jitter error (maybe fixed) : 0
Retry sector count : 0
Damaged sector count : 0

Track 10
Filename : /Volumes/kindablue/new_rips/LSO/London Philharmonic Orchestra - 2011 - The 50 Greatest Pieces Of Classical Music [FLAC (level 8)]/10 Clair De Lune.flac
/Volumes/kindablue/new_rips/LSO/London Philharmonic Orchestra - 2011 - The 50 Greatest Pieces Of Classical Music [LAME MP3 (V0)]/10 Clair De Lune.mp3

Track gain : -0.68 dB
Peak : 0.985931
CRC32 hash (test run) : 875D681C
CRC32 hash : 875D681C
CRC32 hash (skip zero) : FDEFF3F9
AccurateRip signature : E92046D1
->Track not present in AccurateRip database.
Statistics
Read error : 0
Jitter error (maybe fixed) : 0
Retry sector count : 0
Damaged sector count : 0

Track 11
Filename : /Volumes/kindablue/new_rips/LSO/London Philharmonic Orchestra - 2011 - The 50 Greatest Pieces Of Classical Music [FLAC (level 8)]/11 Chorus Of The Hebrew Slaves.flac
/Volumes/kindablue/new_rips/LSO/London Philharmonic Orchestra - 2011 - The 50 Greatest Pieces Of Classical Music [LAME MP3 (V0)]/11 Chorus Of The Hebrew Slaves.mp3

Track gain : -5.29 dB
Peak : 0.986176
CRC32 hash (test run) : 44221B3F
CRC32 hash : 44221B3F
CRC32 hash (skip zero) : 669A68CF
AccurateRip signature : 29660A40
->Track not present in AccurateRip database.
Statistics
Read error : 0
Jitter error (maybe fixed) : 0
Retry sector count : 0
Damaged sector count : 0

Track 12
Filename : /Volumes/kindablue/new_rips/LSO/London Philharmonic Orchestra - 2011 - The 50 Greatest Pieces Of Classical Music [FLAC (level 8)]/12 The Planets: Jupiter.flac
/Volumes/kindablue/new_rips/LSO/London Philharmonic Orchestra - 2011 - The 50 Greatest Pieces Of Classical Music [LAME MP3 (V0)]/12 The Planets: Jupiter.mp3

Track gain : -3.99 dB
Peak : 0.986237
CRC32 hash (test run) : 03B8551D
CRC32 hash : 03B8551D
CRC32 hash (skip zero) : B1DFEF73
AccurateRip signature : 1C5FE04B
->Track not present in AccurateRip database.
Statistics
Read error : 0
Jitter error (maybe fixed) : 0
Retry sector count : 0
Damaged sector count : 0

Track 13
Filename : /Volumes/kindablue/new_rips/LSO/London Philharmonic Orchestra - 2011 - The 50 Greatest Pieces Of Classical Music [FLAC (level 8)]/13 Symphony No. 9, 'From The New World': Largo.flac
/Volumes/kindablue/new_rips/LSO/London Philharmonic Orchestra - 2011 - The 50 Greatest Pieces Of Classical Music [LAME MP3 (V0)]/13 Symphony No. 9, 'From The New World': Largo.mp3

Track gain : 0.03 dB
Peak : 0.986755
CRC32 hash (test run) : 91A8CAD1
CRC32 hash : 91A8CAD1
CRC32 hash (skip zero) : B30C46E4
AccurateRip signature : 057BBC34
->Track not present in AccurateRip database.
Statistics
Read error : 0
Jitter error (maybe fixed) : 0
Retry sector count : 0
Damaged sector count : 0

No errors occurred

End of status report
X Lossless Decoder version 20120226 (139.1) 

XLD extraction logfile from 2012-03-07 16:55:57 -0800

London Philharmonic Orchestra / The 50 Greatest Pieces Of Classical Music

Used drive : PIONEER DVD-RW DVRTS08 (revision Q81B)

Ripper mode : XLD Secure Ripper
Disable audio cache : OK for the drive with a cache less than 1375KiB
Make use of C2 pointers : NO
Read offset correction : 48
Max retry count : 100
Gap status : Analyzed, Appended (except HTOA)

TOC of the extracted CD
Track | Start | Length | Start sector | End sector
---------------------------------------------------------
1 | 00:00:00 | 05:44:63 | 0 | 25862
2 | 05:44:63 | 07:18:00 | 25863 | 58712
3 | 13:02:63 | 02:38:47 | 58713 | 70609
4 | 15:41:35 | 05:01:07 | 70610 | 93191
5 | 20:42:42 | 05:45:50 | 93192 | 119116
6 | 26:28:17 | 02:49:37 | 119117 | 131828
7 | 29:17:54 | 05:51:08 | 131829 | 158161
8 | 35:08:62 | 03:16:01 | 158162 | 172862
9 | 38:24:63 | 02:12:40 | 172863 | 182802
10 | 40:37:28 | 03:01:50 | 182803 | 196427
11 | 43:39:03 | 03:40:55 | 196428 | 212982
12 | 47:19:58 | 02:32:46 | 212983 | 224428

AccurateRip Summary
Disc not found in AccurateRip DB.

All Tracks
Album gain : -4.24 dB
Peak : 0.988495
Statistics
Read error : 0
Jitter error (maybe fixed) : 0
Retry sector count : 0
Damaged sector count : 0

Track 01
Filename : /Volumes/kindablue/new_rips/LSO/London Philharmonic Orchestra - 2011 - The 50 Greatest Pieces Of Classical Music [FLAC (level 8)]/01 Brandenburg Concerto No. 3: Allegro.flac
/Volumes/kindablue/new_rips/LSO/London Philharmonic Orchestra - 2011 - The 50 Greatest Pieces Of Classical Music [LAME MP3 (V0)]/01 Brandenburg Concerto No. 3: Allegro.mp3
Pre-gap length : 00:02:00

Track gain : -3.78 dB
Peak : 0.985931
CRC32 hash (test run) : 907EA489
CRC32 hash : 907EA489
CRC32 hash (skip zero) : 175A0655
AccurateRip signature : 6253F7EE
->Track not present in AccurateRip database.
Statistics
Read error : 0
Jitter error (maybe fixed) : 0
Retry sector count : 0
Damaged sector count : 0

Track 02
Filename : /Volumes/kindablue/new_rips/LSO/London Philharmonic Orchestra - 2011 - The 50 Greatest Pieces Of Classical Music [FLAC (level 8)]/02 Piano Concerto No. 21: Andante.flac
/Volumes/kindablue/new_rips/LSO/London Philharmonic Orchestra - 2011 - The 50 Greatest Pieces Of Classical Music [LAME MP3 (V0)]/02 Piano Concerto No. 21: Andante.mp3

Track gain : -1.23 dB
Peak : 0.985443
CRC32 hash (test run) : A653EE17
CRC32 hash : A653EE17
CRC32 hash (skip zero) : 6DBB8328
AccurateRip signature : D4DCE918
->Track not present in AccurateRip database.
Statistics
Read error : 0
Jitter error (maybe fixed) : 0
Retry sector count : 0
Damaged sector count : 0

Track 03
Filename : /Volumes/kindablue/new_rips/LSO/London Philharmonic Orchestra - 2011 - The 50 Greatest Pieces Of Classical Music [FLAC (level 8)]/03 Hungarian Dance No. 5.flac
/Volumes/kindablue/new_rips/LSO/London Philharmonic Orchestra - 2011 - The 50 Greatest Pieces Of Classical Music [LAME MP3 (V0)]/03 Hungarian Dance No. 5.mp3

Track gain : -4.50 dB
Peak : 0.986572
CRC32 hash (test run) : 14344EE7
CRC32 hash : 14344EE7
CRC32 hash (skip zero) : 1EBBE251
AccurateRip signature : 15284D05
->Track not present in AccurateRip database.
Statistics
Read error : 0
Jitter error (maybe fixed) : 0
Retry sector count : 0
Damaged sector count : 0

Track 04
Filename : /Volumes/kindablue/new_rips/LSO/London Philharmonic Orchestra - 2011 - The 50 Greatest Pieces Of Classical Music [FLAC (level 8)]/04 Thais: Meditation.flac
/Volumes/kindablue/new_rips/LSO/London Philharmonic Orchestra - 2011 - The 50 Greatest Pieces Of Classical Music [LAME MP3 (V0)]/04 Thais: Meditation.mp3

Track gain : -2.97 dB
Peak : 0.986298
CRC32 hash (test run) : BCAA8E58
CRC32 hash : BCAA8E58
CRC32 hash (skip zero) : BC98F9EA
AccurateRip signature : A73A3A53
->Track not present in AccurateRip database.
Statistics
Read error : 0
Jitter error (maybe fixed) : 0
Retry sector count : 0
Damaged sector count : 0

Track 05
Filename : /Volumes/kindablue/new_rips/LSO/London Philharmonic Orchestra - 2011 - The 50 Greatest Pieces Of Classical Music [FLAC (level 8)]/05 Pomp And Circumstance; March No. 1.flac
/Volumes/kindablue/new_rips/LSO/London Philharmonic Orchestra - 2011 - The 50 Greatest Pieces Of Classical Music [LAME MP3 (V0)]/05 Pomp And Circumstance; March No. 1.mp3

Track gain : -4.49 dB
Peak : 0.986847
CRC32 hash (test run) : BD8F85CB
CRC32 hash : BD8F85CB
CRC32 hash (skip zero) : A7BE5E2F
AccurateRip signature : 844EBC99
->Track not present in AccurateRip database.
Statistics
Read error : 0
Jitter error (maybe fixed) : 0
Retry sector count : 0
Damaged sector count : 0

Track 06
Filename : /Volumes/kindablue/new_rips/LSO/London Philharmonic Orchestra - 2011 - The 50 Greatest Pieces Of Classical Music [FLAC (level 8)]/06 Requiem Mass: Lacrimosa.flac
/Volumes/kindablue/new_rips/LSO/London Philharmonic Orchestra - 2011 - The 50 Greatest Pieces Of Classical Music [LAME MP3 (V0)]/06 Requiem Mass: Lacrimosa.mp3

Track gain : -5.46 dB
Peak : 0.985931
CRC32 hash (test run) : 4499B6BC
CRC32 hash : 4499B6BC
CRC32 hash (skip zero) : C661265E
AccurateRip signature : 856A541D
->Track not present in AccurateRip database.
Statistics
Read error : 0
Jitter error (maybe fixed) : 0
Retry sector count : 0
Damaged sector count : 0

Track 07
Filename : /Volumes/kindablue/new_rips/LSO/London Philharmonic Orchestra - 2011 - The 50 Greatest Pieces Of Classical Music [FLAC (level 8)]/07 The Beautiful Blue Danube.flac
/Volumes/kindablue/new_rips/LSO/London Philharmonic Orchestra - 2011 - The 50 Greatest Pieces Of Classical Music [LAME MP3 (V0)]/07 The Beautiful Blue Danube.mp3

Track gain : -4.04 dB
Peak : 0.986908
CRC32 hash (test run) : 2A053A85
CRC32 hash : 2A053A85
CRC32 hash (skip zero) : 6C2DC1E0
AccurateRip signature : 6973BF64
->Track not present in AccurateRip database.
Statistics
Read error : 0
Jitter error (maybe fixed) : 0
Retry sector count : 0
Damaged sector count : 0

Track 08
Filename : /Volumes/kindablue/new_rips/LSO/London Philharmonic Orchestra - 2011 - The 50 Greatest Pieces Of Classical Music [FLAC (level 8)]/08 Fur Elise.flac
/Volumes/kindablue/new_rips/LSO/London Philharmonic Orchestra - 2011 - The 50 Greatest Pieces Of Classical Music [LAME MP3 (V0)]/08 Fur Elise.mp3

Track gain : -1.61 dB
Peak : 0.985779
CRC32 hash (test run) : B149FE53
CRC32 hash : B149FE53
CRC32 hash (skip zero) : DB91DF3F
AccurateRip signature : 78A87946
->Track not present in AccurateRip database.
Statistics
Read error : 0
Jitter error (maybe fixed) : 0
Retry sector count : 0
Damaged sector count : 0

Track 09
Filename : /Volumes/kindablue/new_rips/LSO/London Philharmonic Orchestra - 2011 - The 50 Greatest Pieces Of Classical Music [FLAC (level 8)]/09 Carmen Suite: Habanera.flac
/Volumes/kindablue/new_rips/LSO/London Philharmonic Orchestra - 2011 - The 50 Greatest Pieces Of Classical Music [LAME MP3 (V0)]/09 Carmen Suite: Habanera.mp3

Track gain : 0.94 dB
Peak : 0.988495
CRC32 hash (test run) : 525762D2
CRC32 hash : 525762D2
CRC32 hash (skip zero) : E29825F4
AccurateRip signature : D89A0D27
->Track not present in AccurateRip database.
Statistics
Read error : 0
Jitter error (maybe fixed) : 0
Retry sector count : 0
Damaged sector count : 0

Track 10
Filename : /Volumes/kindablue/new_rips/LSO/London Philharmonic Orchestra - 2011 - The 50 Greatest Pieces Of Classical Music [FLAC (level 8)]/10 Swan Lake Suite: Scene.flac
/Volumes/kindablue/new_rips/LSO/London Philharmonic Orchestra - 2011 - The 50 Greatest Pieces Of Classical Music [LAME MP3 (V0)]/10 Swan Lake Suite: Scene.mp3

Track gain : -5.34 dB
Peak : 0.986786
CRC32 hash (test run) : 1630A696
CRC32 hash : 1630A696
CRC32 hash (skip zero) : C66CF930
AccurateRip signature : E5B6EDCD
->Track not present in AccurateRip database.
Statistics
Read error : 0
Jitter error (maybe fixed) : 0
Retry sector count : 0
Damaged sector count : 0

Track 11
Filename : /Volumes/kindablue/new_rips/LSO/London Philharmonic Orchestra - 2011 - The 50 Greatest Pieces Of Classical Music [FLAC (level 8)]/11 Gymnopedie No. 1.flac
/Volumes/kindablue/new_rips/LSO/London Philharmonic Orchestra - 2011 - The 50 Greatest Pieces Of Classical Music [LAME MP3 (V0)]/11 Gymnopedie No. 1.mp3

Track gain : 3.13 dB
Peak : 0.586395
CRC32 hash (test run) : 62FA566D
CRC32 hash : 62FA566D
CRC32 hash (skip zero) : FE7E90E9
AccurateRip signature : 29BDEF4A
->Track not present in AccurateRip database.
Statistics
Read error : 0
Jitter error (maybe fixed) : 0
Retry sector count : 0
Damaged sector count : 0

Track 12
Filename : /Volumes/kindablue/new_rips/LSO/London Philharmonic Orchestra - 2011 - The 50 Greatest Pieces Of Classical Music [FLAC (level 8)]/12 Symphony No. 9, 'Choral': Ode To Joy.flac
/Volumes/kindablue/new_rips/LSO/London Philharmonic Orchestra - 2011 - The 50 Greatest Pieces Of Classical Music [LAME MP3 (V0)]/12 Symphony No. 9, 'Choral': Ode To Joy.mp3

Track gain : -5.81 dB
Peak : 0.986511
CRC32 hash (test run) : DB99C38C
CRC32 hash : DB99C38C
CRC32 hash (skip zero) : E5757DEF
AccurateRip signature : D7C9551B
->Track not present in AccurateRip database.
Statistics
Read error : 0
Jitter error (maybe fixed) : 0
Retry sector count : 0
Damaged sector count : 0

No errors occurred

End of status report
X Lossless Decoder version 20120226 (139.1) 

XLD extraction logfile from 2012-03-07 19:31:24 -0800

London Philharmonic Orchestra / The 50 Greatest Pieces Of Classical Music

Used drive : PIONEER DVD-RW DVRTS08 (revision Q81B)

Ripper mode : XLD Secure Ripper
Disable audio cache : OK for the drive with a cache less than 1375KiB
Make use of C2 pointers : NO
Read offset correction : 48
Max retry count : 100
Gap status : Analyzed, Appended (except HTOA)

TOC of the extracted CD
Track | Start | Length | Start sector | End sector
---------------------------------------------------------
1 | 00:00:00 | 06:58:35 | 0 | 31384
2 | 06:58:35 | 02:34:30 | 31385 | 42964
3 | 09:32:65 | 02:43:12 | 42965 | 55201
4 | 12:16:02 | 05:36:54 | 55202 | 80455
5 | 17:52:56 | 05:51:32 | 80456 | 106812
6 | 23:44:13 | 08:32:50 | 106813 | 145262
7 | 32:16:63 | 08:01:36 | 145263 | 181373
8 | 40:18:24 | 03:48:07 | 181374 | 198480
9 | 44:06:31 | 07:02:31 | 198481 | 230161
10 | 51:08:62 | 03:59:48 | 230162 | 248134
11 | 55:08:35 | 05:35:18 | 248135 | 273277
12 | 60:43:53 | 03:54:72 | 273278 | 290899
13 | 64:38:50 | 10:49:23 | 290900 | 339597

AccurateRip Summary
Disc not found in AccurateRip DB.

All Tracks
Album gain : -4.39 dB
Peak : 0.986877
Statistics
Read error : 0
Jitter error (maybe fixed) : 0
Retry sector count : 0
Damaged sector count : 0

Track 01
Filename : /Volumes/kindablue/new_rips/LSO/London Philharmonic Orchestra - 2011 - The 50 Greatest Pieces Of Classical Music [FLAC (level 8)]/01 The Barber of Seville: Overture.flac
/Volumes/kindablue/new_rips/LSO/London Philharmonic Orchestra - 2011 - The 50 Greatest Pieces Of Classical Music [LAME MP3 (V0)]/01 The Barber of Seville: Overture.mp3
Pre-gap length : 00:02:00

Track gain : -3.74 dB
Peak : 0.986877
CRC32 hash (test run) : 74F88F18
CRC32 hash : 74F88F18
CRC32 hash (skip zero) : 46410D97
AccurateRip signature : 24328E3F
->Track not present in AccurateRip database.
Statistics
Read error : 0
Jitter error (maybe fixed) : 0
Retry sector count : 0
Damaged sector count : 0

Track 02
Filename : /Volumes/kindablue/new_rips/LSO/London Philharmonic Orchestra - 2011 - The 50 Greatest Pieces Of Classical Music [FLAC (level 8)]/02 Ave Maria (after J.S. Bach).flac
/Volumes/kindablue/new_rips/LSO/London Philharmonic Orchestra - 2011 - The 50 Greatest Pieces Of Classical Music [LAME MP3 (V0)]/02 Ave Maria (after J.S. Bach).mp3

Track gain : -3.80 dB
Peak : 0.985962
CRC32 hash (test run) : 00EA42F8
CRC32 hash : 00EA42F8
CRC32 hash (skip zero) : 78B547A5
AccurateRip signature : 88318079
->Track not present in AccurateRip database.
Statistics
Read error : 0
Jitter error (maybe fixed) : 0
Retry sector count : 0
Damaged sector count : 0

Track 03
Filename : /Volumes/kindablue/new_rips/LSO/London Philharmonic Orchestra - 2011 - The 50 Greatest Pieces Of Classical Music [FLAC (level 8)]/03 Peer Gynt: In the Hall of the Mountain King.flac
/Volumes/kindablue/new_rips/LSO/London Philharmonic Orchestra - 2011 - The 50 Greatest Pieces Of Classical Music [LAME MP3 (V0)]/03 Peer Gynt: In the Hall of the Mountain King.mp3

Track gain : -3.34 dB
Peak : 0.986267
CRC32 hash (test run) : F6BF0CFD
CRC32 hash : F6BF0CFD
CRC32 hash (skip zero) : DA36D9EA
AccurateRip signature : 58FC9B41
->Track not present in AccurateRip database.
Statistics
Read error : 0
Jitter error (maybe fixed) : 0
Retry sector count : 0
Damaged sector count : 0

Track 04
Filename : /Volumes/kindablue/new_rips/LSO/London Philharmonic Orchestra - 2011 - The 50 Greatest Pieces Of Classical Music [FLAC (level 8)]/04 Moonlight Sonata: Adagio sostenuto.flac
/Volumes/kindablue/new_rips/LSO/London Philharmonic Orchestra - 2011 - The 50 Greatest Pieces Of Classical Music [LAME MP3 (V0)]/04 Moonlight Sonata: Adagio sostenuto.mp3

Track gain : 0.24 dB
Peak : 0.985626
CRC32 hash (test run) : 15C3C54A
CRC32 hash : 15C3C54A
CRC32 hash (skip zero) : D1F7DFA4
AccurateRip signature : 7D5D665F
->Track not present in AccurateRip database.
Statistics
Read error : 0
Jitter error (maybe fixed) : 0
Retry sector count : 0
Damaged sector count : 0

Track 05
Filename : /Volumes/kindablue/new_rips/LSO/London Philharmonic Orchestra - 2011 - The 50 Greatest Pieces Of Classical Music [FLAC (level 8)]/05 Eine Kleine Nachtmusik: Allegro.flac
/Volumes/kindablue/new_rips/LSO/London Philharmonic Orchestra - 2011 - The 50 Greatest Pieces Of Classical Music [LAME MP3 (V0)]/05 Eine Kleine Nachtmusik: Allegro.mp3

Track gain : -3.94 dB
Peak : 0.985901
CRC32 hash (test run) : C471BC36
CRC32 hash : C471BC36
CRC32 hash (skip zero) : 935E1EB7
AccurateRip signature : 97BD8A3D
->Track not present in AccurateRip database.
Statistics
Read error : 0
Jitter error (maybe fixed) : 0
Retry sector count : 0
Damaged sector count : 0

Track 06
Filename : /Volumes/kindablue/new_rips/LSO/London Philharmonic Orchestra - 2011 - The 50 Greatest Pieces Of Classical Music [FLAC (level 8)]/06 Adagio in G Minor, "Albinoni's Adagio".flac
/Volumes/kindablue/new_rips/LSO/London Philharmonic Orchestra - 2011 - The 50 Greatest Pieces Of Classical Music [LAME MP3 (V0)]/06 Adagio in G Minor, "Albinoni's Adagio".mp3

Track gain : -4.16 dB
Peak : 0.985901
CRC32 hash (test run) : C1E9B3CD
CRC32 hash : C1E9B3CD
CRC32 hash (skip zero) : D68C263D
AccurateRip signature : 7E9BA4B5
->Track not present in AccurateRip database.
Statistics
Read error : 0
Jitter error (maybe fixed) : 0
Retry sector count : 0
Damaged sector count : 0

Track 07
Filename : /Volumes/kindablue/new_rips/LSO/London Philharmonic Orchestra - 2011 - The 50 Greatest Pieces Of Classical Music [FLAC (level 8)]/07 Finlandia.flac
/Volumes/kindablue/new_rips/LSO/London Philharmonic Orchestra - 2011 - The 50 Greatest Pieces Of Classical Music [LAME MP3 (V0)]/07 Finlandia.mp3

Track gain : -4.06 dB
Peak : 0.986481
CRC32 hash (test run) : 20665A7C
CRC32 hash : 20665A7C
CRC32 hash (skip zero) : 06EF4DCF
AccurateRip signature : E951D2AA
->Track not present in AccurateRip database.
Statistics
Read error : 0
Jitter error (maybe fixed) : 0
Retry sector count : 0
Damaged sector count : 0

Track 08
Filename : /Volumes/kindablue/new_rips/LSO/London Philharmonic Orchestra - 2011 - The 50 Greatest Pieces Of Classical Music [FLAC (level 8)]/08 String Quintet: Minuet.flac
/Volumes/kindablue/new_rips/LSO/London Philharmonic Orchestra - 2011 - The 50 Greatest Pieces Of Classical Music [LAME MP3 (V0)]/08 String Quintet: Minuet.mp3

Track gain : -1.54 dB
Peak : 0.985718
CRC32 hash (test run) : 9611587D
CRC32 hash : 9611587D
CRC32 hash (skip zero) : 42958BEB
AccurateRip signature : 087674AA
->Track not present in AccurateRip database.
Statistics
Read error : 0
Jitter error (maybe fixed) : 0
Retry sector count : 0
Damaged sector count : 0

Track 09
Filename : /Volumes/kindablue/new_rips/LSO/London Philharmonic Orchestra - 2011 - The 50 Greatest Pieces Of Classical Music [FLAC (level 8)]/09 Symphony No. 40: Allegro molto.flac
/Volumes/kindablue/new_rips/LSO/London Philharmonic Orchestra - 2011 - The 50 Greatest Pieces Of Classical Music [LAME MP3 (V0)]/09 Symphony No. 40: Allegro molto.mp3

Track gain : -4.95 dB
Peak : 0.986084
CRC32 hash (test run) : 847800C3
CRC32 hash : 847800C3
CRC32 hash (skip zero) : 1F1106BC
AccurateRip signature : 3FB74AA7
->Track not present in AccurateRip database.
Statistics
Read error : 0
Jitter error (maybe fixed) : 0
Retry sector count : 0
Damaged sector count : 0

Track 10
Filename : /Volumes/kindablue/new_rips/LSO/London Philharmonic Orchestra - 2011 - The 50 Greatest Pieces Of Classical Music [FLAC (level 8)]/10 Cavatina.flac
/Volumes/kindablue/new_rips/LSO/London Philharmonic Orchestra - 2011 - The 50 Greatest Pieces Of Classical Music [LAME MP3 (V0)]/10 Cavatina.mp3

Track gain : -2.47 dB
Peak : 0.985413
CRC32 hash (test run) : E39E34A8
CRC32 hash : E39E34A8
CRC32 hash (skip zero) : F82704F1
AccurateRip signature : C9EB6C9F
->Track not present in AccurateRip database.
Statistics
Read error : 0
Jitter error (maybe fixed) : 0
Retry sector count : 0
Damaged sector count : 0

Track 11
Filename : /Volumes/kindablue/new_rips/LSO/London Philharmonic Orchestra - 2011 - The 50 Greatest Pieces Of Classical Music [FLAC (level 8)]/11 Slavonic Dance No. 2.flac
/Volumes/kindablue/new_rips/LSO/London Philharmonic Orchestra - 2011 - The 50 Greatest Pieces Of Classical Music [LAME MP3 (V0)]/11 Slavonic Dance No. 2.mp3

Track gain : -4.08 dB
Peak : 0.986359
CRC32 hash (test run) : 58B3A088
CRC32 hash : 58B3A088
CRC32 hash (skip zero) : E2216092
AccurateRip signature : DBC61C38
->Track not present in AccurateRip database.
Statistics
Read error : 0
Jitter error (maybe fixed) : 0
Retry sector count : 0
Damaged sector count : 0

Track 12
Filename : /Volumes/kindablue/new_rips/LSO/London Philharmonic Orchestra - 2011 - The 50 Greatest Pieces Of Classical Music [FLAC (level 8)]/12 Messa de Requiem: Dies irae - Tuba mirum.flac
/Volumes/kindablue/new_rips/LSO/London Philharmonic Orchestra - 2011 - The 50 Greatest Pieces Of Classical Music [LAME MP3 (V0)]/12 Messa de Requiem: Dies irae - Tuba mirum.mp3

Track gain : -7.68 dB
Peak : 0.986755
CRC32 hash (test run) : EF83C424
CRC32 hash : EF83C424
CRC32 hash (skip zero) : C5822E61
AccurateRip signature : 93A65FA0
->Track not present in AccurateRip database.
Statistics
Read error : 0
Jitter error (maybe fixed) : 0
Retry sector count : 0
Damaged sector count : 0

Track 13
Filename : /Volumes/kindablue/new_rips/LSO/London Philharmonic Orchestra - 2011 - The 50 Greatest Pieces Of Classical Music [FLAC (level 8)]/13 Symphony No. 5: Adagietto.flac
/Volumes/kindablue/new_rips/LSO/London Philharmonic Orchestra - 2011 - The 50 Greatest Pieces Of Classical Music [LAME MP3 (V0)]/13 Symphony No. 5: Adagietto.mp3

Track gain : -4.03 dB
Peak : 0.985718
CRC32 hash (test run) : 4698CEE0
CRC32 hash : 4698CEE0
CRC32 hash (skip zero) : A74BC5C1
AccurateRip signature : 913BB957
->Track not present in AccurateRip database.
Statistics
Read error : 0
Jitter error (maybe fixed) : 0
Retry sector count : 0
Damaged sector count : 0

No errors occurred

End of status report
X Lossless Decoder version 20120226 (139.1) 

XLD extraction logfile from 2012-03-07 22:12:47 -0800

London Philharmonic Orchestra / The 50 Greatest Pieces Of Classical Music

Used drive : PIONEER DVD-RW DVRTS08 (revision Q81B)

Ripper mode : XLD Secure Ripper
Disable audio cache : OK for the drive with a cache less than 1375KiB
Make use of C2 pointers : NO
Read offset correction : 48
Max retry count : 100
Gap status : Analyzed, Appended (except HTOA)

TOC of the extracted CD
Track | Start | Length | Start sector | End sector
---------------------------------------------------------
1 | 00:00:00 | 11:26:60 | 0 | 51509
2 | 11:26:60 | 05:07:36 | 51510 | 74570
3 | 16:34:21 | 03:38:52 | 74571 | 90972
4 | 20:12:73 | 03:33:44 | 90973 | 106991
5 | 23:46:42 | 06:24:07 | 106992 | 135798
6 | 30:10:49 | 03:25:03 | 135799 | 151176
7 | 33:35:52 | 06:53:21 | 151177 | 182172
8 | 40:28:73 | 02:27:69 | 182173 | 193266
9 | 42:56:67 | 03:05:63 | 193267 | 207204
10 | 46:02:55 | 05:50:64 | 207205 | 233518
11 | 51:53:44 | 07:57:70 | 233519 | 269363
12 | 59:51:39 | 03:32:13 | 269364 | 285276

AccurateRip Summary
Disc not found in AccurateRip DB.

All Tracks
Album gain : -4.11 dB
Peak : 0.987030
Statistics
Read error : 0
Jitter error (maybe fixed) : 0
Retry sector count : 0
Damaged sector count : 0

Track 01
Filename : /Volumes/kindablue/new_rips/LSO/London Philharmonic Orchestra - 2011 - The 50 Greatest Pieces Of Classical Music [FLAC (level 8)]/01 Ma Vlast: Vltava.flac
/Volumes/kindablue/new_rips/LSO/London Philharmonic Orchestra - 2011 - The 50 Greatest Pieces Of Classical Music [LAME MP3 (V0)]/01 Ma Vlast: Vltava.mp3
Pre-gap length : 00:02:00

Track gain : -4.11 dB
Peak : 0.987030
CRC32 hash (test run) : 85B574B4
CRC32 hash : 85B574B4
CRC32 hash (skip zero) : E218E738
AccurateRip signature : BED0E5D4
->Track not present in AccurateRip database.
Statistics
Read error : 0
Jitter error (maybe fixed) : 0
Retry sector count : 0
Damaged sector count : 0

Track 02
Filename : /Volumes/kindablue/new_rips/LSO/London Philharmonic Orchestra - 2011 - The 50 Greatest Pieces Of Classical Music [FLAC (level 8)]/02 Pavane.flac
/Volumes/kindablue/new_rips/LSO/London Philharmonic Orchestra - 2011 - The 50 Greatest Pieces Of Classical Music [LAME MP3 (V0)]/02 Pavane.mp3

Track gain : -2.77 dB
Peak : 0.985992
CRC32 hash (test run) : B002A9B0
CRC32 hash : B002A9B0
CRC32 hash (skip zero) : 8CD8F12D
AccurateRip signature : 9BE0F8AE
->Track not present in AccurateRip database.
Statistics
Read error : 0
Jitter error (maybe fixed) : 0
Retry sector count : 0
Damaged sector count : 0

Track 03
Filename : /Volumes/kindablue/new_rips/LSO/London Philharmonic Orchestra - 2011 - The 50 Greatest Pieces Of Classical Music [FLAC (level 8)]/03 Double Violin Concerto: Vivace.flac
/Volumes/kindablue/new_rips/LSO/London Philharmonic Orchestra - 2011 - The 50 Greatest Pieces Of Classical Music [LAME MP3 (V0)]/03 Double Violin Concerto: Vivace.mp3

Track gain : -3.34 dB
Peak : 0.985931
CRC32 hash (test run) : 5E11481A
CRC32 hash : 5E11481A
CRC32 hash (skip zero) : 9FEDDDE0
AccurateRip signature : BE80BFE5
->Track not present in AccurateRip database.
Statistics
Read error : 0
Jitter error (maybe fixed) : 0
Retry sector count : 0
Damaged sector count : 0

Track 04
Filename : /Volumes/kindablue/new_rips/LSO/London Philharmonic Orchestra - 2011 - The 50 Greatest Pieces Of Classical Music [FLAC (level 8)]/04 The Tales of Hoffman: Barcarolle.flac
/Volumes/kindablue/new_rips/LSO/London Philharmonic Orchestra - 2011 - The 50 Greatest Pieces Of Classical Music [LAME MP3 (V0)]/04 The Tales of Hoffman: Barcarolle.mp3

Track gain : -3.27 dB
Peak : 0.829681
CRC32 hash (test run) : 17E92AC6
CRC32 hash : 17E92AC6
CRC32 hash (skip zero) : 4C87E6ED
AccurateRip signature : 7F238C2E
->Track not present in AccurateRip database.
Statistics
Read error : 0
Jitter error (maybe fixed) : 0
Retry sector count : 0
Damaged sector count : 0

Track 05
Filename : /Volumes/kindablue/new_rips/LSO/London Philharmonic Orchestra - 2011 - The 50 Greatest Pieces Of Classical Music [FLAC (level 8)]/05 The Magic Flute: Overture.flac
/Volumes/kindablue/new_rips/LSO/London Philharmonic Orchestra - 2011 - The 50 Greatest Pieces Of Classical Music [LAME MP3 (V0)]/05 The Magic Flute: Overture.mp3

Track gain : -4.81 dB
Peak : 0.986145
CRC32 hash (test run) : 32761088
CRC32 hash : 32761088
CRC32 hash (skip zero) : F7CC6D29
AccurateRip signature : 7A49BBBE
->Track not present in AccurateRip database.
Statistics
Read error : 0
Jitter error (maybe fixed) : 0
Retry sector count : 0
Damaged sector count : 0

Track 06
Filename : /Volumes/kindablue/new_rips/LSO/London Philharmonic Orchestra - 2011 - The 50 Greatest Pieces Of Classical Music [FLAC (level 8)]/06 Piano Sonata No. 11: Ronda Alla Turca.flac
/Volumes/kindablue/new_rips/LSO/London Philharmonic Orchestra - 2011 - The 50 Greatest Pieces Of Classical Music [LAME MP3 (V0)]/06 Piano Sonata No. 11: Ronda Alla Turca.mp3

Track gain : -2.19 dB
Peak : 0.985840
CRC32 hash (test run) : F3F78A09
CRC32 hash : F3F78A09
CRC32 hash (skip zero) : 2A50AA82
AccurateRip signature : 046FF4D9
->Track not present in AccurateRip database.
Statistics
Read error : 0
Jitter error (maybe fixed) : 0
Retry sector count : 0
Damaged sector count : 0

Track 07
Filename : /Volumes/kindablue/new_rips/LSO/London Philharmonic Orchestra - 2011 - The 50 Greatest Pieces Of Classical Music [FLAC (level 8)]/07 L'arlesienne Suite No. 1: Prelude.flac
/Volumes/kindablue/new_rips/LSO/London Philharmonic Orchestra - 2011 - The 50 Greatest Pieces Of Classical Music [LAME MP3 (V0)]/07 L'arlesienne Suite No. 1: Prelude.mp3

Track gain : -2.82 dB
Peak : 0.986603
CRC32 hash (test run) : 91E38123
CRC32 hash : 91E38123
CRC32 hash (skip zero) : 472E8258
AccurateRip signature : 02CF4403
->Track not present in AccurateRip database.
Statistics
Read error : 0
Jitter error (maybe fixed) : 0
Retry sector count : 0
Damaged sector count : 0

Track 08
Filename : /Volumes/kindablue/new_rips/LSO/London Philharmonic Orchestra - 2011 - The 50 Greatest Pieces Of Classical Music [FLAC (level 8)]/08 Christmas Concerto: Allegro.flac
/Volumes/kindablue/new_rips/LSO/London Philharmonic Orchestra - 2011 - The 50 Greatest Pieces Of Classical Music [LAME MP3 (V0)]/08 Christmas Concerto: Allegro.mp3

Track gain : -5.04 dB
Peak : 0.986206
CRC32 hash (test run) : 3C35DC12
CRC32 hash : 3C35DC12
CRC32 hash (skip zero) : 8E95D224
AccurateRip signature : 73BEF8DD
->Track not present in AccurateRip database.
Statistics
Read error : 0
Jitter error (maybe fixed) : 0
Retry sector count : 0
Damaged sector count : 0

Track 09
Filename : /Volumes/kindablue/new_rips/LSO/London Philharmonic Orchestra - 2011 - The 50 Greatest Pieces Of Classical Music [FLAC (level 8)]/09 Radetzky March.flac
/Volumes/kindablue/new_rips/LSO/London Philharmonic Orchestra - 2011 - The 50 Greatest Pieces Of Classical Music [LAME MP3 (V0)]/09 Radetzky March.mp3

Track gain : -4.36 dB
Peak : 0.986572
CRC32 hash (test run) : 1831ED79
CRC32 hash : 1831ED79
CRC32 hash (skip zero) : D5A47C38
AccurateRip signature : B16ED63E
->Track not present in AccurateRip database.
Statistics
Read error : 0
Jitter error (maybe fixed) : 0
Retry sector count : 0
Damaged sector count : 0

Track 10
Filename : /Volumes/kindablue/new_rips/LSO/London Philharmonic Orchestra - 2011 - The 50 Greatest Pieces Of Classical Music [FLAC (level 8)]/10 Vocalise.flac
/Volumes/kindablue/new_rips/LSO/London Philharmonic Orchestra - 2011 - The 50 Greatest Pieces Of Classical Music [LAME MP3 (V0)]/10 Vocalise.mp3

Track gain : -3.62 dB
Peak : 0.986115
CRC32 hash (test run) : F298E5C8
CRC32 hash : F298E5C8
CRC32 hash (skip zero) : 2361622F
AccurateRip signature : 9576692B
->Track not present in AccurateRip database.
Statistics
Read error : 0
Jitter error (maybe fixed) : 0
Retry sector count : 0
Damaged sector count : 0

Track 11
Filename : /Volumes/kindablue/new_rips/LSO/London Philharmonic Orchestra - 2011 - The 50 Greatest Pieces Of Classical Music [FLAC (level 8)]/11 Egmont Overture.flac
/Volumes/kindablue/new_rips/LSO/London Philharmonic Orchestra - 2011 - The 50 Greatest Pieces Of Classical Music [LAME MP3 (V0)]/11 Egmont Overture.mp3

Track gain : -3.96 dB
Peak : 0.985992
CRC32 hash (test run) : 543654B0
CRC32 hash : 543654B0
CRC32 hash (skip zero) : AB45EDC8
AccurateRip signature : B3E97799
->Track not present in AccurateRip database.
Statistics
Read error : 0
Jitter error (maybe fixed) : 0
Retry sector count : 0
Damaged sector count : 0

Track 12
Filename : /Volumes/kindablue/new_rips/LSO/London Philharmonic Orchestra - 2011 - The 50 Greatest Pieces Of Classical Music [FLAC (level 8)]/12 Messiah: Hallelujah Chorus.flac
/Volumes/kindablue/new_rips/LSO/London Philharmonic Orchestra - 2011 - The 50 Greatest Pieces Of Classical Music [LAME MP3 (V0)]/12 Messiah: Hallelujah Chorus.mp3

Track gain : -5.18 dB
Peak : 0.986237
CRC32 hash (test run) : E48BF44F
CRC32 hash : E48BF44F
CRC32 hash (skip zero) : C09FE03B
AccurateRip signature : 35B1F8D4
->Track not present in AccurateRip database.
Statistics
Read error : 0
Jitter error (maybe fixed) : 0
Retry sector count : 0
Damaged sector count : 0

No errors occurred

End of status report
TITLE "The 50 Greatest Pieces Of Classical Music" 
PERFORMER "London Philharmonic Orchestra"
REM GENRE "Classical"
REM DATE "2011"
REM DISCNUMBER 1
REM TOTALDISCS 4
REM DISCID B011600D
REM REPLAYGAIN_ALBUM_GAIN -4.31 dB
REM REPLAYGAIN_ALBUM_PEAK 0.987152
FILE "01 Carmina Burana: O Fortruna.flac" WAVE
TRACK 01 AUDIO
TITLE "Carmina Burana: O Fortruna"
SONGWRITER "Orff"
REM REPLAYGAIN_TRACK_GAIN -6.49 dB
REM REPLAYGAIN_TRACK_PEAK 0.987152
INDEX 01 00:00:00
FILE "02 Orchestral Suite No. 3: Air.flac" WAVE
TRACK 02 AUDIO
TITLE "Orchestral Suite No. 3: Air"
SONGWRITER "Johann Sebastian Bach"
REM REPLAYGAIN_TRACK_GAIN -1.18 dB
REM REPLAYGAIN_TRACK_PEAK 0.810608
INDEX 01 00:00:00
FILE "03 Peer Gynt: Morning Mood.flac" WAVE
TRACK 03 AUDIO
TITLE "Peer Gynt: Morning Mood"
SONGWRITER "Grieg"
REM REPLAYGAIN_TRACK_GAIN -4.32 dB
REM REPLAYGAIN_TRACK_PEAK 0.985992
INDEX 01 00:00:00
FILE "04 Symphony No. 5: Allegro Con Brio.flac" WAVE
TRACK 04 AUDIO
TITLE "Symphony No. 5: Allegro Con Brio"
SONGWRITER "Beethoven"
REM REPLAYGAIN_TRACK_GAIN -4.45 dB
REM REPLAYGAIN_TRACK_PEAK 0.986267
INDEX 01 00:00:00
FILE "05 Nocturne No. 2.flac" WAVE
TRACK 05 AUDIO
TITLE "Nocturne No. 2"
SONGWRITER "Chopin"
REM REPLAYGAIN_TRACK_GAIN -0.43 dB
REM REPLAYGAIN_TRACK_PEAK 0.985962
INDEX 01 00:00:00
FILE "06 Canon.flac" WAVE
TRACK 06 AUDIO
TITLE "Canon"
SONGWRITER "Pachelbel"
REM REPLAYGAIN_TRACK_GAIN -4.60 dB
REM REPLAYGAIN_TRACK_PEAK 0.985962
INDEX 01 00:00:00
FILE "07 Adagio For Strings.flac" WAVE
TRACK 07 AUDIO
TITLE "Adagio For Strings"
SONGWRITER "Barber"
REM REPLAYGAIN_TRACK_GAIN -4.99 dB
REM REPLAYGAIN_TRACK_PEAK 0.984314
INDEX 01 00:00:00
FILE "08 The Four Seasons, 'Spring': Allegro.flac" WAVE
TRACK 08 AUDIO
TITLE "The Four Seasons, 'Spring': Allegro"
SONGWRITER "Vivaldi"
REM REPLAYGAIN_TRACK_GAIN -1.90 dB
REM REPLAYGAIN_TRACK_PEAK 0.985809
INDEX 01 00:00:00
FILE "09 Ride Of The Valkyries.flac" WAVE
TRACK 09 AUDIO
TITLE "Ride Of The Valkyries"
SONGWRITER "Wagner"
REM REPLAYGAIN_TRACK_GAIN -4.96 dB
REM REPLAYGAIN_TRACK_PEAK 0.986572
INDEX 01 00:00:00
FILE "10 Clair De Lune.flac" WAVE
TRACK 10 AUDIO
TITLE "Clair De Lune"
SONGWRITER "Debussy"
REM REPLAYGAIN_TRACK_GAIN -0.68 dB
REM REPLAYGAIN_TRACK_PEAK 0.985931
INDEX 01 00:00:00
FILE "11 Chorus Of The Hebrew Slaves.flac" WAVE
TRACK 11 AUDIO
TITLE "Chorus Of The Hebrew Slaves"
SONGWRITER "Verdi"
REM REPLAYGAIN_TRACK_GAIN -5.29 dB
REM REPLAYGAIN_TRACK_PEAK 0.986176
INDEX 01 00:00:00
FILE "12 The Planets: Jupiter.flac" WAVE
TRACK 12 AUDIO
TITLE "The Planets: Jupiter"
SONGWRITER "Gustav Holst"
REM REPLAYGAIN_TRACK_GAIN -3.99 dB
REM REPLAYGAIN_TRACK_PEAK 0.986237
INDEX 01 00:00:00
FILE "13 Symphony No. 9, 'From The New World': Largo.flac" WAVE
TRACK 13 AUDIO
TITLE "Symphony No. 9, 'From The New World': Largo"
SONGWRITER "Dvorak"
REM REPLAYGAIN_TRACK_GAIN 0.03 dB
REM REPLAYGAIN_TRACK_PEAK 0.986755
INDEX 01 00:00:00
TITLE "The 50 Greatest Pieces Of Classical Music" 
PERFORMER "London Philharmonic Orchestra"
REM GENRE "Classical"
REM DATE "2011"
REM DISCNUMBER 2
REM TOTALDISCS 4
REM DISCID 9D0BB00C
REM REPLAYGAIN_ALBUM_GAIN -4.24 dB
REM REPLAYGAIN_ALBUM_PEAK 0.988495
FILE "01 Brandenburg Concerto No. 3: Allegro.flac" WAVE
TRACK 01 AUDIO
TITLE "Brandenburg Concerto No. 3: Allegro"
SONGWRITER "Bach"
REM REPLAYGAIN_TRACK_GAIN -3.78 dB
REM REPLAYGAIN_TRACK_PEAK 0.985931
INDEX 01 00:00:00
FILE "02 Piano Concerto No. 21: Andante.flac" WAVE
TRACK 02 AUDIO
TITLE "Piano Concerto No. 21: Andante"
SONGWRITER "Wolfgang Amadeus Mozart"
REM REPLAYGAIN_TRACK_GAIN -1.23 dB
REM REPLAYGAIN_TRACK_PEAK 0.985443
INDEX 01 00:00:00
FILE "03 Hungarian Dance No. 5.flac" WAVE
TRACK 03 AUDIO
TITLE "Hungarian Dance No. 5"
SONGWRITER "Brahms"
REM REPLAYGAIN_TRACK_GAIN -4.50 dB
REM REPLAYGAIN_TRACK_PEAK 0.986572
INDEX 01 00:00:00
FILE "04 Thais: Meditation.flac" WAVE
TRACK 04 AUDIO
TITLE "Thais: Meditation"
SONGWRITER "Massenet"
REM REPLAYGAIN_TRACK_GAIN -2.97 dB
REM REPLAYGAIN_TRACK_PEAK 0.986298
INDEX 01 00:00:00
FILE "05 Pomp And Circumstance; March No. 1.flac" WAVE
TRACK 05 AUDIO
TITLE "Pomp And Circumstance; March No. 1"
SONGWRITER "Elgar"
REM REPLAYGAIN_TRACK_GAIN -4.49 dB
REM REPLAYGAIN_TRACK_PEAK 0.986847
INDEX 01 00:00:00
FILE "06 Requiem Mass: Lacrimosa.flac" WAVE
TRACK 06 AUDIO
TITLE "Requiem Mass: Lacrimosa"
SONGWRITER "Wolfgang Amadeus Mozart"
REM REPLAYGAIN_TRACK_GAIN -5.46 dB
REM REPLAYGAIN_TRACK_PEAK 0.985931
INDEX 01 00:00:00
FILE "07 The Beautiful Blue Danube.flac" WAVE
TRACK 07 AUDIO
TITLE "The Beautiful Blue Danube"
SONGWRITER "Johann Strauss Jr."
REM REPLAYGAIN_TRACK_GAIN -4.04 dB
REM REPLAYGAIN_TRACK_PEAK 0.986908
INDEX 01 00:00:00
FILE "08 Fur Elise.flac" WAVE
TRACK 08 AUDIO
TITLE "Fur Elise"
SONGWRITER "Beethoven"
REM REPLAYGAIN_TRACK_GAIN -1.61 dB
REM REPLAYGAIN_TRACK_PEAK 0.985779
INDEX 01 00:00:00
FILE "09 Carmen Suite: Habanera.flac" WAVE
TRACK 09 AUDIO
TITLE "Carmen Suite: Habanera"
SONGWRITER "Bizet"
REM REPLAYGAIN_TRACK_GAIN 0.94 dB
REM REPLAYGAIN_TRACK_PEAK 0.988495
INDEX 01 00:00:00
FILE "10 Swan Lake Suite: Scene.flac" WAVE
TRACK 10 AUDIO
TITLE "Swan Lake Suite: Scene"
SONGWRITER "Tchaikovsky"
REM REPLAYGAIN_TRACK_GAIN -5.34 dB
REM REPLAYGAIN_TRACK_PEAK 0.986786
INDEX 01 00:00:00
FILE "11 Gymnopedie No. 1.flac" WAVE
TRACK 11 AUDIO
TITLE "Gymnopedie No. 1"
SONGWRITER "Satie"
REM REPLAYGAIN_TRACK_GAIN 3.13 dB
REM REPLAYGAIN_TRACK_PEAK 0.586395
INDEX 01 00:00:00
FILE "12 Symphony No. 9, 'Choral': Ode To Joy.flac" WAVE
TRACK 12 AUDIO
TITLE "Symphony No. 9, 'Choral': Ode To Joy"
SONGWRITER "Beethoven"
REM REPLAYGAIN_TRACK_GAIN -5.81 dB
REM REPLAYGAIN_TRACK_PEAK 0.986511
INDEX 01 00:00:00
TITLE "The 50 Greatest Pieces Of Classical Music" 
PERFORMER "London Philharmonic Orchestra"
REM GENRE "Classical"
REM DATE "2011"
REM DISCNUMBER 3
REM TOTALDISCS 4
REM DISCID AA11AF0D
REM REPLAYGAIN_ALBUM_GAIN -4.39 dB
REM REPLAYGAIN_ALBUM_PEAK 0.986877
FILE "01 The Barber of Seville: Overture.flac" WAVE
TRACK 01 AUDIO
TITLE "The Barber of Seville: Overture"
SONGWRITER "Rossini"
REM REPLAYGAIN_TRACK_GAIN -3.74 dB
REM REPLAYGAIN_TRACK_PEAK 0.986877
INDEX 01 00:00:00
FILE "02 Ave Maria (after J.S. Bach).flac" WAVE
TRACK 02 AUDIO
TITLE "Ave Maria (after J.S. Bach)"
SONGWRITER "Gounod"
REM REPLAYGAIN_TRACK_GAIN -3.80 dB
REM REPLAYGAIN_TRACK_PEAK 0.985962
INDEX 01 00:00:00
FILE "03 Peer Gynt: In the Hall of the Mountain King.flac" WAVE
TRACK 03 AUDIO
TITLE "Peer Gynt: In the Hall of the Mountain King"
SONGWRITER "Grieg"
REM REPLAYGAIN_TRACK_GAIN -3.34 dB
REM REPLAYGAIN_TRACK_PEAK 0.986267
INDEX 01 00:00:00
FILE "04 Moonlight Sonata: Adagio sostenuto.flac" WAVE
TRACK 04 AUDIO
TITLE "Moonlight Sonata: Adagio sostenuto"
SONGWRITER "Beethoven"
REM REPLAYGAIN_TRACK_GAIN 0.24 dB
REM REPLAYGAIN_TRACK_PEAK 0.985626
INDEX 01 00:00:00
FILE "05 Eine Kleine Nachtmusik: Allegro.flac" WAVE
TRACK 05 AUDIO
TITLE "Eine Kleine Nachtmusik: Allegro"
SONGWRITER "Mozart"
REM REPLAYGAIN_TRACK_GAIN -3.94 dB
REM REPLAYGAIN_TRACK_PEAK 0.985901
INDEX 01 00:00:00
FILE "06 Adagio in G Minor, "Albinoni's Adagio".flac" WAVE
TRACK 06 AUDIO
TITLE "Adagio in G Minor, "Albinoni's Adagio""
SONGWRITER "Giazotto"
REM REPLAYGAIN_TRACK_GAIN -4.16 dB
REM REPLAYGAIN_TRACK_PEAK 0.985901
INDEX 01 00:00:00
FILE "07 Finlandia.flac" WAVE
TRACK 07 AUDIO
TITLE "Finlandia"
SONGWRITER "Sibelius"
REM REPLAYGAIN_TRACK_GAIN -4.06 dB
REM REPLAYGAIN_TRACK_PEAK 0.986481
INDEX 01 00:00:00
FILE "08 String Quintet: Minuet.flac" WAVE
TRACK 08 AUDIO
TITLE "String Quintet: Minuet"
SONGWRITER "Boccherini"
REM REPLAYGAIN_TRACK_GAIN -1.54 dB
REM REPLAYGAIN_TRACK_PEAK 0.985718
INDEX 01 00:00:00
FILE "09 Symphony No. 40: Allegro molto.flac" WAVE
TRACK 09 AUDIO
TITLE "Symphony No. 40: Allegro molto"
SONGWRITER "Mozart"
REM REPLAYGAIN_TRACK_GAIN -4.95 dB
REM REPLAYGAIN_TRACK_PEAK 0.986084
INDEX 01 00:00:00
FILE "10 Cavatina.flac" WAVE
TRACK 10 AUDIO
TITLE "Cavatina"
SONGWRITER "Myers"
REM REPLAYGAIN_TRACK_GAIN -2.47 dB
REM REPLAYGAIN_TRACK_PEAK 0.985413
INDEX 01 00:00:00
FILE "11 Slavonic Dance No. 2.flac" WAVE
TRACK 11 AUDIO
TITLE "Slavonic Dance No. 2"
SONGWRITER "Dvorak"
REM REPLAYGAIN_TRACK_GAIN -4.08 dB
REM REPLAYGAIN_TRACK_PEAK 0.986359
INDEX 01 00:00:00
FILE "12 Messa de Requiem: Dies irae - Tuba mirum.flac" WAVE
TRACK 12 AUDIO
TITLE "Messa de Requiem: Dies irae - Tuba mirum"
SONGWRITER "Verdi"
REM REPLAYGAIN_TRACK_GAIN -7.68 dB
REM REPLAYGAIN_TRACK_PEAK 0.986755
INDEX 01 00:00:00
FILE "13 Symphony No. 5: Adagietto.flac" WAVE
TRACK 13 AUDIO
TITLE "Symphony No. 5: Adagietto"
SONGWRITER "Mahler"
REM REPLAYGAIN_TRACK_GAIN -4.03 dB
REM REPLAYGAIN_TRACK_PEAK 0.985718
INDEX 01 00:00:00
TITLE "The 50 Greatest Pieces Of Classical Music" 
PERFORMER "London Philharmonic Orchestra"
REM GENRE "Classical"
REM DATE "2011"
REM DISCNUMBER 4
REM TOTALDISCS 4
REM DISCID AD0EDB0C
REM REPLAYGAIN_ALBUM_GAIN -4.11 dB
REM REPLAYGAIN_ALBUM_PEAK 0.987030
FILE "01 Ma Vlast: Vltava.flac" WAVE
TRACK 01 AUDIO
TITLE "Ma Vlast: Vltava"
SONGWRITER "Smetana"
REM REPLAYGAIN_TRACK_GAIN -4.11 dB
REM REPLAYGAIN_TRACK_PEAK 0.987030
INDEX 01 00:00:00
FILE "02 Pavane.flac" WAVE
TRACK 02 AUDIO
TITLE "Pavane"
SONGWRITER "Faure"
REM REPLAYGAIN_TRACK_GAIN -2.77 dB
REM REPLAYGAIN_TRACK_PEAK 0.985992
INDEX 01 00:00:00
FILE "03 Double Violin Concerto: Vivace.flac" WAVE
TRACK 03 AUDIO
TITLE "Double Violin Concerto: Vivace"
SONGWRITER "Bach"
REM REPLAYGAIN_TRACK_GAIN -3.34 dB
REM REPLAYGAIN_TRACK_PEAK 0.985931
INDEX 01 00:00:00
FILE "04 The Tales of Hoffman: Barcarolle.flac" WAVE
TRACK 04 AUDIO
TITLE "The Tales of Hoffman: Barcarolle"
SONGWRITER "Offenbach"
REM REPLAYGAIN_TRACK_GAIN -3.27 dB
REM REPLAYGAIN_TRACK_PEAK 0.829681
INDEX 01 00:00:00
FILE "05 The Magic Flute: Overture.flac" WAVE
TRACK 05 AUDIO
TITLE "The Magic Flute: Overture"
SONGWRITER "Mozart"
REM REPLAYGAIN_TRACK_GAIN -4.81 dB
REM REPLAYGAIN_TRACK_PEAK 0.986145
INDEX 01 00:00:00
FILE "06 Piano Sonata No. 11: Ronda Alla Turca.flac" WAVE
TRACK 06 AUDIO
TITLE "Piano Sonata No. 11: Ronda Alla Turca"
SONGWRITER "Mozart"
REM REPLAYGAIN_TRACK_GAIN -2.19 dB
REM REPLAYGAIN_TRACK_PEAK 0.985840
INDEX 01 00:00:00
FILE "07 L'arlesienne Suite No. 1: Prelude.flac" WAVE
TRACK 07 AUDIO
TITLE "L'arlesienne Suite No. 1: Prelude"
SONGWRITER "Bizet"
REM REPLAYGAIN_TRACK_GAIN -2.82 dB
REM REPLAYGAIN_TRACK_PEAK 0.986603
INDEX 01 00:00:00
FILE "08 Christmas Concerto: Allegro.flac" WAVE
TRACK 08 AUDIO
TITLE "Christmas Concerto: Allegro"
SONGWRITER "Corelli"
REM REPLAYGAIN_TRACK_GAIN -5.04 dB
REM REPLAYGAIN_TRACK_PEAK 0.986206
INDEX 01 00:00:00
FILE "09 Radetzky March.flac" WAVE
TRACK 09 AUDIO
TITLE "Radetzky March"
SONGWRITER "Strauss I"
REM REPLAYGAIN_TRACK_GAIN -4.36 dB
REM REPLAYGAIN_TRACK_PEAK 0.986572
INDEX 01 00:00:00
FILE "10 Vocalise.flac" WAVE
TRACK 10 AUDIO
TITLE "Vocalise"
SONGWRITER "Rachmaninoff"
REM REPLAYGAIN_TRACK_GAIN -3.62 dB
REM REPLAYGAIN_TRACK_PEAK 0.986115
INDEX 01 00:00:00
FILE "11 Egmont Overture.flac" WAVE
TRACK 11 AUDIO
TITLE "Egmont Overture"
SONGWRITER "Beethoven"
REM REPLAYGAIN_TRACK_GAIN -3.96 dB
REM REPLAYGAIN_TRACK_PEAK 0.985992
INDEX 01 00:00:00
FILE "12 Messiah: Hallelujah Chorus.flac" WAVE
TRACK 12 AUDIO
TITLE "Messiah: Hallelujah Chorus"
SONGWRITER "Handel"
REM REPLAYGAIN_TRACK_GAIN -5.18 dB
REM REPLAYGAIN_TRACK_PEAK 0.986237
INDEX 01 00:00:00
info [Профиль]  [ЛС] 

Avengerz13

Стаж: 9 лет 10 месяцев

Сообщений: 165

Рейтинг

post 23-Июл-2012 21:04 (спустя 52 минуты) [-]0[+]

[Цитировать] 

Вах наконец-то, сдержал все таки слово.
info [Профиль]  [ЛС] 

fanatism

Пол: Пол:Муж

Стаж: 11 лет

Сообщений: 24

Украина
Рейтинг

post 25-Июл-2012 00:27 (спустя 1 день 3 часа) [-]0[+]

[Цитировать] 

Большое спасибо, встаньте на раздачу пожалуйста.
info [Профиль]  [ЛС] 

Rock Star

Пол: Пол:Муж

Стаж: 9 лет 9 месяцев

Сообщений: 780

Рейтинг

post 25-Июл-2012 00:36 (спустя 9 минут) [-]1[+]

[Цитировать] 

fanatism
Вроде 8 сидов (включая меня), все еще не хватает?
эх, другие качают и канают(
info [Профиль]  [ЛС] 

Antohabigher

Пол: Пол:Муж

Стаж: 9 лет 4 месяца

Сообщений: 59

Рейтинг

post 02-Окт-2012 22:16 (спустя 2 месяца 8 дней) [-]0[+]

[Цитировать] 

Спасибо, раздаю! Ухмыляюсь
info [Профиль]  [ЛС] 

Balomut

Пол: Пол:Муж

Стаж: 9 лет 4 месяца

Сообщений: 42

Россия
Рейтинг

post 03-Янв-2013 04:47 (спустя 3 месяца) [-]0[+]

[Цитировать] 

Может кто нить даст хоть немного скорости, чтоб можно было скачать.
А то с максимальной скоростью в 3кб/с мне осталось качать всего лишь навсего почти 4 дня.
Заранее очь благодарен.

_________________
info [Профиль]  [ЛС] 
Показать сообщения:    
Ответить на тему

Текущее время: 08-Май 22:31

Часовой пояс: GMT + 4



Вы не можете начинать темы
Вы не можете отвечать на сообщения
Вы не можете редактировать свои сообщения
Вы не можете удалять свои сообщения
Вы не можете голосовать в опросах
Вы не можете прикреплять файлы к сообщениям
Вы не можете скачивать файлы