Ошибка

(Reggae) Bob Marley & the Wailers - One Love The Very Best of Bob Marley & The Wailers - 2001, FLAC (tracks+.cue)+cover, lossless

Ответить на тему
 
Автор Сообщение

Жура

Пол: Пол:Муж

Стаж: 12 лет

Сообщений: 143

Предупреждений: 1

Россия
Рейтинг

post 14-Июн-2012 23:41 1[+]

[Цитировать] 

Bob Marley & the Wailers - One Love The Very Best of Bob Marley & The Wailers


pic="http://images.amazon.com/images/P/B000065Q88.jpg"


Жанр: Reggae
Год издания данного носителя: 2001
Страна-производитель носителя: XE
Аудио кодек: FLAC
Тип рипа: tracks+.cue
Битрейт аудио: lossless
Продолжительность: 1:18:32; 57:29
Полиграфия: Присутствует
Треклист:
01. Stir It Up
02. Get Up, Stand Up
03. I Shot the Sheriff
04. Lively Up Yourself
05. No Woman No Cry [live]
06. Roots, Rock, Reggae
07. Exodus
08. Jamming
09. Waiting in Vain
10. Three Little Birds
11. Turn Your Lights Down Low
12. One Love/People Get Ready
13. Is This Love
14. Sun Is Shining
15. So Much Trouble in the World
16. Could You Be Loved
17. Redemption Song [Band Version]
18. Buffalo Soldier
19. Iron Lion Zion
20. I Know a Place [Single Remix]

2001 Bonus Tracks:
21. Concrete Jungle
22. Burnin' and Lootin'
23. Rebel Music (3 O'Clock Roadblock)
24. Jar Live
25. Positive Vibration
26. Smile Jamaica
27. Natural Mystic
28. Punky Reggae Party
29. Satisfy My Soul
30. Africa Unite
31. Coming in from the Cold
32. Rastaman Live Up!
33. Who Colt the Game
Exact Audio Copy V0.99 prebeta 5 from 4. May 2009 

EAC extraction logfile from 8. May 2009, 19:52

Bob Marley & The Wailers / One Love: The Very Best Of Bob Marley & The Wailers

Used drive : PIONEER DVD-RW DVR-116D Adapter: 0 ID: 0

Read mode : Secure
Utilize accurate stream : Yes
Defeat audio cache : Yes
Make use of C2 pointers : No

Read offset correction : 96
Overread into Lead-In and Lead-Out : No
Fill up missing offset samples with silence : Yes
Delete leading and trailing silent blocks : No
Null samples used in CRC calculations : Yes
Used interface : Installed external ASPI interface
Gap handling : Appended to previous track

Used output format : User Defined Encoder
Selected bitrate : 128 kBit/s
Quality : High
Add ID3 tag : No
Command line compressor : C:Program FilesFLACflac.exe
Additional command line options : -V -8 -T "artist=%a" -T "title=%t" -T "album=%g" -T "date=%y" -T "tracknumber=%n" -T "genre=%m" %s

TOC of the extracted CD

Track | Start | Length | Start sector | End sector
---------------------------------------------------------
1 | 0:00.00 | 3:41.27 | 0 | 16601
2 | 3:41.27 | 3:19.53 | 16602 | 31579
3 | 7:01.05 | 3:54.27 | 31580 | 49156
4 | 10:55.32 | 5:10.60 | 49157 | 72466
5 | 16:06.17 | 7:12.08 | 72467 | 104874
6 | 23:18.25 | 3:38.30 | 104875 | 121254
7 | 26:56.55 | 4:30.20 | 121255 | 141524
8 | 31:27.00 | 3:35.00 | 141525 | 157649
9 | 35:02.00 | 4:12.20 | 157650 | 176569
10 | 39:14.20 | 3:01.67 | 176570 | 190211
11 | 42:16.12 | 3:39.28 | 190212 | 206664
12 | 45:55.40 | 2:52.55 | 206665 | 219619
13 | 48:48.20 | 3:53.52 | 219620 | 237146
14 | 52:41.72 | 4:57.55 | 237147 | 259476
15 | 57:39.52 | 4:00.23 | 259477 | 277499
16 | 61:40.00 | 3:55.65 | 277500 | 295189
17 | 65:35.65 | 3:37.52 | 295190 | 311516
18 | 69:13.42 | 2:44.53 | 311517 | 323869
19 | 71:58.20 | 3:12.55 | 323870 | 338324
20 | 75:11.00 | 3:21.20 | 338325 | 353419

Track 1

Filename F:Bob Marley & The Wailers - One Love The Very Best Of Bob Marley & The Wailers ( 2001 )cd1�1 Bob Marley & The Wailers - Stir It Up.wav

Pre-gap length 0:00:02.00

Peak level 99.8 %
Track quality 100.0 %
Test CRC 3EE61C63
Copy CRC 3EE61C63
Accurately ripped (confidence 7) [AD2EEFB6]
Copy OK

Track 2

Filename F:Bob Marley & The Wailers - One Love The Very Best Of Bob Marley & The Wailers ( 2001 )cd1�2 Bob Marley & The Wailers - Get Up, Stand Up.wav

Pre-gap length 0:00:01.69

Peak level 99.8 %
Track quality 100.0 %
Test CRC BDF32C05
Copy CRC BDF32C05
Accurately ripped (confidence 7) [89BC2238]
Copy OK

Track 3

Filename F:Bob Marley & The Wailers - One Love The Very Best Of Bob Marley & The Wailers ( 2001 )cd1�3 Bob Marley & The Wailers - I Shot The Sheriff.wav

Pre-gap length 0:00:01.73

Peak level 99.8 %
Track quality 100.0 %
Test CRC 33BFFFF5
Copy CRC 33BFFFF5
Accurately ripped (confidence 7) [95AF568C]
Copy OK

Track 4

Filename F:Bob Marley & The Wailers - One Love The Very Best Of Bob Marley & The Wailers ( 2001 )cd1�4 Bob Marley & The Wailers - Lively Up Yourself.wav

Pre-gap length 0:00:01.56

Peak level 99.8 %
Track quality 99.9 %
Test CRC A55354E4
Copy CRC A55354E4
Accurately ripped (confidence 7) [60C76FEC]
Copy OK

Track 5

Filename F:Bob Marley & The Wailers - One Love The Very Best Of Bob Marley & The Wailers ( 2001 )cd1�5 Bob Marley & The Wailers - No Woman, No Cry (Live).wav

Peak level 98.7 %
Track quality 100.0 %
Test CRC 98B164D3
Copy CRC 98B164D3
Accurately ripped (confidence 6) [D8C61E54]
Copy OK

Track 6

Filename F:Bob Marley & The Wailers - One Love The Very Best Of Bob Marley & The Wailers ( 2001 )cd1�6 Bob Marley & The Wailers - Roots, Rock, Reggae.wav

Pre-gap length 0:00:01.10

Peak level 99.8 %
Track quality 100.0 %
Test CRC 4BB8DCC8
Copy CRC 4BB8DCC8
Accurately ripped (confidence 7) [EA9ED240]
Copy OK

Track 7

Filename F:Bob Marley & The Wailers - One Love The Very Best Of Bob Marley & The Wailers ( 2001 )cd1�7 Bob Marley & The Wailers - Exodus.wav

Pre-gap length 0:00:00.93

Peak level 99.8 %
Track quality 100.0 %
Test CRC 4940B623
Copy CRC 4940B623
Accurately ripped (confidence 7) [0FCD2693]
Copy OK

Track 8

Filename F:Bob Marley & The Wailers - One Love The Very Best Of Bob Marley & The Wailers ( 2001 )cd1�8 Bob Marley & The Wailers - Jamming.wav

Pre-gap length 0:00:00.93

Peak level 99.8 %
Track quality 100.0 %
Test CRC DBB6D65C
Copy CRC DBB6D65C
Accurately ripped (confidence 7) [6233D390]
Copy OK

Track 9

Filename F:Bob Marley & The Wailers - One Love The Very Best Of Bob Marley & The Wailers ( 2001 )cd1�9 Bob Marley & The Wailers - Waiting In Vain.wav

Peak level 99.8 %
Track quality 100.0 %
Test CRC 77FE669B
Copy CRC 77FE669B
Accurately ripped (confidence 7) [6179DF94]
Copy OK

Track 10

Filename F:Bob Marley & The Wailers - One Love The Very Best Of Bob Marley & The Wailers ( 2001 )cd110 Bob Marley & The Wailers - Three Little Birds.wav

Pre-gap length 0:00:00.57

Peak level 99.8 %
Track quality 100.0 %
Test CRC 55EDDAA8
Copy CRC 55EDDAA8
Accurately ripped (confidence 7) [63ADB67B]
Copy OK

Track 11

Filename F:Bob Marley & The Wailers - One Love The Very Best Of Bob Marley & The Wailers ( 2001 )cd111 Bob Marley & The Wailers - Turn Your Lights Down Low.wav

Pre-gap length 0:00:01.40

Peak level 99.8 %
Track quality 100.0 %
Test CRC F6E5008C
Copy CRC F6E5008C
Accurately ripped (confidence 6) [4247BABC]
Copy OK

Track 12

Filename F:Bob Marley & The Wailers - One Love The Very Best Of Bob Marley & The Wailers ( 2001 )cd112 Bob Marley & The Wailers - One Love-People Get Ready.wav

Peak level 99.8 %
Track quality 100.0 %
Test CRC B1AD85EA
Copy CRC B1AD85EA
Accurately ripped (confidence 7) [31326544]
Copy OK

Track 13

Filename F:Bob Marley & The Wailers - One Love The Very Best Of Bob Marley & The Wailers ( 2001 )cd113 Bob Marley & The Wailers - Is This Love.wav

Pre-gap length 0:00:00.60

Peak level 99.8 %
Track quality 100.0 %
Test CRC 72D4C7D2
Copy CRC 72D4C7D2
Accurately ripped (confidence 7) [2A8157BA]
Copy OK

Track 14

Filename F:Bob Marley & The Wailers - One Love The Very Best Of Bob Marley & The Wailers ( 2001 )cd114 Bob Marley & The Wailers - Sun Is Shining.wav

Pre-gap length 0:00:00.69

Peak level 99.8 %
Track quality 100.0 %
Test CRC 1626AE98
Copy CRC 1626AE98
Accurately ripped (confidence 7) [3474B49A]
Copy OK

Track 15

Filename F:Bob Marley & The Wailers - One Love The Very Best Of Bob Marley & The Wailers ( 2001 )cd115 Bob Marley & The Wailers - So Much Trouble In The World.wav

Peak level 99.8 %
Track quality 100.0 %
Test CRC 7D5D5A42
Copy CRC 7D5D5A42
Accurately ripped (confidence 7) [A5180AE4]
Copy OK

Track 16

Filename F:Bob Marley & The Wailers - One Love The Very Best Of Bob Marley & The Wailers ( 2001 )cd116 Bob Marley & The Wailers - Could You Be Loved.wav

Peak level 99.8 %
Track quality 100.0 %
Test CRC C1C10704
Copy CRC C1C10704
Accurately ripped (confidence 7) [0A34F0E5]
Copy OK

Track 17

Filename F:Bob Marley & The Wailers - One Love The Very Best Of Bob Marley & The Wailers ( 2001 )cd117 Bob Marley & The Wailers - Redemption Song (Band Version).wav

Peak level 99.8 %
Track quality 100.0 %
Test CRC BFCA1089
Copy CRC BFCA1089
Accurately ripped (confidence 7) [D9DFD38A]
Copy OK

Track 18

Filename F:Bob Marley & The Wailers - One Love The Very Best Of Bob Marley & The Wailers ( 2001 )cd118 Bob Marley & The Wailers - Buffalo Soldier.wav

Peak level 99.8 %
Track quality 99.9 %
Test CRC 6D0DD712
Copy CRC 6D0DD712
Accurately ripped (confidence 7) [D16EB772]
Copy OK

Track 19

Filename F:Bob Marley & The Wailers - One Love The Very Best Of Bob Marley & The Wailers ( 2001 )cd119 Bob Marley & The Wailers - Iron Lion Zion.wav

Pre-gap length 0:00:00.97

Peak level 99.8 %
Track quality 100.0 %
Test CRC 79520B4F
Copy CRC 79520B4F
Accurately ripped (confidence 6) [BBF85375]
Copy OK

Track 20

Filename F:Bob Marley & The Wailers - One Love The Very Best Of Bob Marley & The Wailers ( 2001 )cd120 Bob Marley & The Wailers - I Know A Place (Single Remix).wav

Pre-gap length 0:00:03.17

Peak level 100.0 %
Track quality 99.9 %
Test CRC 5CAB3357
Copy CRC 5CAB3357
Accurately ripped (confidence 6) [677F10EF]
Copy OK

All tracks accurately ripped

No errors occurred

End of status report

Exact Audio Copy V0.99 prebeta 5 from 4. May 2009

EAC extraction logfile from 8. May 2009, 20:31

Bob Marley & The Wailers / One Love: The Very Best Of Bob Marley & Wailers (Bonus Disc)

Used drive : PIONEER DVD-RW DVR-116D Adapter: 0 ID: 0

Read mode : Secure
Utilize accurate stream : Yes
Defeat audio cache : Yes
Make use of C2 pointers : No

Read offset correction : 96
Overread into Lead-In and Lead-Out : No
Fill up missing offset samples with silence : Yes
Delete leading and trailing silent blocks : No
Null samples used in CRC calculations : Yes
Used interface : Installed external ASPI interface
Gap handling : Appended to previous track

Used output format : User Defined Encoder
Selected bitrate : 128 kBit/s
Quality : High
Add ID3 tag : No
Command line compressor : C:Program FilesFLACflac.exe
Additional command line options : -V -8 -T "artist=%a" -T "title=%t" -T "album=%g" -T "date=%y" -T "tracknumber=%n" -T "genre=%m" %s

TOC of the extracted CD

Track | Start | Length | Start sector | End sector
---------------------------------------------------------
1 | 0:00.00 | 4:14.32 | 0 | 19081
2 | 4:14.32 | 4:17.03 | 19082 | 38359
3 | 8:31.35 | 6:47.10 | 38360 | 68894
4 | 15:18.45 | 4:14.70 | 68895 | 88014
5 | 19:33.40 | 3:34.62 | 88015 | 104126
6 | 23:08.27 | 3:14.20 | 104127 | 118696
7 | 26:22.47 | 3:30.43 | 118697 | 134489
8 | 29:53.15 | 6:53.15 | 134490 | 165479
9 | 36:46.30 | 4:31.55 | 165480 | 185859
10 | 41:18.10 | 2:58.37 | 185860 | 199246
11 | 44:16.47 | 4:34.00 | 199247 | 219796
12 | 48:50.47 | 5:23.65 | 219797 | 244086
13 | 54:14.37 | 3:14.65 | 244087 | 258701

Track 1

Filename F:Bob Marley & The Wailers - One Love The Very Best Of Bob Marley & The Wailers ( 2001 )cd2 bonus�1 Bob Marley & The Wailers - Concrete Jungle.wav

Pre-gap length 0:00:02.00

Peak level 99.9 %
Track quality 100.0 %
Test CRC 18E50BC1
Copy CRC 18E50BC1
Accurately ripped (confidence 3) [32F5E02C]
Copy OK

Track 2

Filename F:Bob Marley & The Wailers - One Love The Very Best Of Bob Marley & The Wailers ( 2001 )cd2 bonus�2 Bob Marley & The Wailers - Burnin' And Lootin'.wav

Pre-gap length 0:00:02.56

Peak level 91.1 %
Track quality 99.9 %
Test CRC 68F83BC6
Copy CRC 68F83BC6
Accurately ripped (confidence 3) [DDB08CFE]
Copy OK

Track 3

Filename F:Bob Marley & The Wailers - One Love The Very Best Of Bob Marley & The Wailers ( 2001 )cd2 bonus�3 Bob Marley & The Wailers - Rebel Music (3 O'Clock Roadblock).wav

Pre-gap length 0:00:02.60

Peak level 99.9 %
Track quality 100.0 %
Test CRC A80EE078
Copy CRC A80EE078
Accurately ripped (confidence 3) [7FDD527C]
Copy OK

Track 4

Filename F:Bob Marley & The Wailers - One Love The Very Best Of Bob Marley & The Wailers ( 2001 )cd2 bonus�4 Bob Marley & The Wailers - Jah Live.wav

Pre-gap length 0:00:03.10

Peak level 99.9 %
Track quality 100.0 %
Test CRC BBFD05F2
Copy CRC BBFD05F2
Accurately ripped (confidence 3) [D339EAFB]
Copy OK

Track 5

Filename F:Bob Marley & The Wailers - One Love The Very Best Of Bob Marley & The Wailers ( 2001 )cd2 bonus�5 Bob Marley & The Wailers - Positive Vibration.wav

Pre-gap length 0:00:02.57

Peak level 99.9 %
Track quality 99.9 %
Test CRC D835D827
Copy CRC D835D827
Accurately ripped (confidence 3) [EAB39E20]
Copy OK

Track 6

Filename F:Bob Marley & The Wailers - One Love The Very Best Of Bob Marley & The Wailers ( 2001 )cd2 bonus�6 Bob Marley & The Wailers - Smile Jamaica.wav

Pre-gap length 0:00:02.56

Peak level 99.9 %
Track quality 99.9 %
Test CRC 1AC15AE5
Copy CRC 1AC15AE5
Accurately ripped (confidence 3) [63D8823E]
Copy OK

Track 7

Filename F:Bob Marley & The Wailers - One Love The Very Best Of Bob Marley & The Wailers ( 2001 )cd2 bonus�7 Bob Marley & The Wailers - Natural Mystic.wav

Pre-gap length 0:00:01.89

Peak level 91.9 %
Track quality 100.0 %
Test CRC BBDBDCAB
Copy CRC BBDBDCAB
Accurately ripped (confidence 3) [D1062CDF]
Copy OK

Track 8

Filename F:Bob Marley & The Wailers - One Love The Very Best Of Bob Marley & The Wailers ( 2001 )cd2 bonus�8 Bob Marley & The Wailers - Punky Reggae Party.wav

Pre-gap length 0:00:02.57

Peak level 94.2 %
Track quality 100.0 %
Test CRC D28FFACC
Copy CRC D28FFACC
Accurately ripped (confidence 3) [65CD26DC]
Copy OK

Track 9

Filename F:Bob Marley & The Wailers - One Love The Very Best Of Bob Marley & The Wailers ( 2001 )cd2 bonus�9 Bob Marley & The Wailers - Satisfy My Soul.wav

Pre-gap length 0:00:01.70

Peak level 99.8 %
Track quality 100.0 %
Test CRC 09012B15
Copy CRC 09012B15
Accurately ripped (confidence 3) [9C76D295]
Copy OK

Track 10

Filename F:Bob Marley & The Wailers - One Love The Very Best Of Bob Marley & The Wailers ( 2001 )cd2 bonus10 Bob Marley & The Wailers - Africa Unite.wav

Peak level 99.8 %
Track quality 100.0 %
Test CRC 05DE8A59
Copy CRC 05DE8A59
Accurately ripped (confidence 2) [73616EB1]
Copy OK

Track 11

Filename F:Bob Marley & The Wailers - One Love The Very Best Of Bob Marley & The Wailers ( 2001 )cd2 bonus11 Bob Marley & The Wailers - Coming In From The Cold.wav

Pre-gap length 0:00:03.16

Peak level 79.2 %
Track quality 100.0 %
Test CRC C62A90CD
Copy CRC C62A90CD
Accurately ripped (confidence 3) [2266673A]
Copy OK

Track 12

Filename F:Bob Marley & The Wailers - One Love The Very Best Of Bob Marley & The Wailers ( 2001 )cd2 bonus12 Bob Marley & The Wailers - Rastaman Live Up!.wav

Pre-gap length 0:00:03.09

Peak level 94.2 %
Track quality 100.0 %
Test CRC F1296E19
Copy CRC F1296E19
Accurately ripped (confidence 3) [1BACEECB]
Copy OK

Track 13

Filename F:Bob Marley & The Wailers - One Love The Very Best Of Bob Marley & The Wailers ( 2001 )cd2 bonus13 Bob Marley & The Wailers - Who Colt The Game.wav

Pre-gap length 0:00:01.96

Peak level 100.0 %
Track quality 100.0 %
Test CRC C9CD7C76
Copy CRC C9CD7C76
Accurately ripped (confidence 3) [EAB76566]
Copy OK

All tracks accurately ripped

No errors occurred

End of status report
REM GENRE Reggae 
REM DATE 2001
REM DISCID 19126814
REM COMMENT "ExactAudioCopy v0.99pb5"
PERFORMER "Bob Marley & The Wailers"
TITLE "One Love: The Very Best Of Bob Marley & The Wailers"
FILE "01 Bob Marley & The Wailers - Stir It Up.wav" WAVE
TRACK 01 AUDIO
TITLE "Stir It Up"
PERFORMER "Bob Marley & The Wailers"
INDEX 01 00:00:00
TRACK 02 AUDIO
TITLE "Get Up, Stand Up"
PERFORMER "Bob Marley & The Wailers"
INDEX 00 03:39:50
FILE "02 Bob Marley & The Wailers - Get Up, Stand Up.wav" WAVE
INDEX 01 00:00:00
TRACK 03 AUDIO
TITLE "I Shot The Sheriff"
PERFORMER "Bob Marley & The Wailers"
INDEX 00 03:17:73
FILE "03 Bob Marley & The Wailers - I Shot The Sheriff.wav" WAVE
INDEX 01 00:00:00
TRACK 04 AUDIO
TITLE "Lively Up Yourself"
PERFORMER "Bob Marley & The Wailers"
INDEX 00 03:52:60
FILE "04 Bob Marley & The Wailers - Lively Up Yourself.wav" WAVE
INDEX 01 00:00:00
FILE "05 Bob Marley & The Wailers - No Woman, No Cry (Live).wav" WAVE
TRACK 05 AUDIO
TITLE "No Woman, No Cry (Live)"
PERFORMER "Bob Marley & The Wailers"
INDEX 01 00:00:00
TRACK 06 AUDIO
TITLE "Roots, Rock, Reggae"
PERFORMER "Bob Marley & The Wailers"
INDEX 00 07:11:00
FILE "06 Bob Marley & The Wailers - Roots, Rock, Reggae.wav" WAVE
INDEX 01 00:00:00
TRACK 07 AUDIO
TITLE "Exodus"
PERFORMER "Bob Marley & The Wailers"
INDEX 00 03:37:35
FILE "07 Bob Marley & The Wailers - Exodus.wav" WAVE
INDEX 01 00:00:00
TRACK 08 AUDIO
TITLE "Jamming"
PERFORMER "Bob Marley & The Wailers"
INDEX 00 04:29:25
FILE "08 Bob Marley & The Wailers - Jamming.wav" WAVE
INDEX 01 00:00:00
FILE "09 Bob Marley & The Wailers - Waiting In Vain.wav" WAVE
TRACK 09 AUDIO
TITLE "Waiting In Vain"
PERFORMER "Bob Marley & The Wailers"
INDEX 01 00:00:00
TRACK 10 AUDIO
TITLE "Three Little Birds"
PERFORMER "Bob Marley & The Wailers"
INDEX 00 04:11:52
FILE "10 Bob Marley & The Wailers - Three Little Birds.wav" WAVE
INDEX 01 00:00:00
TRACK 11 AUDIO
TITLE "Turn Your Lights Down Low"
PERFORMER "Bob Marley & The Wailers"
INDEX 00 03:00:37
FILE "11 Bob Marley & The Wailers - Turn Your Lights Down Low.wav" WAVE
INDEX 01 00:00:00
FILE "12 Bob Marley & The Wailers - One Love-People Get Ready.wav" WAVE
TRACK 12 AUDIO
TITLE "One Love-People Get Ready"
PERFORMER "Bob Marley & The Wailers"
INDEX 01 00:00:00
TRACK 13 AUDIO
TITLE "Is This Love"
PERFORMER "Bob Marley & The Wailers"
INDEX 00 02:52:10
FILE "13 Bob Marley & The Wailers - Is This Love.wav" WAVE
INDEX 01 00:00:00
TRACK 14 AUDIO
TITLE "Sun Is Shining"
PERFORMER "Bob Marley & The Wailers"
INDEX 00 03:53:00
FILE "14 Bob Marley & The Wailers - Sun Is Shining.wav" WAVE
INDEX 01 00:00:00
FILE "15 Bob Marley & The Wailers - So Much Trouble In The World.wav" WAVE
TRACK 15 AUDIO
TITLE "So Much Trouble In The World"
PERFORMER "Bob Marley & The Wailers"
INDEX 01 00:00:00
FILE "16 Bob Marley & The Wailers - Could You Be Loved.wav" WAVE
TRACK 16 AUDIO
TITLE "Could You Be Loved"
PERFORMER "Bob Marley & The Wailers"
INDEX 01 00:00:00
FILE "17 Bob Marley & The Wailers - Redemption Song (Band Version).wav" WAVE
TRACK 17 AUDIO
TITLE "Redemption Song (Band Version)"
PERFORMER "Bob Marley & The Wailers"
INDEX 01 00:00:00
FILE "18 Bob Marley & The Wailers - Buffalo Soldier.wav" WAVE
TRACK 18 AUDIO
TITLE "Buffalo Soldier"
PERFORMER "Bob Marley & The Wailers"
INDEX 01 00:00:00
TRACK 19 AUDIO
TITLE "Iron Lion Zion"
PERFORMER "Bob Marley & The Wailers"
INDEX 00 02:43:55
FILE "19 Bob Marley & The Wailers - Iron Lion Zion.wav" WAVE
INDEX 01 00:00:00
TRACK 20 AUDIO
TITLE "I Know A Place (Single Remix)"
PERFORMER "Bob Marley & The Wailers"
INDEX 00 03:09:42
FILE "20 Bob Marley & The Wailers - I Know A Place (Single Remix).wav" WAVE
INDEX 01 00:00:00

REM GENRE Reggae
REM DATE 2001
REM DISCID B50D790D
REM COMMENT "ExactAudioCopy v0.99pb5"
PERFORMER "Bob Marley & The Wailers"
TITLE "One Love: The Very Best Of Bob Marley & Wailers (Bonus Disc)"
FILE "01 Bob Marley & The Wailers - Concrete Jungle.wav" WAVE
TRACK 01 AUDIO
TITLE "Concrete Jungle"
PERFORMER "Bob Marley & The Wailers"
INDEX 01 00:00:00
TRACK 02 AUDIO
TITLE "Burnin' And Lootin'"
PERFORMER "Bob Marley & The Wailers"
INDEX 00 04:11:65
FILE "02 Bob Marley & The Wailers - Burnin' And Lootin'.wav" WAVE
INDEX 01 00:00:00
TRACK 03 AUDIO
TITLE "Rebel Music (3 O'Clock Roadblock)"
PERFORMER "Bob Marley & The Wailers"
INDEX 00 04:14:33
FILE "03 Bob Marley & The Wailers - Rebel Music (3 O'Clock Roadblock).wav" WAVE
INDEX 01 00:00:00
TRACK 04 AUDIO
TITLE "Jah Live"
PERFORMER "Bob Marley & The Wailers"
INDEX 00 06:44:02
FILE "04 Bob Marley & The Wailers - Jah Live.wav" WAVE
INDEX 01 00:00:00
TRACK 05 AUDIO
TITLE "Positive Vibration"
PERFORMER "Bob Marley & The Wailers"
INDEX 00 04:12:27
FILE "05 Bob Marley & The Wailers - Positive Vibration.wav" WAVE
INDEX 01 00:00:00
TRACK 06 AUDIO
TITLE "Smile Jamaica"
PERFORMER "Bob Marley & The Wailers"
INDEX 00 03:32:20
FILE "06 Bob Marley & The Wailers - Smile Jamaica.wav" WAVE
INDEX 01 00:00:00
TRACK 07 AUDIO
TITLE "Natural Mystic"
PERFORMER "Bob Marley & The Wailers"
INDEX 00 03:12:28
FILE "07 Bob Marley & The Wailers - Natural Mystic.wav" WAVE
INDEX 01 00:00:00
TRACK 08 AUDIO
TITLE "Punky Reggae Party"
PERFORMER "Bob Marley & The Wailers"
INDEX 00 03:28:00
FILE "08 Bob Marley & The Wailers - Punky Reggae Party.wav" WAVE
INDEX 01 00:00:00
TRACK 09 AUDIO
TITLE "Satisfy My Soul"
PERFORMER "Bob Marley & The Wailers"
INDEX 00 06:51:37
FILE "09 Bob Marley & The Wailers - Satisfy My Soul.wav" WAVE
INDEX 01 00:00:00
FILE "10 Bob Marley & The Wailers - Africa Unite.wav" WAVE
TRACK 10 AUDIO
TITLE "Africa Unite"
PERFORMER "Bob Marley & The Wailers"
INDEX 01 00:00:00
TRACK 11 AUDIO
TITLE "Coming In From The Cold"
PERFORMER "Bob Marley & The Wailers"
INDEX 00 02:55:25
FILE "11 Bob Marley & The Wailers - Coming In From The Cold.wav" WAVE
INDEX 01 00:00:00
TRACK 12 AUDIO
TITLE "Rastaman Live Up!"
PERFORMER "Bob Marley & The Wailers"
INDEX 00 04:30:68
FILE "12 Bob Marley & The Wailers - Rastaman Live Up!.wav" WAVE
INDEX 01 00:00:00
TRACK 13 AUDIO
TITLE "Who Colt The Game"
PERFORMER "Bob Marley & The Wailers"
INDEX 00 05:21:68
FILE "13 Bob Marley & The Wailers - Who Colt The Game.wav" WAVE
INDEX 01 00:00:00
info [Профиль]  [ЛС] 

z1v2

Пол: Пол:Муж

Стаж: 10 лет

Сообщений: 67

Рейтинг

post 15-Июн-2012 01:52 (спустя 2 часа 11 минут) [-]1[+]

[Цитировать] 

Zачет! Спасибо! kolob_117

_________________
Уважать или не уважать человека - ваш выбор.
Относиться уважительно - ваше воспитание.
info [Профиль]  [ЛС] 
Показать сообщения:    
Ответить на тему

Текущее время: 13-Май 17:22

Часовой пояс: GMT + 4



Вы не можете начинать темы
Вы не можете отвечать на сообщения
Вы не можете редактировать свои сообщения
Вы не можете удалять свои сообщения
Вы не можете голосовать в опросах
Вы не можете прикреплять файлы к сообщениям
Вы не можете скачивать файлы