Ошибка

(Hip-Hop, Southern Hip-Hop) Big K.R.I.T. - Live from the Underground - 2012, FLAC (tracks+.cue), lossless

Ответить на тему
 
Автор Сообщение

Raxent

Пол: Пол:Муж

Стаж: 12 лет

Сообщений: 219

Рейтинг

post 04-Июн-2012 18:01 0[+]

[Цитировать] 


Big K.R.I.T.
"Live from the Underground"
Жанр: Hip-Hop
Страна-производитель диска: USA
Год издания: 2012
Издатель (лейбл): Def Jam
Страна: USA
Аудиокодек: FLAC (*.flac)
Тип рипа: tracks+.cue
Битрейт аудио: lossless
Продолжительность: 00:58:21
Источник (релизер): daftandroid
Наличие сканов в содержимом раздачи: нет

Треклист:
    01. LFU300MA (Intro) (2:14)
    02. Live From The Underground (3:40)
    03. Cool 2 Be Southern (3:22)
    04. I Got This (3:22)
    05. Money On The Floor Ft. 2 Chainz 8 Ball & MJG (4:07)
    06. What U Mean Ft. Ludacris (3:56)
    07. My Sub Pt.2: The Jackin' (4:11)
    08. Don't Let Me Down (2:57)
    09. Porchlight Ft. Anthony Hamilton (3:48)
    10. Pull Up Ft. Big Sant & Bun B (4:02)
    11. Yeah Dats Me (3:25)
    12. Hydroplaning Ft. Devin The Dude (4:02)
    13. If I Fall Ft. Melanie Fiona (2:57)
    14. Rich Dad, Poor Dad (3:06)
    15. Praying Man Ft. BB King (4:21)
    16. Live From The Underground (Reprise) Ft. Ms. Linnie (4:55)

 
X Lossless Decoder version 20120226 (139.1)

XLD extraction logfile from 2012-06-05 21:09:03 +0000

Big K.R.I.T. / Live From The Underground

Used drive : MATSHITA DVD-R UJ-898 (revision HC10)

Ripper mode : XLD Secure Ripper
Disable audio cache : OK for the drive with a cache less than 1375KiB
Make use of C2 pointers : NO
Read offset correction : 102
Max retry count : 20
Gap status : Analyzed, Appended

TOC of the extracted CD
Track | Start | Length | Start sector | End sector
---------------------------------------------------------
1 | 00:00:00 | 02:13:71 | 0 | 10045
2 | 02:13:71 | 03:40:25 | 10046 | 26570
3 | 05:54:21 | 03:22:24 | 26571 | 41744
4 | 09:16:45 | 03:22:26 | 41745 | 56920
5 | 12:38:71 | 04:07:12 | 56921 | 75457
6 | 16:46:08 | 03:56:08 | 75458 | 93165
7 | 20:42:16 | 04:11:07 | 93166 | 111997
8 | 24:53:23 | 02:57:09 | 111998 | 125281
9 | 27:50:32 | 03:48:08 | 125282 | 142389
10 | 31:38:40 | 04:01:60 | 142390 | 160524
11 | 35:40:25 | 03:25:31 | 160525 | 175930
12 | 39:05:56 | 04:01:50 | 175931 | 194055
13 | 43:07:31 | 02:56:69 | 194056 | 207324
14 | 46:04:25 | 03:06:18 | 207325 | 221292
15 | 49:10:43 | 04:21:25 | 221293 | 240892
16 | 53:31:68 | 04:55:32 | 240893 | 263049

AccurateRip Summary
Disc not found in AccurateRip DB.

All Tracks
Album gain : -6.30 dB
Peak : 0.989014
Statistics
Read error : 0
Jitter error (maybe fixed) : 0
Retry sector count : 0
Damaged sector count : 0

Track 01
Filename : /Users/admin/WZBC Collection/Big K.R.I.T. - 2012 - Live From The Underground [FLAC]/01 LFU300MA (Intro).flac
Pre-gap length : 00:02:00

Track gain : -6.59 dB
Peak : 0.988647
CRC32 hash (test run) : 823116CA
CRC32 hash : 823116CA
CRC32 hash (skip zero) : CB830C57
AccurateRip signature : B154F42A
->Track not present in AccurateRip database.
Statistics
Read error : 0
Jitter error (maybe fixed) : 0
Retry sector count : 0
Damaged sector count : 0

Track 02
Filename : /Users/admin/WZBC Collection/Big K.R.I.T. - 2012 - Live From The Underground [FLAC]/02 Live From The Underground.flac
Pre-gap length : 00:00:27

Track gain : -5.38 dB
Peak : 0.988617
CRC32 hash (test run) : 35E1775A
CRC32 hash : 35E1775A
CRC32 hash (skip zero) : 2E0F2683
AccurateRip signature : 1DD8935B
->Track not present in AccurateRip database.
Statistics
Read error : 0
Jitter error (maybe fixed) : 0
Retry sector count : 0
Damaged sector count : 0

Track 03
Filename : /Users/admin/WZBC Collection/Big K.R.I.T. - 2012 - Live From The Underground [FLAC]/03 Cool 2 Be Southern.flac

Track gain : -5.87 dB
Peak : 0.988647
CRC32 hash (test run) : 9ED4009B
CRC32 hash : 9ED4009B
CRC32 hash (skip zero) : 18097DF6
AccurateRip signature : 0B5DD8C7
->Track not present in AccurateRip database.
Statistics
Read error : 0
Jitter error (maybe fixed) : 0
Retry sector count : 0
Damaged sector count : 0

Track 04
Filename : /Users/admin/WZBC Collection/Big K.R.I.T. - 2012 - Live From The Underground [FLAC]/04 I Got This.flac

Track gain : -7.85 dB
Peak : 0.988647
CRC32 hash (test run) : 77764B52
CRC32 hash : 77764B52
CRC32 hash (skip zero) : 63E5E8E5
AccurateRip signature : 7D3EA8AD
->Track not present in AccurateRip database.
Statistics
Read error : 0
Jitter error (maybe fixed) : 0
Retry sector count : 0
Damaged sector count : 0

Track 05
Filename : /Users/admin/WZBC Collection/Big K.R.I.T. - 2012 - Live From The Underground [FLAC]/05 Money On The Floor (feat. 8Ball, MJG & 2 Chainz).flac

Track gain : -7.27 dB
Peak : 0.988647
CRC32 hash (test run) : 15988213
CRC32 hash : 15988213
CRC32 hash (skip zero) : 3EFD0C6A
AccurateRip signature : D49F0D03
->Track not present in AccurateRip database.
Statistics
Read error : 0
Jitter error (maybe fixed) : 0
Retry sector count : 0
Damaged sector count : 0

Track 06
Filename : /Users/admin/WZBC Collection/Big K.R.I.T. - 2012 - Live From The Underground [FLAC]/06 What U Mean (feat. Ludacris).flac

Track gain : -5.84 dB
Peak : 0.988647
CRC32 hash (test run) : 9A9EA5D8
CRC32 hash : 9A9EA5D8
CRC32 hash (skip zero) : 7F2CF953
AccurateRip signature : 0BA62690
->Track not present in AccurateRip database.
Statistics
Read error : 0
Jitter error (maybe fixed) : 0
Retry sector count : 0
Damaged sector count : 0

Track 07
Filename : /Users/admin/WZBC Collection/Big K.R.I.T. - 2012 - Live From The Underground [FLAC]/07 My Sub (Pt. 2: The Jackin').flac

Track gain : -5.97 dB
Peak : 0.988647
CRC32 hash (test run) : 91D4BFDF
CRC32 hash : 91D4BFDF
CRC32 hash (skip zero) : 4823DCE5
AccurateRip signature : DE2730A7
->Track not present in AccurateRip database.
Statistics
Read error : 0
Jitter error (maybe fixed) : 0
Retry sector count : 0
Damaged sector count : 0

Track 08
Filename : /Users/admin/WZBC Collection/Big K.R.I.T. - 2012 - Live From The Underground [FLAC]/08 Don't Let Me Down.flac

Track gain : -4.60 dB
Peak : 0.988861
CRC32 hash (test run) : 5CDD5C24
CRC32 hash : 5CDD5C24
CRC32 hash (skip zero) : EBCEAC41
AccurateRip signature : 8F926218
->Track not present in AccurateRip database.
Statistics
Read error : 0
Jitter error (maybe fixed) : 0
Retry sector count : 0
Damaged sector count : 0

Track 09
Filename : /Users/admin/WZBC Collection/Big K.R.I.T. - 2012 - Live From The Underground [FLAC]/09 Porchlight (feat. Anthony Hamilton).flac

Track gain : -7.22 dB
Peak : 0.989014
CRC32 hash (test run) : 6EE8153F
CRC32 hash : 6EE8153F
CRC32 hash (skip zero) : 83DD8366
AccurateRip signature : 94B1DDE7
->Track not present in AccurateRip database.
Statistics
Read error : 0
Jitter error (maybe fixed) : 0
Retry sector count : 0
Damaged sector count : 0

Track 10
Filename : /Users/admin/WZBC Collection/Big K.R.I.T. - 2012 - Live From The Underground [FLAC]/10 Pull Up (feat. Big Sant & Bun B).flac
Pre-gap length : 00:00:06

Track gain : -6.87 dB
Peak : 0.988647
CRC32 hash (test run) : DFDC06DF
CRC32 hash : DFDC06DF
CRC32 hash (skip zero) : F498B205
AccurateRip signature : 90A13EE1
->Track not present in AccurateRip database.
Statistics
Read error : 0
Jitter error (maybe fixed) : 0
Retry sector count : 0
Damaged sector count : 0

Track 11
Filename : /Users/admin/WZBC Collection/Big K.R.I.T. - 2012 - Live From The Underground [FLAC]/11 Yeah Dats Me.flac

Track gain : -6.75 dB
Peak : 0.988647
CRC32 hash (test run) : F34659FA
CRC32 hash : F34659FA
CRC32 hash (skip zero) : 73AE4E52
AccurateRip signature : 4DD0D5A6
->Track not present in AccurateRip database.
Statistics
Read error : 0
Jitter error (maybe fixed) : 0
Retry sector count : 0
Damaged sector count : 0

Track 12
Filename : /Users/admin/WZBC Collection/Big K.R.I.T. - 2012 - Live From The Underground [FLAC]/12 Hydroplaning (feat. Devin the Dude).flac

Track gain : -5.46 dB
Peak : 0.988647
CRC32 hash (test run) : 8BB42814
CRC32 hash : 8BB42814
CRC32 hash (skip zero) : 325106F1
AccurateRip signature : 90B8D3C8
->Track not present in AccurateRip database.
Statistics
Read error : 0
Jitter error (maybe fixed) : 0
Retry sector count : 0
Damaged sector count : 0

Track 13
Filename : /Users/admin/WZBC Collection/Big K.R.I.T. - 2012 - Live From The Underground [FLAC]/13 If I Fall (feat. Melanie Fiona).flac

Track gain : -6.45 dB
Peak : 0.988617
CRC32 hash (test run) : 7C0079C1
CRC32 hash : 7C0079C1
CRC32 hash (skip zero) : 953E536B
AccurateRip signature : CEE39A35
->Track not present in AccurateRip database.
Statistics
Read error : 0
Jitter error (maybe fixed) : 0
Retry sector count : 0
Damaged sector count : 0

Track 14
Filename : /Users/admin/WZBC Collection/Big K.R.I.T. - 2012 - Live From The Underground [FLAC]/14 Rich Dad, Poor Dad.flac

Track gain : -4.34 dB
Peak : 0.988617
CRC32 hash (test run) : 3E7D241F
CRC32 hash : 3E7D241F
CRC32 hash (skip zero) : 10C8FEFD
AccurateRip signature : 750B5FC2
->Track not present in AccurateRip database.
Statistics
Read error : 0
Jitter error (maybe fixed) : 0
Retry sector count : 0
Damaged sector count : 0

Track 15
Filename : /Users/admin/WZBC Collection/Big K.R.I.T. - 2012 - Live From The Underground [FLAC]/15 Praying Man (feat. B.B. King).flac

Track gain : -3.12 dB
Peak : 0.988647
CRC32 hash (test run) : E1FED45F
CRC32 hash : E1FED45F
CRC32 hash (skip zero) : A727156B
AccurateRip signature : 9A8212C2
->Track not present in AccurateRip database.
Statistics
Read error : 0
Jitter error (maybe fixed) : 0
Retry sector count : 0
Damaged sector count : 0

Track 16
Filename : /Users/admin/WZBC Collection/Big K.R.I.T. - 2012 - Live From The Underground [FLAC]/16 Live From The Underground (Reprise) (feat. Ms. Linnie).flac

Track gain : -5.10 dB
Peak : 0.988647
CRC32 hash (test run) : 864E4237
CRC32 hash : 864E4237
CRC32 hash (skip zero) : C73B483F
AccurateRip signature : 06366D95
->Track not present in AccurateRip database.
Statistics
Read error : 0
Jitter error (maybe fixed) : 0
Retry sector count : 0
Damaged sector count : 0

No errors occurred

End of status report
 
TITLE "Live From The Underground"
PERFORMER "Big K.R.I.T."
CATALOG 0602527810942
REM GENRE "Rap"
REM DATE "2012"
REM DISCNUMBER 1
REM TOTALDISCS 1
REM DISCID DA0DB310
REM REPLAYGAIN_ALBUM_GAIN -6.30 dB
REM REPLAYGAIN_ALBUM_PEAK 0.989014
FILE "01 LFU300MA (Intro).flac" WAVE
TRACK 01 AUDIO
TITLE "LFU300MA (Intro)"
SONGWRITER "Justin Scott"
ISRC USUM71204288
REM REPLAYGAIN_TRACK_GAIN -6.59 dB
REM REPLAYGAIN_TRACK_PEAK 0.988647
INDEX 01 00:00:00
TRACK 02 AUDIO
TITLE "Live From The Underground"
SONGWRITER "Justin Scott"
ISRC USUM71204128
REM REPLAYGAIN_TRACK_GAIN -5.38 dB
REM REPLAYGAIN_TRACK_PEAK 0.988617
INDEX 00 02:13:44
FILE "02 Live From The Underground.flac" WAVE
INDEX 01 00:00:00
FILE "03 Cool 2 Be Southern.flac" WAVE
TRACK 03 AUDIO
TITLE "Cool 2 Be Southern"
SONGWRITER "Justin Scott"
ISRC USUM71204167
REM REPLAYGAIN_TRACK_GAIN -5.87 dB
REM REPLAYGAIN_TRACK_PEAK 0.988647
INDEX 01 00:00:00
FILE "04 I Got This.flac" WAVE
TRACK 04 AUDIO
TITLE "I Got This"
SONGWRITER "Willie Hutch"
ISRC USUM71202137
REM REPLAYGAIN_TRACK_GAIN -7.85 dB
REM REPLAYGAIN_TRACK_PEAK 0.988647
INDEX 01 00:00:00
FILE "05 Money On The Floor (feat. 8Ball, MJG & 2 Chainz).flac" WAVE
TRACK 05 AUDIO
TITLE "Money On The Floor (feat. 8Ball, MJG & 2 Chainz)"
SONGWRITER "Marlon Goodwin/Tauheed Epps/Premro Smith"
ISRC USUM71115279
REM REPLAYGAIN_TRACK_GAIN -7.27 dB
REM REPLAYGAIN_TRACK_PEAK 0.988647
INDEX 01 00:00:00
FILE "06 What U Mean (feat. Ludacris).flac" WAVE
TRACK 06 AUDIO
TITLE "What U Mean (feat. Ludacris)"
SONGWRITER "Christopher Bridges"
ISRC USUM71204193
REM REPLAYGAIN_TRACK_GAIN -5.84 dB
REM REPLAYGAIN_TRACK_PEAK 0.988647
INDEX 01 00:00:00
FILE "07 My Sub (Pt. 2: The Jackin').flac" WAVE
TRACK 07 AUDIO
TITLE "My Sub (Pt. 2: The Jackin')"
SONGWRITER "Justin Scott"
ISRC USUM71204195
REM REPLAYGAIN_TRACK_GAIN -5.97 dB
REM REPLAYGAIN_TRACK_PEAK 0.988647
INDEX 01 00:00:00
FILE "08 Don't Let Me Down.flac" WAVE
TRACK 08 AUDIO
TITLE "Don't Let Me Down"
SONGWRITER "Justin Scott"
ISRC USUM71204197
REM REPLAYGAIN_TRACK_GAIN -4.60 dB
REM REPLAYGAIN_TRACK_PEAK 0.988861
INDEX 01 00:00:00
FILE "09 Porchlight (feat. Anthony Hamilton).flac" WAVE
TRACK 09 AUDIO
TITLE "Porchlight (feat. Anthony Hamilton)"
SONGWRITER "Ronald LaPread/Lionel Richie/Anthony Hamilton"
ISRC USUM71204269
REM REPLAYGAIN_TRACK_GAIN -7.22 dB
REM REPLAYGAIN_TRACK_PEAK 0.989014
INDEX 01 00:00:00
TRACK 10 AUDIO
TITLE "Pull Up (feat. Big Sant & Bun B)"
SONGWRITER "Bernard Freeman/Santiaugo Gathright"
ISRC USUM71204272
REM REPLAYGAIN_TRACK_GAIN -6.87 dB
REM REPLAYGAIN_TRACK_PEAK 0.988647
INDEX 00 03:48:02
FILE "10 Pull Up (feat. Big Sant & Bun B).flac" WAVE
INDEX 01 00:00:00
FILE "11 Yeah Dats Me.flac" WAVE
TRACK 11 AUDIO
TITLE "Yeah Dats Me"
SONGWRITER "Bobby Womack"
ISRC USUM71204274
REM REPLAYGAIN_TRACK_GAIN -6.75 dB
REM REPLAYGAIN_TRACK_PEAK 0.988647
INDEX 01 00:00:00
FILE "12 Hydroplaning (feat. Devin the Dude).flac" WAVE
TRACK 12 AUDIO
TITLE "Hydroplaning (feat. Devin the Dude)"
SONGWRITER "Devin Copeland"
ISRC USUM71204276
REM REPLAYGAIN_TRACK_GAIN -5.46 dB
REM REPLAYGAIN_TRACK_PEAK 0.988647
INDEX 01 00:00:00
FILE "13 If I Fall (feat. Melanie Fiona).flac" WAVE
TRACK 13 AUDIO
TITLE "If I Fall (feat. Melanie Fiona)"
SONGWRITER "Justin Scott"
ISRC USUM71204282
REM REPLAYGAIN_TRACK_GAIN -6.45 dB
REM REPLAYGAIN_TRACK_PEAK 0.988617
INDEX 01 00:00:00
FILE "14 Rich Dad, Poor Dad.flac" WAVE
TRACK 14 AUDIO
TITLE "Rich Dad, Poor Dad"
SONGWRITER "Justin Scott"
ISRC USUM71204284
REM REPLAYGAIN_TRACK_GAIN -4.34 dB
REM REPLAYGAIN_TRACK_PEAK 0.988617
INDEX 01 00:00:00
FILE "15 Praying Man (feat. B.B. King).flac" WAVE
TRACK 15 AUDIO
TITLE "Praying Man (feat. B.B. King)"
SONGWRITER "Justin Scott"
ISRC USUM71204286
REM REPLAYGAIN_TRACK_GAIN -3.12 dB
REM REPLAYGAIN_TRACK_PEAK 0.988647
INDEX 01 00:00:00
FILE "16 Live From The Underground (Reprise) (feat. Ms. Linnie).flac" WAVE
TRACK 16 AUDIO
TITLE "Live From The Underground (Reprise) (feat. Ms. Linnie)"
SONGWRITER "Justin Scott"
ISRC USUM71204295
REM REPLAYGAIN_TRACK_GAIN -5.10 dB
REM REPLAYGAIN_TRACK_PEAK 0.988647
INDEX 01 00:00:00

info [Профиль]  [ЛС] 

post 17-Июн-2012 19:22 (спустя 13 дней) [-]0[+]

Топик был перенесен из форума Оформление раздач в форум Зарубежный Rap, Hip-Hop, R'n'B (lossless)

saGambit
 

Raxent

Пол: Пол:Муж

Стаж: 12 лет

Сообщений: 219

Рейтинг

post 17-Июн-2012 19:34 (спустя 13 дней) [-]0[+]

[Цитировать] 

info [Профиль]  [ЛС] 
Показать сообщения:    
Ответить на тему

Текущее время: 27-Май 20:28

Часовой пояс: GMT + 4



Вы не можете начинать темы
Вы не можете отвечать на сообщения
Вы не можете редактировать свои сообщения
Вы не можете удалять свои сообщения
Вы не можете голосовать в опросах
Вы не можете прикреплять файлы к сообщениям
Вы не можете скачивать файлы