Ошибка

(Trance) VA - A State Of Trance 550 (5CD) (Armada Music [ARMA325]) - 2012, FLAC (image+.cue), lossless

Ответить на тему
 
Автор Сообщение

xPh0enixx

Пол: Пол:Муж

Стаж: 11 лет

Сообщений: 1696

США
Рейтинг

post 17-Апр-2012 16:28 1[+]

[Цитировать] 

VA - A State Of Trance 550 (5CD)


pic="http://s019.radikal.ru/i613/1204/d8/27921a5bef69.jpg"



Жанр: Trance
Год издания данного носителя: 2012
Страна-производитель носителя: NL
Лейбл: Armada Music
Каталоговый номер: ARMA325
Аудио кодек: FLAC
Тип рипа: image+.cue
Битрейт аудио: lossless
Продолжительность: 06:22:28
Источник (релизер): usenet (ASOTKiNG)
Полиграфия: Отсутствует
  • 01. John O'Callaghan feat. Audrey Gallagher - Big Sky (Armin van Buuren's Intro Edit) [6:13]
  • 02. Accadia - Into The Dawn (James Holden Remix) [5:58]
  • 03. The Blizzard - Kalopsia [3:53]
  • 04. Solarstone - Seven Cities (Armin van Buuren Remix) [7:21]
  • 05. DJ Eremit - Tanz Der Seele (YOMC Club Mix) [4:09]
  • 06. Gouryella - Ligaya [5:00]
  • 07. Airbase - Escape [5:04]
  • 08. Gaia - 4 Elements [6:49]
  • 09. Active Sight - Out Of Our Lives [4:56]
  • 10. The Thrillseekers - Synaesthesia [4:00]
  • 11. Sean Tyas - Lift [3:16]
  • 12. John O'Callaghan - Broken [2:20]
  • 13. Andy Ling - Fixation [2:48]
  • 14. Questia - Nexus Asia (Vincent de Moor Original Mix) [4:03]
  • 15. Rank 1 - Awakening [4:03]
  • 16. W&W - Invasion (ASOT 550 Anthem) (Club Mix) [3:44]
  • 01. Dash Berlin - Till The Sky Falls Down (Live At ASOT 500 4AM Intro Mix) [3:24]
  • 02. Dash Berlin feat. Jonathan Mendelsohn - World Falls Apart (Club Mix) [6:12]
  • 03. First State feat. Sarah Howells - Reverie (Dash Berlin Remix) [7:10]
  • 04. Dash Berlin feat. Jonathan Mendelsohn - Better Half Of Me (Shogun Remix) [6:02]
  • 05. Filo & Peri feat. Audrey Gallagher - This Night (Dash Berlin Remix) [4:59]
  • 06. Lange pres. Firewall - Touched (Dash Berlin's Sense Of Touch Remix) [4:54]
  • 07. Dash Berlin feat. Emma Hewitt - Waiting (Sean Tyas Remix) [5:35]
  • 08. Planet Perfecto Knights - Resurection (Paul Oakenfold Full On Fluoro Mix) [6:54]
  • 09. Luke Bond feat. Emel - Amaze [5:59]
  • 10. RAM - RAMsterdam (Jorn van Deynhoven Remix) [3:00]
  • 11. Dash Berlin with Cerf, Mitiska & Jaren - Man On The Run [3:27]
  • 12. Fix To Fax - Meridian [3:55]
  • 13. Coast 2 Coast feat. Discovery - Home [2:34]
  • 14. Vincent de Moor - Flowtation [4:57]
  • 15. Rank 1 - Airwave (Rank 1 vs. Dutch Force Mix) [5:38]
  • 01. Ridgewalkers feat. El - Find (Andy Moor Remix) [5:03]
  • 02. Pulser - My Religion [4:17]
  • 03. St. John vs. Locust - Mind Circles [6:10]
  • 04. Terry Bones vs. Fred Baker pres. Water Planet - Introspection (John Askew Remix) [6:05]
  • 05. John O'Callaghan & Heatbeat - Las Lilas [7:03]
  • 06. John Askew - Mood Swing [4:39]
  • 07. Octagen & Arizona - Starburst [6:15]
  • 08. Jose Amnesia vs. Serp - Second Day (Martin Roth Remix) [6:41]
  • 09. Dark Matters feat. Jess Morgan - The Real You (Jorn van Deynhoven Remix) [6:19]
  • 10. Magnus - Velvet (John O'Callaghan Remix) [4:21]
  • 11. Gareth Emery feat. Christina Novelli - Concrete Angel (John O'Callaghan Remix) [6:16]
  • 12. Joint Operations Centre - Glyph [4:33]
  • 13. John O'Callaghan feat. Lo-Fi Sugar - Never Fade Away (Giuseppe Ottaviani Remix) [5:26]
  • 14. RAM - RAMsterdam (Jorn van Deynhoven Remix) [4:50]
  • 01. Mat Zo & Arty - Mozart [6:08]
  • 02. Arty - Around The World [6:25]
  • 03. Arty - Zara [5:51][/color]
  • 04. D-Mad - She Gave Happiness (Arty Remix) [4:36]
  • 05. Kyau & Albert - Are You Fine? (Arty Remix) [6:00]
  • 06. Arty & Mat Zo - Rebound [5:42]
  • 07. Alpha 9 - Bliss (Club Mix) [5:41]
  • 08. Sneijder - Away From Here (Arty Remix) [5:18]
  • 09. Arty - Twilight Tonight (Arty Remode) [6:36]
  • 10. Reverse - Absolute Reality (Arty Remix) [4:40]
  • 11. Tilt - The World Doesn't Know (Arty Remix) [4:51]
  • 12. Arty feat. Tania Zygar - The Wall (Arty Remode Mix) [5:10]
  • 13. Ferry Corsten - Punk (Arty Rock-n-Rolla Mix) [4:51]
  • 14. Arty - Kate [5:22]
  • 01. Solarstone vs. Scott Bond - 3rd Earth (Marco V Remix) (Orjan Nilsen's Intro Mix) [5:51]
  • 02. Holden & Thompson - Nothing (93 Returning Mix) [5:41]
  • 03. King Unique - Sugarhigh [4:16]
  • 04. DJ Governor - Red Woods [5:13]
  • 05. Accessive Rhythm - Activate [5:27]
  • 06. Rising Star - Clear Blue Moon [6:20]
  • 07. Midway - Amazon [4:30]
  • 08. Orjan - Prison Break [4:59]
  • 09. Orion - Gobstice [6:09]
  • 10. Jonas Steur - Castamara [5:27]
  • 11. Orjan - Arctic Globe [5:02]
  • 12. Bart Claessen - Playmo (1st Play) [4:20]
  • 13. Marco V - Tolerance [4:44]
  • 14. Mark Norman - Stream [5:27]
  • 15. Armin van Buuren & Orjan Nilsen - Belter [5:35]
Exact Audio Copy V0.99 prebeta 5 from 4. May 2009 

EAC extraction logfile from 4. April 2012, 16:44

VA / A State Of Trance 550 (Mixed By Armin van Buuren) CD1

Used drive : TSSTcorpCDDVDW SE-S084F Adapter: 2 ID: 0

Read mode : Secure
Utilize accurate stream : Yes
Defeat audio cache : Yes
Make use of C2 pointers : No

Read offset correction : 6
Overread into Lead-In and Lead-Out : No
Fill up missing offset samples with silence : Yes
Delete leading and trailing silent blocks : No
Null samples used in CRC calculations : Yes
Used interface : Native Win32 interface for Win NT & 2000

Used output format : Internal WAV Routines
Sample format : 44.100 Hz; 16 Bit; Stereo

TOC of the extracted CD

Track | Start | Length | Start sector | End sector
---------------------------------------------------------
1 | 0:00.00 | 6:12.58 | 0 | 27957
2 | 6:12.58 | 5:58.15 | 27958 | 54822
3 | 12:10.73 | 3:52.63 | 54823 | 72285
4 | 16:03.61 | 7:21.00 | 72286 | 105360
5 | 23:24.61 | 4:08.67 | 105361 | 124027
6 | 27:33.53 | 5:00.15 | 124028 | 146542
7 | 32:33.68 | 5:03.40 | 146543 | 169307
8 | 37:37.33 | 6:49.30 | 169308 | 200012
9 | 44:26.63 | 4:56.36 | 200013 | 222248
10 | 49:23.24 | 4:00.00 | 222249 | 240248
11 | 53:23.24 | 3:16.15 | 240249 | 254963
12 | 56:39.39 | 2:20.29 | 254964 | 265492
13 | 58:59.68 | 2:47.68 | 265493 | 278085
14 | 61:47.61 | 4:03.36 | 278086 | 296346
15 | 65:51.22 | 4:03.34 | 296347 | 314605
16 | 69:54.56 | 3:43.43 | 314606 | 331373

Range status and errors

Selected range

Filename J:VA - A State Of Trance 550 (Mixed By Armin van Buuren) CD1.wav

Peak level 96.6 %
Range quality 100.0 %
Test CRC 6079DA59
Copy CRC 6079DA59
Copy OK

No errors occurred

End of status report
Exact Audio Copy V0.99 prebeta 5 from 4. May 2009 

EAC extraction logfile from 4. April 2012, 17:38

VA / A State Of Trance 550 (Mixed By Dash Berlin) CD 2

Used drive : TSSTcorpCDDVDW SE-S084F Adapter: 2 ID: 0

Read mode : Secure
Utilize accurate stream : Yes
Defeat audio cache : Yes
Make use of C2 pointers : No

Read offset correction : 6
Overread into Lead-In and Lead-Out : No
Fill up missing offset samples with silence : Yes
Delete leading and trailing silent blocks : No
Null samples used in CRC calculations : Yes
Used interface : Native Win32 interface for Win NT & 2000

Used output format : Internal WAV Routines
Sample format : 44.100 Hz; 16 Bit; Stereo

TOC of the extracted CD

Track | Start | Length | Start sector | End sector
---------------------------------------------------------
1 | 0:00.00 | 3:23.73 | 0 | 15297
2 | 3:23.73 | 6:12.37 | 15298 | 43234
3 | 9:36.35 | 7:09.61 | 43235 | 75470
4 | 16:46.21 | 6:01.57 | 75471 | 102602
5 | 22:48.03 | 4:58.49 | 102603 | 125001
6 | 27:46.52 | 4:53.63 | 125002 | 147039
7 | 32:40.40 | 5:34.64 | 147040 | 172153
8 | 38:15.29 | 6:54.18 | 172154 | 203221
9 | 45:09.47 | 5:59.00 | 203222 | 230146
10 | 51:08.47 | 2:59.38 | 230147 | 243609
11 | 54:08.10 | 3:27.09 | 243610 | 259143
12 | 57:35.19 | 3:54.55 | 259144 | 276748
13 | 61:29.74 | 2:33.46 | 276749 | 288269
14 | 64:03.45 | 4:56.65 | 288270 | 310534
15 | 69:00.35 | 5:38.01 | 310535 | 335885

Range status and errors

Selected range

Filename J:\VA - A State Of Trance 550 (Mixed By Dash Berlin) CD2.wav

Peak level 100.0 %
Range quality 100.0 %
Test CRC 7138ADDE
Copy CRC 7138ADDE
Copy OK

No errors occurred

End of status report
Exact Audio Copy V0.99 prebeta 5 from 4. May 2009 

EAC extraction logfile from 4. April 2012, 18:32

VA / A State Of Trance 550 (Mixed By John O'Callaghan) CD 3

Used drive : TSSTcorpCDDVDW SE-S084F Adapter: 2 ID: 0

Read mode : Secure
Utilize accurate stream : Yes
Defeat audio cache : Yes
Make use of C2 pointers : No

Read offset correction : 6
Overread into Lead-In and Lead-Out : No
Fill up missing offset samples with silence : Yes
Delete leading and trailing silent blocks : No
Null samples used in CRC calculations : Yes
Used interface : Native Win32 interface for Win NT & 2000

Used output format : Internal WAV Routines
Sample format : 44.100 Hz; 16 Bit; Stereo

TOC of the extracted CD

Track | Start | Length | Start sector | End sector
---------------------------------------------------------
1 | 0:00.00 | 5:02.40 | 0 | 22689
2 | 5:02.40 | 4:16.73 | 22690 | 41962
3 | 9:19.38 | 6:09.68 | 41963 | 69705
4 | 15:29.31 | 6:05.09 | 69706 | 97089
5 | 21:34.40 | 7:03.02 | 97090 | 128816
6 | 28:37.42 | 4:38.52 | 128817 | 149718
7 | 33:16.19 | 6:14.73 | 149719 | 177841
8 | 39:31.17 | 6:41.13 | 177842 | 207929
9 | 46:12.30 | 6:18.71 | 207930 | 236350
10 | 52:31.26 | 4:20.71 | 236351 | 255921
11 | 56:52.22 | 6:16.36 | 255922 | 284157
12 | 63:08.58 | 4:32.68 | 284158 | 304625
13 | 67:41.51 | 5:26.37 | 304626 | 329112
14 | 73:08.13 | 4:50.32 | 329113 | 350894

Range status and errors

Selected range

Filename J:\VA - A State Of Trance 550 (Mixed By John O'Callaghan) CD3.wav

Peak level 99.5 %
Range quality 100.0 %
Test CRC 39962D0C
Copy CRC 39962D0C
Copy OK

No errors occurred

End of status report
Exact Audio Copy V0.99 prebeta 5 from 4. May 2009 

EAC extraction logfile from 4. April 2012, 19:25

VA / A State Of Trance 550 (Mixed By Arty) CD 4

Used drive : TSSTcorpCDDVDW SE-S084F Adapter: 2 ID: 0

Read mode : Secure
Utilize accurate stream : Yes
Defeat audio cache : Yes
Make use of C2 pointers : No

Read offset correction : 6
Overread into Lead-In and Lead-Out : No
Fill up missing offset samples with silence : Yes
Delete leading and trailing silent blocks : No
Null samples used in CRC calculations : Yes
Used interface : Native Win32 interface for Win NT & 2000

Used output format : Internal WAV Routines
Sample format : 44.100 Hz; 16 Bit; Stereo

TOC of the extracted CD

Track | Start | Length | Start sector | End sector
---------------------------------------------------------
1 | 0:00.00 | 6:07.58 | 0 | 27582
2 | 6:07.58 | 6:25.32 | 27583 | 56489
3 | 12:33.15 | 5:50.65 | 56490 | 82804
4 | 18:24.05 | 4:36.27 | 82805 | 103531
5 | 23:00.32 | 5:59.57 | 103532 | 130513
6 | 29:00.14 | 5:41.62 | 130514 | 156150
7 | 34:42.01 | 5:41.21 | 156151 | 181746
8 | 40:23.22 | 5:17.61 | 181747 | 205582
9 | 45:41.08 | 6:36.32 | 205583 | 235314
10 | 52:17.40 | 4:39.71 | 235315 | 256310
11 | 56:57.36 | 4:50.71 | 256311 | 278131
12 | 61:48.32 | 5:10.12 | 278132 | 301393
13 | 66:58.44 | 4:51.18 | 301394 | 323236
14 | 71:49.62 | 5:21.46 | 323237 | 347357

Range status and errors

Selected range

Filename J:\VA - A State Of Trance 550 (Mixed By Arty) CD 4.wav

Peak level 99.7 %
Range quality 100.0 %
Test CRC 18A1DBF0
Copy CRC 18A1DBF0
Copy OK

No errors occurred

End of status report
Exact Audio Copy V0.99 prebeta 5 from 4. May 2009 

EAC extraction logfile from 4. April 2012, 20:22

VA / A State Of Trance 550 (Mixed By Orjan Nilsen) CD 5

Used drive : TSSTcorpCDDVDW SE-S084F Adapter: 2 ID: 0

Read mode : Secure
Utilize accurate stream : Yes
Defeat audio cache : Yes
Make use of C2 pointers : No

Read offset correction : 6
Overread into Lead-In and Lead-Out : No
Fill up missing offset samples with silence : Yes
Delete leading and trailing silent blocks : No
Null samples used in CRC calculations : Yes
Used interface : Native Win32 interface for Win NT & 2000

Used output format : Internal WAV Routines
Sample format : 44.100 Hz; 16 Bit; Stereo

TOC of the extracted CD

Track | Start | Length | Start sector | End sector
---------------------------------------------------------
1 | 0:00.00 | 5:50.59 | 0 | 26308
2 | 5:50.59 | 5:41.24 | 26309 | 51907
3 | 11:32.08 | 4:16.00 | 51908 | 71107
4 | 15:48.08 | 5:12.67 | 71108 | 94574
5 | 21:01.00 | 5:27.07 | 94575 | 119106
6 | 26:28.07 | 6:20.32 | 119107 | 147638
7 | 32:48.39 | 4:30.17 | 147639 | 167905
8 | 37:18.56 | 4:58.49 | 167906 | 190304
9 | 42:17.30 | 6:08.65 | 190305 | 217969
10 | 48:26.20 | 5:27.05 | 217970 | 242499
11 | 53:53.25 | 5:02.14 | 242500 | 265163
12 | 58:55.39 | 4:19.41 | 265164 | 284629
13 | 63:15.05 | 4:44.33 | 284630 | 305962
14 | 67:59.38 | 5:27.08 | 305963 | 330495
15 | 73:26.46 | 5:35.20 | 330496 | 355640

Range status and errors

Selected range

Filename J:\VA - A State Of Trance 550 (Mixed By Orjan Nilsen) CD 5.wav

Peak level 99.3 %
Range quality 99.9 %
Test CRC A2FBAD10
Copy CRC A2FBAD10
Copy OK

No errors occurred

End of status report
PERFORMER "VA" 
TITLE "A State Of Trance 550 CD1 (Mixed By Armin van Buuren)"
FILE "101-va_-_a_state_of_trance_550_cd1_(mixed_by_armin_van_buuren)-tt.flac" WAVE
TRACK 01 AUDIO
TITLE "Big Sky (Armin van Buuren's Intro Edit)"
PERFORMER "John O'Callaghan feat. Audrey Gallagher"
REM DATE 2012
INDEX 01 00:00:00
TRACK 02 AUDIO
TITLE "Into The Dawn (James Holden Remix)"
PERFORMER "Accadia"
INDEX 01 06:12:58
TRACK 03 AUDIO
TITLE "Kalopsia"
PERFORMER "The Blizzard"
INDEX 01 12:10:73
TRACK 04 AUDIO
TITLE "Seven Cities (Armin van Buuren Remix)"
PERFORMER "Solarstone"
INDEX 01 16:03:61
TRACK 05 AUDIO
TITLE "Tanz Der Seele (YOMC Club Mix)"
PERFORMER "DJ Eremit"
INDEX 01 23:24:61
TRACK 06 AUDIO
TITLE "Ligaya"
PERFORMER "Gouryella"
INDEX 01 27:33:53
TRACK 07 AUDIO
TITLE "Escape"
PERFORMER "Airbase"
INDEX 01 32:33:68
TRACK 08 AUDIO
TITLE "4 Elements"
PERFORMER "Gaia"
INDEX 01 37:37:33
TRACK 09 AUDIO
TITLE "Out Of Our Lives"
PERFORMER "Active Sight"
INDEX 01 44:26:63
TRACK 10 AUDIO
TITLE "Synaesthesia"
PERFORMER "The Thrillseekers"
INDEX 01 49:23:24
TRACK 11 AUDIO
TITLE "Lift"
PERFORMER "Sean Tyas"
INDEX 01 53:23:24
TRACK 12 AUDIO
TITLE "Broken"
PERFORMER "John O'Callaghan"
INDEX 01 56:39:39
TRACK 13 AUDIO
TITLE "Fixation"
PERFORMER "Andy Ling"
INDEX 01 58:59:68
TRACK 14 AUDIO
TITLE "Nexus Asia (Vincent de Moor Original Mix)"
PERFORMER "Questia"
REM DATE 2012
INDEX 01 61:47:61
TRACK 15 AUDIO
TITLE "Awakening"
PERFORMER "Rank 1"
INDEX 01 65:51:22
TRACK 16 AUDIO
TITLE "Invasion (ASOT 550 Anthem) (Club Mix)"
PERFORMER "W&W"
INDEX 01 69:54:56
 
REM GENRE Trance
REM DATE 2012
REM COMMENT .:TranceTraffic:.
PERFORMER "VA"
TITLE "A State Of Trance 550 CD2 (Mixed By Dash Berlin)"
FILE "201-va_-_a_state_of_trance_550_cd2_(mixed_by_dash_berlin)-tt.flac" WAVE
TRACK 01 AUDIO
TITLE "Till The Sky Falls Down (Live At ASOT 500 4AM Intro Mix)"
PERFORMER "Dash Berlin"
INDEX 01 00:00:00
TRACK 02 AUDIO
TITLE "World Falls Apart (Club Mix)"
PERFORMER "Dash Berlin feat. Jonathan Mendelsohn"
INDEX 01 03:23:73
TRACK 03 AUDIO
TITLE "Reverie (Dash Berlin Remix)"
PERFORMER "First State feat. Sarah Howells"
INDEX 01 09:36:35
TRACK 04 AUDIO
TITLE "Better Half Of Me (Shogun Remix)"
PERFORMER "Dash Berlin feat. Jonathan Mendelsohn"
INDEX 01 16:46:21
TRACK 05 AUDIO
TITLE "This Night (Dash Berlin Remix)"
PERFORMER "Filo & Peri feat. Audrey Gallagher"
INDEX 01 22:48:03
TRACK 06 AUDIO
TITLE "Touched (Dash Berlin's Sense Of Touch Remix)"
PERFORMER "Lange pres. Firewall"
INDEX 01 27:46:52
TRACK 07 AUDIO
TITLE "Waiting (Sean Tyas Remix)"
PERFORMER "Dash Berlin feat. Emma Hewitt"
INDEX 01 32:40:40
TRACK 08 AUDIO
TITLE "Resurection (Paul Oakenfold Full On Fluoro Mix)"
PERFORMER "Planet Perfecto Knights"
INDEX 01 38:15:29
TRACK 09 AUDIO
TITLE "Amaze"
PERFORMER "Luke Bond feat. Emel"
INDEX 01 45:09:47
TRACK 10 AUDIO
TITLE "RAMsterdam (Jorn van Deynhoven Remix)"
PERFORMER "RAM"
INDEX 01 51:08:47
TRACK 11 AUDIO
TITLE "Man On The Run"
PERFORMER "Dash Berlin with Cerf, Mitiska & Jaren"
INDEX 01 54:08:10
TRACK 12 AUDIO
TITLE "Meridian"
PERFORMER "Fix To Fax"
INDEX 01 57:35:19
TRACK 13 AUDIO
TITLE "Home"
PERFORMER "Coast 2 Coast feat. Discovery"
INDEX 01 61:29:74
TRACK 14 AUDIO
TITLE "Flowtation"
PERFORMER "Vincent de Moor"
INDEX 01 64:03:45
TRACK 15 AUDIO
TITLE "Airwave (Rank 1 vs. Dutch Force Mix)"
PERFORMER "Rank 1"
INDEX 01 69:00:35

 
REM GENRE Trance
REM DATE 2012
REM COMMENT .:TranceTraffic:.
PERFORMER "VA"
TITLE "A State Of Trance 550 CD3 (Mixed By John O'Callaghan)"
FILE "301-va_-_a_state_of_trance_550_cd3_(mixed_by_john_o_callaghan)-tt.flac" WAVE
TRACK 01 AUDIO
TITLE "Find (Andy Moor Remix)"
PERFORMER "Ridgewalkers feat. El"
INDEX 01 00:00:00
TRACK 02 AUDIO
TITLE "My Religion"
PERFORMER "Pulser"
INDEX 01 05:02:40
TRACK 03 AUDIO
TITLE "Mind Circles"
PERFORMER "St. John vs. Locust"
INDEX 01 09:19:38
TRACK 04 AUDIO
TITLE "Introspection (John Askew Remix)"
PERFORMER "Terry Bones vs. Fred Baker pres. Water Planet"
INDEX 01 15:29:31
TRACK 05 AUDIO
TITLE "Las Lilas"
PERFORMER "John O'Callaghan & Heatbeat"
INDEX 01 21:34:40
TRACK 06 AUDIO
TITLE "Mood Swing"
PERFORMER "John Askew"
INDEX 01 28:37:42
TRACK 07 AUDIO
TITLE "Starburst"
PERFORMER "Octagen & Arizona"
INDEX 01 33:16:19
TRACK 08 AUDIO
TITLE "Second Day (Martin Roth Remix)"
PERFORMER "Jose Amnesia vs. Serp"
INDEX 01 39:31:17
TRACK 09 AUDIO
TITLE "The Real You (Jorn van Deynhoven Remix)"
PERFORMER "Dark Matters feat. Jess Morgan"
INDEX 01 46:12:30
TRACK 10 AUDIO
TITLE "Velvet (John O'Callaghan Remix)"
PERFORMER "Magnus"
INDEX 01 52:31:26
TRACK 11 AUDIO
TITLE "Concrete Angel (John O'Callaghan Remix)"
PERFORMER "Gareth Emery feat. Christina Novelli"
INDEX 01 56:52:22
TRACK 12 AUDIO
TITLE "Glyph"
PERFORMER "Joint Operations Centre"
INDEX 01 63:08:58
TRACK 13 AUDIO
TITLE "Never Fade Away (Giuseppe Ottaviani Remix)"
PERFORMER "John O'Callaghan feat. Lo-Fi Sugar"
INDEX 01 67:41:51
TRACK 14 AUDIO
TITLE "RAMsterdam (Jorn van Deynhoven Remix)"
PERFORMER "RAM"
INDEX 01 73:08:13

 
PERFORMER "VA"
TITLE "A State Of Trance 550 CD4 (Mixed By Arty)"
FILE "401-va_-_a_state_of_trance_550_cd4_(mixed_by_arty)-tt.flac" WAVE
TRACK 01 AUDIO
TITLE "Mozart"
PERFORMER "Mat Zo & Arty"
INDEX 01 00:00:00
TRACK 02 AUDIO
TITLE "Around The World"
PERFORMER "Arty"
INDEX 01 06:07:58
TRACK 03 AUDIO
TITLE "Zara"
PERFORMER "Arty"
INDEX 01 12:33:15
TRACK 04 AUDIO
TITLE "She Gave Happiness (Arty Remix)"
PERFORMER "D-Mad"
INDEX 01 18:24:05
TRACK 05 AUDIO
TITLE "Are You Fine? (Arty Remix)"
PERFORMER "Kyau & Albert"
INDEX 01 23:00:32
TRACK 06 AUDIO
TITLE "Rebound"
PERFORMER "Arty & Mat Zo"
INDEX 01 29:00:14
TRACK 07 AUDIO
TITLE "Bliss (Club Mix)"
PERFORMER "Alpha 9"
INDEX 01 34:42:01
TRACK 08 AUDIO
TITLE "Away From Here (Arty Remix)"
PERFORMER "Sneijder"
INDEX 01 40:23:22
TRACK 09 AUDIO
TITLE "Twilight Tonight (Arty Remode)"
PERFORMER "Arty"
INDEX 01 45:41:08
TRACK 10 AUDIO
TITLE "Absolute Reality (Arty Remix)"
PERFORMER "Reverse"
INDEX 01 52:17:40
TRACK 11 AUDIO
TITLE "The World Doesn't Know (Arty Remix)"
PERFORMER "Tilt"
INDEX 01 56:57:36
TRACK 12 AUDIO
TITLE "The Wall (Arty Remode Mix)"
PERFORMER "Arty feat. Tania Zygar"
REM DATE 2012
INDEX 01 61:48:32
TRACK 13 AUDIO
TITLE "Punk (Arty Rock-n-Rolla Mix)"
PERFORMER "Ferry Corsten"
INDEX 01 66:58:44
TRACK 14 AUDIO
TITLE "Kate"
PERFORMER "Arty"
INDEX 01 71:49:62

 
PERFORMER "VA"
TITLE "A State Of Trance 550 CD5 (Mixed By Orjan Nilsen)"
FILE "501-va_-_a_state_of_trance_550_cd5_(mixed_by_orjan_nilsen)-tt.flac" WAVE
TRACK 01 AUDIO
TITLE "3rd Earth (Marco V Remix) (Orjan Nilsen's Intro Mix)"
PERFORMER "Solarstone vs. Scott Bond"
REM DATE 2012
INDEX 01 00:00:00
TRACK 02 AUDIO
TITLE "Nothing (93 Returning Mix)"
PERFORMER "Holden & Thompson"
INDEX 01 05:50:59
TRACK 03 AUDIO
TITLE "Sugarhigh"
PERFORMER "King Unique"
INDEX 01 11:32:08
TRACK 04 AUDIO
TITLE "Red Woods"
PERFORMER "DJ Governor"
INDEX 01 15:48:08
TRACK 05 AUDIO
TITLE "Activate"
PERFORMER "Accessive Rhythm"
INDEX 01 21:01:00
TRACK 06 AUDIO
TITLE "Clear Blue Moon"
PERFORMER "Rising Star"
INDEX 01 26:28:07
TRACK 07 AUDIO
TITLE "Amazon"
PERFORMER "Midway"
INDEX 01 32:48:39
TRACK 08 AUDIO
TITLE "Prison Break"
PERFORMER "Orjan"
INDEX 01 37:18:56
TRACK 09 AUDIO
TITLE "Gobstice"
PERFORMER "Orion"
INDEX 01 42:17:30
TRACK 10 AUDIO
TITLE "Castamara"
PERFORMER "Jonas Steur"
INDEX 01 48:26:20
TRACK 11 AUDIO
TITLE "Arctic Globe"
PERFORMER "Orjan"
INDEX 01 53:53:25
TRACK 12 AUDIO
TITLE "Playmo (1st Play)"
PERFORMER "Bart Claessen"
INDEX 01 58:55:39
TRACK 13 AUDIO
TITLE "Tolerance"
PERFORMER "Marco V"
INDEX 01 63:15:05
TRACK 14 AUDIO
TITLE "Stream"
PERFORMER "Mark Norman"
INDEX 01 67:59:38
TRACK 15 AUDIO
TITLE "Belter"
PERFORMER "Armin van Buuren & Orjan Nilsen"
INDEX 01 73:26:46

info [Профиль]  [ЛС] 

Snake_333

Пол: Пол:Муж

Стаж: 12 лет

Сообщений: 44

Россия
Рейтинг

post 24-Апр-2012 19:27 (спустя 7 дней) [-]0[+]

[Цитировать] 

ну раздайте чтоли
info [Профиль]  [ЛС] 

KEHTIK

Пол: Пол:Муж

Стаж: 10 лет

Сообщений: 28

Украина
Рейтинг

post 26-Май-2012 17:50 (спустя 1 месяц 1 день) [-]0[+]

[Цитировать] 

скорости бы kolob_177

_________________
info [Профиль]  [ЛС] 

dewyatine

Пол: Пол:Муж

Стаж: 10 лет

Сообщений: 40

Украина
Рейтинг

post 11-Июн-2012 20:27 (спустя 16 дней) [-]1[+]

[Цитировать] 

info [Профиль]  [ЛС] 

stickymurderer

Стаж: 12 лет

Сообщений: 97

Рейтинг

post 23-Июн-2012 16:55 (спустя 11 дней) [-]0[+]

[Цитировать] 

Эх, жаль скорости нету Грущу
info [Профиль]  [ЛС] 
Показать сообщения:    
Ответить на тему

Текущее время: 19-Май 23:15

Часовой пояс: GMT + 4



Вы не можете начинать темы
Вы не можете отвечать на сообщения
Вы не можете редактировать свои сообщения
Вы не можете удалять свои сообщения
Вы не можете голосовать в опросах
Вы не можете прикреплять файлы к сообщениям
Вы не можете скачивать файлы