Ошибка

(Pop-Rock) Roxette - Travelling - 2012, FLAC (tracks+.cue)+cover, lossless

Ответить на тему
 
Автор Сообщение

kossmos

Пол: Пол:Муж

Стаж: 11 лет

Сообщений: 269

Украина
Рейтинг

post 26-Мар-2012 00:03 0[+]

[Цитировать] 

Roxette - Travelling


pic="http://s002.youpic.su/pictures/1332622800/535760997628236eef377c400309f981.jpg"


Жанр: Pop-Rock
Год издания данного носителя: 2012
Лейбл: EMI
Аудио кодек: FLAC
Тип рипа: tracks+.cue
Битрейт аудио: lossless
Продолжительность: 00:54:44
Источник (релизер): What.CD (yourservice)
Полиграфия: Присутствует

Треклист:
01. Me & You & Terry & Julie (3:46)
02. Lover Lover Lover (4:00)
03. Turn of the Tide (4:11)
04. Touched by the Hand of God (3:48)
05. Easy Way Out (3:38)
06. It's Possible (Version One) (2:38)
07. Perfect Excuse (3:41)
08. Excuse Me, Sir, Do You Want Me to Check on Your Wife (4:15)
09. Angel Passing (2:47)
10. Stars (3:36)
11. The Weight of the World (2:52)
12. She's Got Nothing on (But the Radio) (4:41)
13. See Me (3:49)
14. It's Possible (Version Two) (2:45)
15. It Must Have Been Love (4:18)
Exact Audio Copy V1.0 beta 3 from 29. August 2011 

EAC uitlezen log bestand van 25. Maart 2012, 12:30

Roxette / Travelling

gebruikt loopwerk : PIONEER DVD-RW DVR-218L Adapter: 3 ID: 0

Lees mode : : Veilig
Gebruik accurate stream : Ja
Audio buffer uitgeschakeld : Neen
Maak gebruik van C2 pointers : Ja

Lees-offset correctie : : 6
Overlees in Lead-In en Lead-Out : Neen
Vul ontbrekende offset samples met stiltes aan : Ja
Wis stilte blokken aan het begin en einde : Neen
Nul samples gebruikt in CRC berekeningen : Ja
Gebruikte interface : Native Win32 interface voor Win NT & 2000

Gebruik uitgave formaat : : Interne WAV Routines
Sample formaat : 44.100 Hz; 16 Bit; Stereo

TOC van de uitgelezen CD

Track | Start | Lengte | Start sector | Eind sector
----------------------------------------------------------
1 | 0:00.00 | 3:45.48 | 0 | 16922
2 | 3:45.48 | 3:59.56 | 16923 | 34903
3 | 7:45.29 | 4:10.64 | 34904 | 53717
4 | 11:56.18 | 3:48.20 | 53718 | 70837
5 | 15:44.38 | 3:38.23 | 70838 | 87210
6 | 19:22.61 | 2:38.30 | 87211 | 99090
7 | 22:01.16 | 3:40.45 | 99091 | 115635
8 | 25:41.61 | 4:15.33 | 115636 | 134793
9 | 29:57.19 | 2:46.73 | 134794 | 147316
10 | 32:44.17 | 3:35.44 | 147317 | 163485
11 | 36:19.61 | 2:52.29 | 163486 | 176414
12 | 39:12.15 | 4:41.28 | 176415 | 197517
13 | 43:53.43 | 3:48.67 | 197518 | 214684
14 | 47:42.35 | 2:44.41 | 214685 | 227025
15 | 50:27.01 | 4:17.42 | 227026 | 246342

Bereikstatus en fouten

Geselecteerd bereik

Bestands naam C:POST 2Roxette - Travelling (EAC)Roxette - Travelling.wav

Piek niveau 100.0 %
Uitlees snelheid 5.5 X
Bereikskwaliteit 100.0 %
Kopie CRC C0B5463B
Kopie OK

Geen fouten opgetreden

AccurateRip samenvatting
Track 1 niet aanwezig in database
Track 2 niet aanwezig in database
Track 3 niet aanwezig in database
Track 4 niet aanwezig in database
Track 5 niet aanwezig in database
Track 6 niet aanwezig in database
Track 7 niet aanwezig in database
Track 8 niet aanwezig in database
Track 9 niet aanwezig in database
Track 10 niet aanwezig in database
Track 11 niet aanwezig in database
Track 12 niet aanwezig in database
Track 13 niet aanwezig in database
Track 14 niet aanwezig in database
Track 15 niet aanwezig in database
Geen enkele Track aanwezig in AccurateRip database

Einde status report
PERFORMER "Roxette" 
TITLE "Travelling"
FILE "01 Me & You & Terry & Julie.flac" WAVE
TRACK 01 AUDIO
TITLE "Me & You & Terry & Julie"
PERFORMER "Roxette"
INDEX 01 00:00:00
FILE "02 Lover Lover Lover.flac" WAVE
TRACK 02 AUDIO
TITLE "Lover Lover Lover"
PERFORMER "Roxette"
INDEX 01 00:00:00
FILE "03 Turn Of The Tide.flac" WAVE
TRACK 03 AUDIO
TITLE "Turn Of The Tide"
PERFORMER "Roxette"
INDEX 01 00:00:00
FILE "04 Touched By The Hand Of God.flac" WAVE
TRACK 04 AUDIO
TITLE "Touched By The Hand Of God"
PERFORMER "Roxette"
INDEX 01 00:00:00
FILE "05 Easy Way Out.flac" WAVE
TRACK 05 AUDIO
TITLE "Easy Way Out"
PERFORMER "Roxette"
INDEX 01 00:00:00
FILE "06 It's Possible (version one).flac" WAVE
TRACK 06 AUDIO
TITLE "It's Possible (version one)"
PERFORMER "Roxette"
INDEX 01 00:00:00
FILE "07 Perfect Excuse.flac" WAVE
TRACK 07 AUDIO
TITLE "Perfect Excuse"
PERFORMER "Roxette"
INDEX 01 00:00:00
FILE "08 Excuse Me, Sir, Do You Want Me To Check On Your Wife.flac" WAVE
TRACK 08 AUDIO
TITLE "Excuse Me, Sir, Do You Want Me To Check On Your Wife?"
PERFORMER "Roxette"
INDEX 01 00:00:00
FILE "09 Angel Passing.flac" WAVE
TRACK 09 AUDIO
TITLE "Angel Passing"
PERFORMER "Roxette"
INDEX 01 00:00:00
FILE "10 Stars.flac" WAVE
TRACK 10 AUDIO
TITLE "Stars"
PERFORMER "Roxette"
INDEX 01 00:00:00
FILE "11 The Weight Of The World.flac" WAVE
TRACK 11 AUDIO
TITLE "The Weight Of The World"
PERFORMER "Roxette"
INDEX 01 00:00:00
FILE "12 She's Got Nothing On (but the radio).flac" WAVE
TRACK 12 AUDIO
TITLE "She's Got Nothing On (but the radio)"
PERFORMER "Roxette"
INDEX 01 00:00:00
FILE "13 See Me.flac" WAVE
TRACK 13 AUDIO
TITLE "See Me"
PERFORMER "Roxette"
INDEX 01 00:00:00
FILE "14 It's Possible (version two).flac" WAVE
TRACK 14 AUDIO
TITLE "It's Possible (version two)"
PERFORMER "Roxette"
INDEX 01 00:00:00
FILE "15 It Must Have Been Love.flac" WAVE
TRACK 15 AUDIO
TITLE "It Must Have Been Love"
PERFORMER "Roxette"
INDEX 01 00:00:00
info [Профиль]  [ЛС] 
Показать сообщения:    
Ответить на тему

Текущее время: 08-Июл 05:36

Часовой пояс: GMT + 4



Вы не можете начинать темы
Вы не можете отвечать на сообщения
Вы не можете редактировать свои сообщения
Вы не можете удалять свои сообщения
Вы не можете голосовать в опросах
Вы не можете прикреплять файлы к сообщениям
Вы не можете скачивать файлы