Ошибка

(Dancehall) Elephant Man - Let's Get Physical - 2008, FLAC (tracks+.cue), lossless

Ответить на тему
 
Автор Сообщение

MrPavlik

Пол: Пол:Муж

Стаж: 9 лет 2 месяца

Сообщений: 152

Россия
Рейтинг

post 18-Мар-2012 00:05 0[+]

[Цитировать] 

Elephant Man - Let's Get Physical

pic="http://s019.radikal.ru/i626/1203/33/b2ee9e15cb4e.jpg"
Жанр: Dancehall
Год издания данного носителя: 2008
Страна-производитель носителя: USA
Тип релиза: tracks+.cue
Аудио кодек: FLAC
Битрейт аудио: lossless
Продолжительность: 0:50:05
Треклист:
01. Drop Dead (3:09)
02. Dem Nah Ready (3:43)
03. Feel The Steam (feat. Chris Brown) (3:40)
04. Throw Your Hands Up (feat. Rihanna) (3:19)
05. Five-O (feat. Wyclef & P. Diddy) (4:40)
06. Jump (feat. Swizz Beatz) (3:08)
07. Back That Thing On Me (Shake That) (feat. Mario Winans) (3:13)
08. Our World (feat. Demarco) (3:08)
09. The Way We Roll (Remix) (feat. Busta Rhymes & Shaggy) (4:11)
10. Sweep The Floor (3:19)
11. Body Talk (feat. Kat Deluna & Jha Jha) (4:04)
12. Who Wanna (3:07)
13. Five-O (Remix) (feat. Wyclef, Swizz Beatz, Assassin, Yung Joc & P. Diddy) (4:05)
14. Hidden Track (3:27)
Лейбл: VP Records / Bad Boy Records
Каталоговый номер: 182524-2
Каталоговый номер Amazon (ASIN): B000Q7ZNX6
Тип рипа: tracks+.cue
Уровень сжатия аудио кодеком: EAC FLAC -8
Дополнительная информация:

Рип оригинального импортного диска из США, приобретенного в Интернет-магазине VP Reggae.

Exact Audio Copy V0.99 prebeta 4 from 23. January 2008 

EAC extraction logfile from 18. March 2012, 1:00

Elephant Man / Let's Get Physical

Used drive : ASUS DRW-22B2ST Adapter: 1 ID: 0

Read mode : Secure
Utilize accurate stream : Yes
Defeat audio cache : Yes
Make use of C2 pointers : No

Read offset correction : 6
Overread into Lead-In and Lead-Out : No
Fill up missing offset samples with silence : Yes
Delete leading and trailing silent blocks : No
Null samples used in CRC calculations : Yes
Used interface : Native Win32 interface for Win NT & 2000
Gap handling : Appended to previous track

Used output format : User Defined Encoder
Selected bitrate : 128 kBit/s
Quality : High
Add ID3 tag : No
Command line compressor : C:\Program Files (x86)\Exact Audio Copy\Flac\flac.exe
Additional command line options : -8 -V -T "ARTIST=%a" -T "TITLE=%t" -T "ALBUM=%g" -T "DATE=%y" -T "TRACKNUMBER=%n" -T "GENRE=%m" -T "COMMENT=EAC FLAC -8" %s

TOC of the extracted CD

Track | Start | Length | Start sector | End sector
---------------------------------------------------------
1 | 0:00.00 | 3:08.45 | 0 | 14144
2 | 3:08.45 | 3:43.23 | 14145 | 30892
3 | 6:51.68 | 3:40.15 | 30893 | 47407
4 | 10:32.08 | 3:19.00 | 47408 | 62332
5 | 13:51.08 | 4:39.66 | 62333 | 83323
6 | 18:30.74 | 3:07.49 | 83324 | 97397
7 | 21:38.48 | 3:12.38 | 97398 | 111835
8 | 24:51.11 | 3:07.55 | 111836 | 125915
9 | 27:58.66 | 4:10.73 | 125916 | 144738
10 | 32:09.64 | 3:19.30 | 144739 | 159693
11 | 35:29.19 | 4:04.07 | 159694 | 178000
12 | 39:33.26 | 3:06.67 | 178001 | 192017
13 | 42:40.18 | 4:05.37 | 192018 | 210429
14 | 46:45.55 | 3:26.54 | 210430 | 225933

Track 1

Filename D:\!elephant_man\01. Elephant Man – Drop Dead.wav

Pre-gap length 0:00:02.00

Peak level 100.0 %
Track quality 99.9 %
Test CRC D798AFFA
Copy CRC D798AFFA
Accurately ripped (confidence 2) [4A7CD745]
Copy OK

Track 2

Filename D:\!elephant_man\02. Elephant Man – Dem Nah Ready.wav

Peak level 100.0 %
Track quality 100.0 %
Test CRC D931602F
Copy CRC D931602F
Accurately ripped (confidence 2) [7C4CA4E2]
Copy OK

Track 3

Filename D:\!elephant_man\03. Elephant Man – Feel The Steam (feat. Chris Brown).wav

Peak level 100.0 %
Track quality 100.0 %
Test CRC A309EDCE
Copy CRC A309EDCE
Accurately ripped (confidence 2) [2AB954FC]
Copy OK

Track 4

Filename D:\!elephant_man\04. Elephant Man – Throw Your Hands Up (feat. Rihanna).wav

Peak level 100.0 %
Track quality 100.0 %
Test CRC 19D08663
Copy CRC 19D08663
Accurately ripped (confidence 2) [3013FE86]
Copy OK

Track 5

Filename D:\!elephant_man\05. Elephant Man – Five-O (feat. Wyclef & P. Diddy).wav

Peak level 100.0 %
Track quality 100.0 %
Test CRC F3EBCEEC
Copy CRC F3EBCEEC
Accurately ripped (confidence 2) [9FEAFCA3]
Copy OK

Track 6

Filename D:\!elephant_man\06. Elephant Man – Jump (feat. Swizz Beatz).wav

Peak level 100.0 %
Track quality 100.0 %
Test CRC 8B37C35E
Copy CRC 8B37C35E
Accurately ripped (confidence 2) [8BDF160E]
Copy OK

Track 7

Filename D:\!elephant_man\07. Elephant Man – Back That Thing On Me (Shake That) (feat. Mario Winans).wav

Peak level 100.0 %
Track quality 100.0 %
Test CRC 3E190F51
Copy CRC 3E190F51
Accurately ripped (confidence 2) [288CBF29]
Copy OK

Track 8

Filename D:\!elephant_man\08. Elephant Man – Our World (feat. Demarco).wav

Peak level 100.0 %
Track quality 100.0 %
Test CRC AE37A47A
Copy CRC AE37A47A
Accurately ripped (confidence 2) [5CCFC2D0]
Copy OK

Track 9

Filename D:\!elephant_man\09. Elephant Man – The Way We Roll (Remix) (feat. Busta Rhymes & Shaggy).wav

Peak level 100.0 %
Track quality 100.0 %
Test CRC F96B0631
Copy CRC F96B0631
Accurately ripped (confidence 2) [73EAF086]
Copy OK

Track 10

Filename D:\!elephant_man\10. Elephant Man – Sweep The Floor.wav

Peak level 100.0 %
Track quality 100.0 %
Test CRC 0076C76D
Copy CRC 0076C76D
Accurately ripped (confidence 2) [DA61DBF5]
Copy OK

Track 11

Filename D:\!elephant_man\11. Elephant Man – Body Talk (feat. Kat Deluna & Jha Jha).wav

Peak level 100.0 %
Track quality 100.0 %
Test CRC 39F3E950
Copy CRC 39F3E950
Accurately ripped (confidence 2) [ACFF3B0C]
Copy OK

Track 12

Filename D:\!elephant_man\12. Elephant Man – Who Wanna.wav

Peak level 100.0 %
Track quality 100.0 %
Test CRC 22653ABC
Copy CRC 22653ABC
Accurately ripped (confidence 2) [37E3FE01]
Copy OK

Track 13

Filename D:\!elephant_man\13. Elephant Man – Five-O (Remix) (feat. Wyclef, Swizz Beatz, Assassin, Yung Joc & P. Diddy).wav

Peak level 100.0 %
Track quality 100.0 %
Test CRC 5AF958A7
Copy CRC 5AF958A7
Accurately ripped (confidence 2) [E8247E52]
Copy OK

Track 14

Filename D:\!elephant_man\14. Elephant Man – Hidden Track.wav

Peak level 96.3 %
Track quality 100.0 %
Test CRC 8132C2B5
Copy CRC 8132C2B5
Accurately ripped (confidence 2) [470AEE42]
Copy OK

All tracks accurately ripped

No errors occurred

End of status report
REM GENRE "Dance Hall" 
REM DATE 2008
REM DISCID 9E0BC40E
REM COMMENT "ExactAudioCopy v0.99pb4"
PERFORMER "Elephant Man"
TITLE "Let's Get Physical"
FILE "01. Elephant Man – Drop Dead.wav" WAVE
TRACK 01 AUDIO
TITLE "Drop Dead"
PERFORMER "Elephant Man"
INDEX 01 00:00:00
FILE "02. Elephant Man – Dem Nah Ready.wav" WAVE
TRACK 02 AUDIO
TITLE "Dem Nah Ready"
PERFORMER "Elephant Man"
INDEX 01 00:00:00
FILE "03. Elephant Man – Feel The Steam (feat. Chris Brown).wav" WAVE
TRACK 03 AUDIO
TITLE "Feel The Steam (feat. Chris Brown)"
PERFORMER "Elephant Man"
INDEX 01 00:00:00
FILE "04. Elephant Man – Throw Your Hands Up (feat. Rihanna).wav" WAVE
TRACK 04 AUDIO
TITLE "Throw Your Hands Up (feat. Rihanna)"
PERFORMER "Elephant Man"
INDEX 01 00:00:00
FILE "05. Elephant Man – Five-O (feat. Wyclef & P. Diddy).wav" WAVE
TRACK 05 AUDIO
TITLE "Five-O (feat. Wyclef & P. Diddy)"
PERFORMER "Elephant Man"
INDEX 01 00:00:00
FILE "06. Elephant Man – Jump (feat. Swizz Beatz).wav" WAVE
TRACK 06 AUDIO
TITLE "Jump (feat. Swizz Beatz)"
PERFORMER "Elephant Man"
INDEX 01 00:00:00
FILE "07. Elephant Man – Back That Thing On Me (Shake That) (feat. Mario Winans).wav" WAVE
TRACK 07 AUDIO
TITLE "Back That Thing On Me (Shake That) (feat. Mario Winans)"
PERFORMER "Elephant Man"
INDEX 01 00:00:00
FILE "08. Elephant Man – Our World (feat. Demarco).wav" WAVE
TRACK 08 AUDIO
TITLE "Our World (feat. Demarco)"
PERFORMER "Elephant Man"
INDEX 01 00:00:00
FILE "09. Elephant Man – The Way We Roll (Remix) (feat. Busta Rhymes & Shaggy).wav" WAVE
TRACK 09 AUDIO
TITLE "The Way We Roll (Remix) (feat. Busta Rhymes & Shaggy)"
PERFORMER "Elephant Man"
INDEX 01 00:00:00
FILE "10. Elephant Man – Sweep The Floor.wav" WAVE
TRACK 10 AUDIO
TITLE "Sweep The Floor"
PERFORMER "Elephant Man"
INDEX 01 00:00:00
FILE "11. Elephant Man – Body Talk (feat. Kat Deluna & Jha Jha).wav" WAVE
TRACK 11 AUDIO
TITLE "Body Talk (feat. Kat Deluna & Jha Jha)"
PERFORMER "Elephant Man"
INDEX 01 00:00:00
FILE "12. Elephant Man – Who Wanna.wav" WAVE
TRACK 12 AUDIO
TITLE "Who Wanna"
PERFORMER "Elephant Man"
INDEX 01 00:00:00
FILE "13. Elephant Man – Five-O (Remix) (feat. Wyclef, Swizz Beatz, Assassin, Yung Joc & P. Diddy).wav" WAVE
TRACK 13 AUDIO
TITLE "Five-O (Remix) (feat. Wyclef, Swizz Beatz, Assassin, Yung Joc & P. Diddy)"
PERFORMER "Elephant Man"
INDEX 01 00:00:00
FILE "14. Elephant Man – Hidden Track.wav" WAVE
TRACK 14 AUDIO
TITLE "Hidden Track"
PERFORMER "Elephant Man"
INDEX 01 00:00:00
Item: "D:\!elephant_man\01. Elephant Man – Drop Dead.flac" 
MD5: FF2F765A6B096F231298FE3AE42D8E56
CRC32: D798AFFA
No problems found.

Item: "D:\!elephant_man\02. Elephant Man – Dem Nah Ready.flac"
MD5: 46FCD06DCC40F4D793AFEF09088D05C0
CRC32: D931602F
No problems found.

Item: "D:\!elephant_man\03. Elephant Man – Feel The Steam (feat. Chris Brown).flac"
MD5: 6C3EEEC1BF733B031BB02D4C686DC847
CRC32: A309EDCE
No problems found.

Item: "D:\!elephant_man\04. Elephant Man – Throw Your Hands Up (feat. Rihanna).flac"
MD5: 804E5C415B9929959FFDE9A02E9BBA13
CRC32: 19D08663
No problems found.

Item: "D:\!elephant_man\05. Elephant Man – Five-O (feat. Wyclef & P. Diddy).flac"
MD5: D0E464103C3830D1DDFA63A27E039C8F
CRC32: F3EBCEEC
No problems found.

Item: "D:\!elephant_man\06. Elephant Man – Jump (feat. Swizz Beatz).flac"
MD5: F36D92CC0A98C74110D08784D840C988
CRC32: 8B37C35E
No problems found.

Item: "D:\!elephant_man\07. Elephant Man – Back That Thing On Me (Shake That) (feat. Mario Winans).flac"
MD5: DDEB3E32943DDD0094889199912AA6FC
CRC32: 3E190F51
No problems found.

Item: "D:\!elephant_man\08. Elephant Man – Our World (feat. Demarco).flac"
MD5: 8B44A80B2D25391714E8F09C1DCF912B
CRC32: AE37A47A
No problems found.

Item: "D:\!elephant_man\09. Elephant Man – The Way We Roll (Remix) (feat. Busta Rhymes & Shaggy).flac"
MD5: 7B94711FC6E6436CE4ED875DE83E4821
CRC32: F96B0631
No problems found.

Item: "D:\!elephant_man\10. Elephant Man – Sweep The Floor.flac"
MD5: BB88E891432303E2F172E239FD11489D
CRC32: 0076C76D
No problems found.

Item: "D:\!elephant_man\11. Elephant Man – Body Talk (feat. Kat Deluna & Jha Jha).flac"
MD5: 993B75D5A7E7899114337E0E40AAC8E8
CRC32: 39F3E950
No problems found.

Item: "D:\!elephant_man\12. Elephant Man – Who Wanna.flac"
MD5: EADB581BE2345AFF9D5EE2688D6D0AB4
CRC32: 22653ABC
No problems found.

Item: "D:\!elephant_man\13. Elephant Man – Five-O (Remix) (feat. Wyclef, Swizz Beatz, Assassin, Yung Joc & P. Diddy).flac"
MD5: 7EEDD13FFFB7025F705025184BCE447B
CRC32: 5AF958A7
No problems found.

Item: "D:\!elephant_man\14. Elephant Man – Hidden Track.flac"
MD5: 41EA42AEDDF64F4607C3FC8750E439A7
CRC32: 8132C2B5
No problems found.

All items decoded successfully.
info [Профиль]  [ЛС] 

LiLS

Пол: Пол:Муж

Стаж: 9 лет

Сообщений: 126

СССР
Рейтинг

post 18-Мар-2012 04:11 (спустя 4 часа) [-]0[+]

[Цитировать] 

Ништяк Улыбаюсь Как проверят, качну Подмигиваю

_________________
info [Профиль]  [ЛС] 

MrPavlik

Пол: Пол:Муж

Стаж: 9 лет 2 месяца

Сообщений: 152

Россия
Рейтинг

post 18-Мар-2012 11:25 (спустя 7 часов) [-]0[+]

[Цитировать] 

У меня куча оригинальных импортных дисков Reggae / DanceHall. Потихоньку все выложу! kolob_109
info [Профиль]  [ЛС] 

LiLS

Пол: Пол:Муж

Стаж: 9 лет

Сообщений: 126

СССР
Рейтинг

post 18-Мар-2012 16:33 (спустя 5 часов) [-]0[+]

[Цитировать] 

MrPavlik писал(а):

У меня куча оригинальных импортных дисков Reggae / DanceHall. Потихоньку все выложу! kolob_109
Молодец Улыбаюсь Эх ещё бы сканы прилагались, вообще бы круто было Подмигиваю
P.S
Что-то не стягивается Грущу

_________________
info [Профиль]  [ЛС] 

MrPavlik

Пол: Пол:Муж

Стаж: 9 лет 2 месяца

Сообщений: 152

Россия
Рейтинг

post 18-Мар-2012 21:54 (спустя 5 часов) [-]0[+]

[Цитировать] 

Сейчас по этой раздаче отдано 731 мб. Может провайдер подтупливает, но компьютер у меня работает практически круглосуточно.

Если скажешь, что за сканы нужны (развертка обложек?), может удастся выкладывать и их.
info [Профиль]  [ЛС] 

sssa

Пол: Пол:Жен

Стаж: 11 лет

Сообщений: 124

Ирак
Рейтинг

post 18-Мар-2012 22:17 (спустя 23 минуты) [-]0[+]

[Цитировать] 

Спасибо-а можно в mp3?

_________________
Не качаю порно без скриншотов!!!
info [Профиль]  [ЛС] 

MrPavlik

Пол: Пол:Муж

Стаж: 9 лет 2 месяца

Сообщений: 152

Россия
Рейтинг

post 18-Мар-2012 23:13 (спустя 55 минут) [-]0[+]

[Цитировать] 

sssa, может кто-нибудь перепакует и выложит? Или бросьте в меня инструкцией по правильному рипу в mp3. На форуме ее я вроде как не нашел. kolob_131
info [Профиль]  [ЛС] 

LiLS

Пол: Пол:Муж

Стаж: 9 лет

Сообщений: 126

СССР
Рейтинг

post 19-Мар-2012 23:33 (спустя 1 день) [-]0[+]

[Цитировать] 

MrPavlik писал(а):

Сейчас по этой раздаче отдано 731 мб. Может провайдер подтупливает, но компьютер у меня работает практически круглосуточно.

Если скажешь, что за сканы нужны (развертка обложек?), может удастся выкладывать и их.
Да не, нормально скачалось Подмигиваю
P.S
Сканы : Back, Front, CD, Inlay, Inside, Booklet, если есть возможность, то сканируй Подмигиваю

_________________
info [Профиль]  [ЛС] 
Показать сообщения:    
Ответить на тему

Текущее время: 13-Май 16:39

Часовой пояс: GMT + 4



Вы не можете начинать темы
Вы не можете отвечать на сообщения
Вы не можете редактировать свои сообщения
Вы не можете удалять свои сообщения
Вы не можете голосовать в опросах
Вы не можете прикреплять файлы к сообщениям
Вы не можете скачивать файлы