Ошибка

(OST) Various Artists - Sonic Generations Original Soundtrack: Blue Blur - 2012, FLAC (tracks+.cue)+cover, lossless

Ответить на тему
 
Автор Сообщение

SilverTea

Пол: Пол:Муж

Стаж: 13 лет

Сообщений: 80

Рейтинг

post 15-Мар-2012 11:11 0[+]

[Цитировать] 

Various Artists - Sonic Generations Original Soundtrack: Blue Blur

pic="http://s002.youpic.su/pictures/1331758800/21926c7b5df2e1f99c839875c1d0f4ff.jpg"


Жанр: OST
Год издания данного носителя: 2012
Страна-производитель носителя: Япония
Лейбл: Wave Master Inc.
Каталоговый номер: WWCE 31261~3
Аудио кодек: FLAC
Тип рипа: tracks+.cue
Битрейт аудио: lossless
Продолжительность: 03:27:56
Источник (релизер): What.CD (Vegeta)
Полиграфия: Присутствует
Продолжительность: 01:05:38
Треклист:
01. TITLE
02. GREEN HILL - ACT 1
03. GREEN HILL - ACT 2 - Normal
04. GREEN HILL - ACT 2 - Fast
05. CHEMICAL PLANT - ACT 1
06. CHEMICAL PLANT - ACT 2
07. SKY SANCTUARY - ACT 1
08. SKY SANCTUARY - ACT 2 - Normal
09. SKY SANCTUARY - ACT 2 - Fast
10. SPEED HIGHWAY - ACT 1 ''RUN THROUGH THE SPEED HIGHWAY - Cash Cash RMX''
11. SPEED HIGHWAY - ACT 2 ''RUN THROUGH THE SPEED HIGHWAY''
12. SPEED HIGHWAY - ACT 2 - Skyscraper Downhill ''GOIN' DOWN!? - Cash Cash vs. Jun Senoue RMX''
13. CITY ESCAPE - ACT 1 ''ESCAPE FROM THE CITY - Cash Cash RMX''
14. CITY ESCAPE - ACT 2 ''ESCAPE FROM THE CITY - Blue Blur RMX''
15. CITY ESCAPE - ACT 2 - GUN Convoy Battle ''THE MAD CONVOY RACE''
16. SEASIDE HILL - ACT 1
17. SEASIDE HILL - ACT 2
18. CRISIS CITY - ACT 1
19. CRISIS CITY - ACT 2
20. ROOFTOP RUN - ACT 1
21. ROOFTOP RUN - ACT 2
22. PLANET WISP - Color Power / Pink Spike
23. PLANET WISP - ACT 1
24. PLANET WISP - Color Power / Orange Rocket
25. PLANET WISP - ACT 2
26. END ROLL MEDLEY ver. 1
Exact Audio Copy V1.0 beta 3 from 29. August 2011 

EAC extraction logfile from 11. January 2012, 15:49

Various Artists / SONIC GENERATIONS Original Soundtrack : Blue Blur - Disc 1

Used drive : ASUS BW-12B1ST Adapter: 0 ID: 1

Read mode : Secure
Utilize accurate stream : Yes
Defeat audio cache : Yes
Make use of C2 pointers : No

Read offset correction : 6
Overread into Lead-In and Lead-Out : No
Fill up missing offset samples with silence : Yes
Delete leading and trailing silent blocks : No
Null samples used in CRC calculations : Yes
Used interface : Native Win32 interface for Win NT & 2000
Gap handling : Appended to previous track

Used output format : User Defined Encoder
Selected bitrate : 1024 kBit/s
Quality : High
Add ID3 tag : No
Command line compressor : C:\Program Files (x86)\FLAC\flac.exe
Additional command line options : -8 -V -T "ARTIST=%artist%" -T "TITLE=%title%" -T "ALBUM=%albumtitle%" -T "DATE=%year%" -T "TRACKNUMBER=%tracknr%" -T "GENRE=%genre%" -T "PERFORMER=%albuminterpret%" -T "COMPOSER=%composer%" %haslyrics%--tag-from-file=LYRICS="%lyricsfile%"%haslyrics% -T "ALBUMARTIST=%albumartist%" -T "ALBUM ARTIST=%albumartist%" -T "DISCNUMBER=%cdnumber%" -T "TOTALDISCS=%totalcds%" -T "TOTALTRACKS=%numtracks%" -T "COMMENT=%comment%" %source% -o %dest%

TOC of the extracted CD

Track | Start | Length | Start sector | End sector
---------------------------------------------------------
1 | 0:00.00 | 0:21.16 | 0 | 1590
2 | 0:21.16 | 1:49.04 | 1591 | 9769
3 | 2:10.20 | 2:20.60 | 9770 | 20329
4 | 4:31.05 | 2:21.63 | 20330 | 30967
5 | 6:52.68 | 2:18.13 | 30968 | 41330
6 | 9:11.06 | 2:43.72 | 41331 | 53627
7 | 11:55.03 | 2:17.54 | 53628 | 63956
8 | 14:12.57 | 2:16.66 | 63957 | 74222
9 | 16:29.48 | 2:19.49 | 74223 | 84696
10 | 18:49.22 | 2:19.59 | 84697 | 95180
11 | 21:09.06 | 3:41.38 | 95181 | 111793
12 | 24:50.44 | 0:54.39 | 111794 | 115882
13 | 25:45.08 | 2:35.61 | 115883 | 127568
14 | 28:20.69 | 3:39.39 | 127569 | 144032
15 | 32:00.33 | 0:51.05 | 144033 | 147862
16 | 32:51.38 | 2:42.39 | 147863 | 160051
17 | 35:34.02 | 4:05.54 | 160052 | 178480
18 | 39:39.56 | 2:30.69 | 178481 | 189799
19 | 42:10.50 | 3:03.16 | 189800 | 203540
20 | 45:13.66 | 3:37.41 | 203541 | 219856
21 | 48:51.32 | 2:33.49 | 219857 | 231380
22 | 51:25.06 | 0:20.09 | 231381 | 232889
23 | 51:45.15 | 3:23.59 | 232890 | 248173
24 | 55:08.74 | 0:08.70 | 248174 | 248843
25 | 55:17.69 | 2:55.55 | 248844 | 262023
26 | 58:13.49 | 7:24.29 | 262024 | 295352

Track 1

Filename C:\Vegeta's Rips\01 - Masato Nakamura - TITLE.wav

Pre-gap length 0:00:02.00

Peak level 98.8 %
Extraction speed 0.9 X
Track quality 99.4 %
Test CRC 207BDA74
Copy CRC 207BDA74
Track not present in AccurateRip database
Copy OK

Track 2

Filename C:\Vegeta's Rips\02 - Masato Nakamura - GREEN HILL - ACT 1.wav

Peak level 98.8 %
Extraction speed 3.9 X
Track quality 100.0 %
Test CRC D7E55594
Copy CRC D7E55594
Track not present in AccurateRip database
Copy OK

Track 3

Filename C:\Vegeta's Rips\03 - Masato Nakamura - GREEN HILL - ACT 2 - Normal.wav

Peak level 98.8 %
Extraction speed 4.3 X
Track quality 100.0 %
Test CRC 03DF3A79
Copy CRC 03DF3A79
Track not present in AccurateRip database
Copy OK

Track 4

Filename C:\Vegeta's Rips\04 - Masato Nakamura - GREEN HILL - ACT 2 - Fast.wav

Peak level 98.8 %
Extraction speed 4.6 X
Track quality 100.0 %
Test CRC 96C1AFC0
Copy CRC 96C1AFC0
Track not present in AccurateRip database
Copy OK

Track 5

Filename C:\Vegeta's Rips\05 - Masato Nakamura - CHEMICAL PLANT - ACT 1.wav

Peak level 98.8 %
Extraction speed 4.8 X
Track quality 100.0 %
Test CRC E389CDDB
Copy CRC E389CDDB
Track not present in AccurateRip database
Copy OK

Track 6

Filename C:\Vegeta's Rips\06 - Masato Nakamura - CHEMICAL PLANT - ACT 2.wav

Peak level 98.8 %
Extraction speed 5.3 X
Track quality 100.0 %
Test CRC 3CB1D14E
Copy CRC 3CB1D14E
Track not present in AccurateRip database
Copy OK

Track 7

Filename C:\Vegeta's Rips\07 - Naofumi Hataya - SKY SANCTUARY - ACT 1.wav

Peak level 98.8 %
Extraction speed 5.3 X
Track quality 100.0 %
Test CRC 2D5DE447
Copy CRC 2D5DE447
Track not present in AccurateRip database
Copy OK

Track 8

Filename C:\Vegeta's Rips\08 - Jun Senoue - SKY SANCTUARY - ACT 2 - Normal.wav

Peak level 98.8 %
Extraction speed 5.5 X
Track quality 100.0 %
Test CRC 336D9DF0
Copy CRC 336D9DF0
Track not present in AccurateRip database
Copy OK

Track 9

Filename C:\Vegeta's Rips\09 - Jun Senoue - SKY SANCTUARY - ACT 2 - Fast.wav

Peak level 98.8 %
Extraction speed 5.7 X
Track quality 100.0 %
Test CRC 72F182F8
Copy CRC 72F182F8
Track not present in AccurateRip database
Copy OK

Track 10

Filename C:\Vegeta's Rips\10 - Jun Senoue - SPEED HIGHWAY - ACT 1 ''RUN THROUGH THE SPEED HIGHWAY - Cash Cash RMX''.wav

Peak level 98.8 %
Extraction speed 4.3 X
Track quality 99.9 %
Test CRC 123521CB
Copy CRC 123521CB
Track not present in AccurateRip database
Copy OK

Track 11

Filename C:\Vegeta's Rips\11 - Jun Senoue - SPEED HIGHWAY - ACT 2 ''RUN THROUGH THE SPEED HIGHWAY''.wav

Peak level 98.8 %
Extraction speed 6.6 X
Track quality 100.0 %
Test CRC E52C0284
Copy CRC E52C0284
Track not present in AccurateRip database
Copy OK

Track 12

Filename C:\Vegeta's Rips\12 - Fumie Kumatani - SPEED HIGHWAY - ACT 2 - Skyscraper Downhill ''GOIN' DOWN! - Cash Cash vs. Jun Senoue RMX''.wav

Peak level 98.8 %
Extraction speed 4.7 X
Track quality 100.0 %
Test CRC 3A4D8CC9
Copy CRC 3A4D8CC9
Track not present in AccurateRip database
Copy OK

Track 13

Filename C:\Vegeta's Rips\13 - Jun Senoue - CITY ESCAPE - ACT 1 ''ESCAPE FROM THE CITY - Cash Cash RMX''.wav

Peak level 89.2 %
Extraction speed 6.4 X
Track quality 100.0 %
Test CRC 0B74404B
Copy CRC 0B74404B
Track not present in AccurateRip database
Copy OK

Track 14

Filename C:\Vegeta's Rips\14 - Jun Senoue - CITY ESCAPE - ACT 2 ''ESCAPE FROM THE CITY - Blue Blur RMX''.wav

Peak level 98.8 %
Extraction speed 7.1 X
Track quality 100.0 %
Test CRC 6FC34F21
Copy CRC 6FC34F21
Track not present in AccurateRip database
Copy OK

Track 15

Filename C:\Vegeta's Rips\15 - Jun Senoue - CITY ESCAPE - ACT 2 - GUN Convoy Battle ''THE MAD CONVOY RACE''.wav

Peak level 98.8 %
Extraction speed 4.9 X
Track quality 100.0 %
Test CRC 1D8451E9
Copy CRC 1D8451E9
Track not present in AccurateRip database
Copy OK

Track 16

Filename C:\Vegeta's Rips\16 - Jun Senoue & Richard Jacques - SEASIDE HILL - ACT 1.wav

Peak level 98.8 %
Extraction speed 7.1 X
Track quality 100.0 %
Test CRC 91D8B7B1
Copy CRC 91D8B7B1
Track not present in AccurateRip database
Copy OK

Track 17

Filename C:\Vegeta's Rips\17 - Jun Senoue - SEASIDE HILL - ACT 2.wav

Peak level 98.8 %
Extraction speed 7.9 X
Track quality 100.0 %
Test CRC 0FDEB89F
Copy CRC 0FDEB89F
Track not present in AccurateRip database
Copy OK

Track 18

Filename C:\Vegeta's Rips\18 - Tomoya Ohtani - CRISIS CITY - ACT 1.wav

Peak level 98.8 %
Extraction speed 7.4 X
Track quality 100.0 %
Test CRC 05C81019
Copy CRC 05C81019
Track not present in AccurateRip database
Copy OK

Track 19

Filename C:\Vegeta's Rips\19 - Tomoya Ohtani - CRISIS CITY - ACT 2.wav

Peak level 98.8 %
Extraction speed 7.9 X
Track quality 100.0 %
Test CRC CD39DA91
Copy CRC CD39DA91
Track not present in AccurateRip database
Copy OK

Track 20

Filename C:\Vegeta's Rips\20 - Tomoya Ohtani - ROOFTOP RUN - ACT 1.wav

Peak level 98.8 %
Extraction speed 8.3 X
Track quality 100.0 %
Test CRC E4E03791
Copy CRC E4E03791
Track not present in AccurateRip database
Copy OK

Track 21

Filename C:\Vegeta's Rips\21 - Tomoya Ohtani - ROOFTOP RUN - ACT 2.wav

Peak level 98.8 %
Extraction speed 7.9 X
Track quality 100.0 %
Test CRC 07829B05
Copy CRC 07829B05
Track not present in AccurateRip database
Copy OK

Track 22

Filename C:\Vegeta's Rips\22 - Tomoya Ohtani - PLANET WISP - Color Power , Pink Spike.wav

Peak level 98.8 %
Extraction speed 3.5 X
Track quality 100.0 %
Test CRC 5B67F5B2
Copy CRC 5B67F5B2
Track not present in AccurateRip database
Copy OK

Track 23

Filename C:\Vegeta's Rips\23 - Kenichi Tokoi - PLANET WISP - ACT 1.wav

Peak level 88.7 %
Extraction speed 8.6 X
Track quality 100.0 %
Test CRC 014CBD80
Copy CRC 014CBD80
Track not present in AccurateRip database
Copy OK

Track 24

Filename C:\Vegeta's Rips\24 - Tomoya Ohtani - PLANET WISP - Color Power , Orange Rocket.wav

Peak level 98.8 %
Extraction speed 0.9 X
Track quality 98.7 %
Test CRC 846A013B
Copy CRC 846A013B
Track not present in AccurateRip database
Copy OK

Track 25

Filename C:\Vegeta's Rips\25 - Kenichi Tokoi - PLANET WISP - ACT 2.wav

Peak level 98.8 %
Extraction speed 8.6 X
Track quality 100.0 %
Test CRC 6670BD4D
Copy CRC 6670BD4D
Track not present in AccurateRip database
Copy OK

Track 26

Filename C:\Vegeta's Rips\26 - SEGA, Jun Senoue, Tomoya Ohtani, Kenichi Tokoi - END ROLL MEDLEY ver. 1.wav

Peak level 98.8 %
Extraction speed 10.0 X
Track quality 100.0 %
Test CRC B2A6C1E7
Copy CRC B2A6C1E7
Track not present in AccurateRip database
Copy OK

None of the tracks are present in the AccurateRip database

No errors occurred

End of status report

---- CUETools DB Plugin V2.1.3

[CTDB TOCID: SG_Ot1bd1feDNNDw71gzTaTD7Xg-] disk not present in database, Submit result: SG_Ot1bd1feDNNDw71gzTaTD7Xg- has been uploaded

==== Log checksum 9F7BDE83B04DBF85B23793BA3FF53F331FDE14FC2B25E7BCB8109E371CBA6C45 ====
REM GENRE "Video Game" 
REM DATE 2012
REM DISCID 500F621A
REM COMMENT "ExactAudioCopy v1.0b3"
CATALOG 4571164382616
PERFORMER "Various Artists"
TITLE "SONIC GENERATIONS Original Soundtrack : Blue Blur - Disc 1"
FILE "01 - Masato Nakamura - TITLE.wav" WAVE
TRACK 01 AUDIO
TITLE "TITLE"
PERFORMER "Masato Nakamura"
ISRC JPX301272510
INDEX 01 00:00:00
FILE "02 - Masato Nakamura - GREEN HILL - ACT 1.wav" WAVE
TRACK 02 AUDIO
TITLE "GREEN HILL - ACT 1"
PERFORMER "Masato Nakamura"
ISRC JPX301272520
INDEX 01 00:00:00
FILE "03 - Masato Nakamura - GREEN HILL - ACT 2 - Normal.wav" WAVE
TRACK 03 AUDIO
TITLE "GREEN HILL - ACT 2 - Normal"
PERFORMER "Masato Nakamura"
ISRC JPX301272530
INDEX 01 00:00:00
FILE "04 - Masato Nakamura - GREEN HILL - ACT 2 - Fast.wav" WAVE
TRACK 04 AUDIO
TITLE "GREEN HILL - ACT 2 - Fast"
PERFORMER "Masato Nakamura"
ISRC JPX301272540
INDEX 01 00:00:00
FILE "05 - Masato Nakamura - CHEMICAL PLANT - ACT 1.wav" WAVE
TRACK 05 AUDIO
TITLE "CHEMICAL PLANT - ACT 1"
PERFORMER "Masato Nakamura"
ISRC JPX301272550
INDEX 01 00:00:00
FILE "06 - Masato Nakamura - CHEMICAL PLANT - ACT 2.wav" WAVE
TRACK 06 AUDIO
TITLE "CHEMICAL PLANT - ACT 2"
PERFORMER "Masato Nakamura"
ISRC JPX301272560
INDEX 01 00:00:00
FILE "07 - Naofumi Hataya - SKY SANCTUARY - ACT 1.wav" WAVE
TRACK 07 AUDIO
TITLE "SKY SANCTUARY - ACT 1"
PERFORMER "Naofumi Hataya"
ISRC JPX301272570
INDEX 01 00:00:00
FILE "08 - Jun Senoue - SKY SANCTUARY - ACT 2 - Normal.wav" WAVE
TRACK 08 AUDIO
TITLE "SKY SANCTUARY - ACT 2 - Normal"
PERFORMER "Jun Senoue"
ISRC JPX301272580
INDEX 01 00:00:00
FILE "09 - Jun Senoue - SKY SANCTUARY - ACT 2 - Fast.wav" WAVE
TRACK 09 AUDIO
TITLE "SKY SANCTUARY - ACT 2 - Fast"
PERFORMER "Jun Senoue"
ISRC JPX301272590
INDEX 01 00:00:00
FILE "10 - Jun Senoue - SPEED HIGHWAY - ACT 1 ''RUN THROUGH THE SPEED HIGHWAY - Cash Cash RMX''.wav" WAVE
TRACK 10 AUDIO
TITLE "SPEED HIGHWAY - ACT 1 ''RUN THROUGH THE SPEED HIGHWAY - Cash Cash RMX'"
PERFORMER "Jun Senoue"
ISRC JPX301272600
INDEX 01 00:00:00
FILE "11 - Jun Senoue - SPEED HIGHWAY - ACT 2 ''RUN THROUGH THE SPEED HIGHWAY''.wav" WAVE
TRACK 11 AUDIO
TITLE "SPEED HIGHWAY - ACT 2 ''RUN THROUGH THE SPEED HIGHWAY''"
PERFORMER "Jun Senoue"
ISRC JPX301272610
INDEX 01 00:00:00
FILE "12 - Fumie Kumatani - SPEED HIGHWAY - ACT 2 - Skyscraper Downhill ''GOIN' DOWN! - Cash Cash vs. Jun Senoue RMX''.wav" WAVE
TRACK 12 AUDIO
TITLE "SPEED HIGHWAY - ACT 2 - Skyscraper Downhill ''GOIN' DOWN!? - Cash Cash vs. Ju..."
PERFORMER "Fumie Kumatani"
ISRC JPX301272620
INDEX 01 00:00:00
FILE "13 - Jun Senoue - CITY ESCAPE - ACT 1 ''ESCAPE FROM THE CITY - Cash Cash RMX''.wav" WAVE
TRACK 13 AUDIO
TITLE "CITY ESCAPE - ACT 1 ''ESCAPE FROM THE CITY - Cash Cash RMX''"
PERFORMER "Jun Senoue"
ISRC JPX301272630
INDEX 01 00:00:00
FILE "14 - Jun Senoue - CITY ESCAPE - ACT 2 ''ESCAPE FROM THE CITY - Blue Blur RMX''.wav" WAVE
TRACK 14 AUDIO
TITLE "CITY ESCAPE - ACT 2 ''ESCAPE FROM THE CITY - Blue Blur RMX''"
PERFORMER "Jun Senoue"
ISRC JPX301272640
INDEX 01 00:00:00
FILE "15 - Jun Senoue - CITY ESCAPE - ACT 2 - GUN Convoy Battle ''THE MAD CONVOY RACE''.wav" WAVE
TRACK 15 AUDIO
TITLE "CITY ESCAPE - ACT 2 - GUN Convoy Battle ''THE MAD CONVOY RACE''"
PERFORMER "Jun Senoue"
ISRC JPX301272650
INDEX 01 00:00:00
FILE "16 - Jun Senoue & Richard Jacques - SEASIDE HILL - ACT 1.wav" WAVE
TRACK 16 AUDIO
TITLE "SEASIDE HILL - ACT 1"
PERFORMER "Jun Senoue & Richard Jacques"
ISRC JPX301272660
INDEX 01 00:00:00
FILE "17 - Jun Senoue - SEASIDE HILL - ACT 2.wav" WAVE
TRACK 17 AUDIO
TITLE "SEASIDE HILL - ACT 2"
PERFORMER "Jun Senoue"
ISRC JPX301272670
INDEX 01 00:00:00
FILE "18 - Tomoya Ohtani - CRISIS CITY - ACT 1.wav" WAVE
TRACK 18 AUDIO
TITLE "CRISIS CITY - ACT 1"
PERFORMER "Tomoya Ohtani"
ISRC JPX301272680
INDEX 01 00:00:00
FILE "19 - Tomoya Ohtani - CRISIS CITY - ACT 2.wav" WAVE
TRACK 19 AUDIO
TITLE "CRISIS CITY - ACT 2"
PERFORMER "Tomoya Ohtani"
ISRC JPX301272690
INDEX 01 00:00:00
FILE "20 - Tomoya Ohtani - ROOFTOP RUN - ACT 1.wav" WAVE
TRACK 20 AUDIO
TITLE "ROOFTOP RUN - ACT 1"
PERFORMER "Tomoya Ohtani"
ISRC JPX301272700
INDEX 01 00:00:00
FILE "21 - Tomoya Ohtani - ROOFTOP RUN - ACT 2.wav" WAVE
TRACK 21 AUDIO
TITLE "ROOFTOP RUN - ACT 2"
PERFORMER "Tomoya Ohtani"
ISRC JPX301272710
INDEX 01 00:00:00
FILE "22 - Tomoya Ohtani - PLANET WISP - Color Power , Pink Spike.wav" WAVE
TRACK 22 AUDIO
TITLE "PLANET WISP - Color Power / Pink Spike"
PERFORMER "Tomoya Ohtani"
ISRC JPX301272720
INDEX 01 00:00:00
FILE "23 - Kenichi Tokoi - PLANET WISP - ACT 1.wav" WAVE
TRACK 23 AUDIO
TITLE "PLANET WISP - ACT 1"
PERFORMER "Kenichi Tokoi"
ISRC JPX301272730
INDEX 01 00:00:00
FILE "24 - Tomoya Ohtani - PLANET WISP - Color Power , Orange Rocket.wav" WAVE
TRACK 24 AUDIO
TITLE "PLANET WISP - Color Power / Orange Rocket"
PERFORMER "Tomoya Ohtani"
ISRC JPX301272740
INDEX 01 00:00:00
FILE "25 - Kenichi Tokoi - PLANET WISP - ACT 2.wav" WAVE
TRACK 25 AUDIO
TITLE "PLANET WISP - ACT 2"
PERFORMER "Kenichi Tokoi"
ISRC JPX301272750
INDEX 01 00:00:00
FILE "26 - SEGA, Jun Senoue, Tomoya Ohtani, Kenichi Tokoi - END ROLL MEDLEY ver. 1.wav" WAVE
TRACK 26 AUDIO
TITLE "END ROLL MEDLEY ver. 1"
PERFORMER "SEGA, Jun Senoue, Tomoya Ohtani, Kenichi Tokoi"
ISRC JPX301272760
INDEX 01 00:00:00
AUDIOCHECKER v2.0 beta (build 457) - by Dester - opdester@freemail.hu 
~~~~~~~~~~~~~~~~~~~~~~~~~~~~~~~~~~
-=== DO NOT EDIT THIS FILE! ===-

Path: ...\Disc 1

01 -=- 01 - Masato Nakamura - TITLE.flac -=- CDDA (100%)
02 -=- 02 - Masato Nakamura - GREEN HILL - ACT 1.flac -=- CDDA (99%)
03 -=- 03 - Masato Nakamura - GREEN HILL - ACT 2 - Normal.flac -=- CDDA (100%)
04 -=- 04 - Masato Nakamura - GREEN HILL - ACT 2 - Fast.flac -=- CDDA (100%)
05 -=- 05 - Masato Nakamura - CHEMICAL PLANT - ACT 1.flac -=- CDDA (100%)
06 -=- 06 - Masato Nakamura - CHEMICAL PLANT - ACT 2.flac -=- CDDA (100%)
07 -=- 07 - Naofumi Hataya - SKY SANCTUARY - ACT 1.flac -=- CDDA (100%)
08 -=- 08 - Jun Senoue - SKY SANCTUARY - ACT 2 - Normal.flac -=- CDDA (100%)
09 -=- 09 - Jun Senoue - SKY SANCTUARY - ACT 2 - Fast.flac -=- CDDA (100%)
10 -=- 10 - Jun Senoue - SPEED HIGHWAY - ACT 1 ''RUN THROUGH THE SPEED HIGHWAY - Cash Cash RMX''.flac -=- CDDA (100%)
11 -=- 11 - Jun Senoue - SPEED HIGHWAY - ACT 2 ''RUN THROUGH THE SPEED HIGHWAY''.flac -=- CDDA (100%)
12 -=- 12 - Fumie Kumatani - SPEED HIGHWAY - ACT 2 - Skyscraper Downhill ''GOIN' DOWN! - Cash Cash vs. Jun Senoue RMX''.flac -=- CDDA (100%)
13 -=- 13 - Jun Senoue - CITY ESCAPE - ACT 1 ''ESCAPE FROM THE CITY - Cash Cash RMX''.flac -=- CDDA (99%)
14 -=- 14 - Jun Senoue - CITY ESCAPE - ACT 2 ''ESCAPE FROM THE CITY - Blue Blur RMX''.flac -=- CDDA (100%)
15 -=- 15 - Jun Senoue - CITY ESCAPE - ACT 2 - GUN Convoy Battle ''THE MAD CONVOY RACE''.flac -=- CDDA (100%)
16 -=- 16 - Jun Senoue & Richard Jacques - SEASIDE HILL - ACT 1.flac -=- CDDA (99%)
17 -=- 17 - Jun Senoue - SEASIDE HILL - ACT 2.flac -=- CDDA (100%)
18 -=- 18 - Tomoya Ohtani - CRISIS CITY - ACT 1.flac -=- CDDA (100%)
19 -=- 19 - Tomoya Ohtani - CRISIS CITY - ACT 2.flac -=- CDDA (100%)
20 -=- 20 - Tomoya Ohtani - ROOFTOP RUN - ACT 1.flac -=- CDDA (100%)
21 -=- 21 - Tomoya Ohtani - ROOFTOP RUN - ACT 2.flac -=- CDDA (99%)
22 -=- 22 - Tomoya Ohtani - PLANET WISP - Color Power , Pink Spike.flac -=- CDDA (100%)
23 -=- 23 - Kenichi Tokoi - PLANET WISP - ACT 1.flac -=- CDDA (100%)
24 -=- 24 - Tomoya Ohtani - PLANET WISP - Color Power , Orange Rocket.flac -=- CDDA (100%)
25 -=- 25 - Kenichi Tokoi - PLANET WISP - ACT 2.flac -=- CDDA (99%)
26 -=- 26 - SEGA, Jun Senoue, Tomoya Ohtani, Kenichi Tokoi - END ROLL MEDLEY ver. 1.flac -=- CDDA (100%)

Summary 99,81% CDDA

240352628
Продолжительность: 01:13:02
Треклист:
01. TITLE ( Short ver.)
02. CASINO NIGHT - ACT 1
03. CASINO NIGHT - ACT 2
04. MUSHROOM HILL - ACT 1
05. MUSHROOM HILL - ACT 2
06. EMERALD COAST - ACT 1 ''BLUE AZURE WORLD''
07. EMERALD COAST - ACT 2 ''WINDY AND RIPPLY''
08. RADICAL HIGHWAY - ACT 1 ''VENGEANCE IS MINE - Cash Cash RMX''
09. RADICAL HIGHWAY - ACT 2 ''VENGEANCE IS MINE - Circuit Freq RMX''
10. WATER PALACE - ACT 1 ''BACK 2 BACK - Digital Remakin' Track''
11. WATER PALACE - ACT 2 ''BACK 2 BACK - Cash Cash RMX''
12. TROPICAL RESORT - Color Power / Red Burst
13. TROPICAL RESORT - ACT 1
14. TROPICAL RESORT - Color Power / Cyan Laser
15. TROPICAL RESORT - ACT 2
16. BOSS BATTLE - BIG ARMS
17. BOSS BATTLE - BIOLIZARD ''SUPPORTING ME...''
18. BOSS BATTLE - EGG EMPEROR
19. SPECIAL STAGE
20. END ROLL MEDLEY ver. 2
21. CHALLENGE / MISSION 1 ''SUPER SONIC RACING - Cash Cash vs. Jun Senoue RMX''
22. CHALLENGE / MISSION 2
23. CHALLENGE / MISSION 3
24. CHALLENGE / MISSION 4
25. CHALLENGE / MISSION 5
Exact Audio Copy V1.0 beta 3 from 29. August 2011 

EAC extraction logfile from 11. January 2012, 17:15

Various Artists / SONIC GENERATIONS Original Soundtrack : Blue Blur - Disc 2

Used drive : ASUS BW-12B1ST Adapter: 0 ID: 1

Read mode : Secure
Utilize accurate stream : Yes
Defeat audio cache : Yes
Make use of C2 pointers : No

Read offset correction : 6
Overread into Lead-In and Lead-Out : No
Fill up missing offset samples with silence : Yes
Delete leading and trailing silent blocks : No
Null samples used in CRC calculations : Yes
Used interface : Native Win32 interface for Win NT & 2000
Gap handling : Appended to previous track

Used output format : User Defined Encoder
Selected bitrate : 1024 kBit/s
Quality : High
Add ID3 tag : No
Command line compressor : C:\Program Files (x86)\FLAC\flac.exe
Additional command line options : -8 -V -T "ARTIST=%artist%" -T "TITLE=%title%" -T "ALBUM=%albumtitle%" -T "DATE=%year%" -T "TRACKNUMBER=%tracknr%" -T "GENRE=%genre%" -T "PERFORMER=%albuminterpret%" -T "COMPOSER=%composer%" %haslyrics%--tag-from-file=LYRICS="%lyricsfile%"%haslyrics% -T "ALBUMARTIST=%albumartist%" -T "ALBUM ARTIST=%albumartist%" -T "DISCNUMBER=%cdnumber%" -T "TOTALDISCS=%totalcds%" -T "TOTALTRACKS=%numtracks%" -T "COMMENT=%comment%" %source% -o %dest%

TOC of the extracted CD

Track | Start | Length | Start sector | End sector
---------------------------------------------------------
1 | 0:00.00 | 0:12.56 | 0 | 955
2 | 0:12.56 | 2:15.33 | 956 | 11113
3 | 2:28.14 | 4:02.04 | 11114 | 29267
4 | 6:30.18 | 2:13.03 | 29268 | 39245
5 | 8:43.21 | 3:00.41 | 39246 | 52786
6 | 11:43.62 | 4:13.37 | 52787 | 71798
7 | 15:57.24 | 3:14.18 | 71799 | 86366
8 | 19:11.42 | 3:25.59 | 86367 | 101800
9 | 22:37.26 | 2:43.19 | 101801 | 114044
10 | 25:20.45 | 2:47.07 | 114045 | 126576
11 | 28:07.52 | 2:58.69 | 126577 | 139995
12 | 31:06.46 | 0:26.10 | 139996 | 141955
13 | 31:32.56 | 4:21.60 | 141956 | 161590
14 | 35:54.41 | 0:17.31 | 161591 | 162896
15 | 36:11.72 | 3:35.13 | 162897 | 179034
16 | 39:47.10 | 3:36.60 | 179035 | 195294
17 | 43:23.70 | 3:26.74 | 195295 | 210818
18 | 46:50.69 | 2:37.64 | 210819 | 222657
19 | 49:28.58 | 2:31.04 | 222658 | 233986
20 | 51:59.62 | 7:21.62 | 233987 | 267123
21 | 59:21.49 | 3:15.71 | 267124 | 281819
22 | 62:37.45 | 2:30.18 | 281820 | 293087
23 | 65:07.63 | 2:50.29 | 293088 | 305866
24 | 67:58.17 | 2:05.43 | 305867 | 315284
25 | 70:03.60 | 2:58.57 | 315285 | 328691

Track 1

Filename C:\Vegeta's Rips\01 - Masato Nakamura - TITLE ( Short ver.).wav

Pre-gap length 0:00:02.00

Peak level 98.8 %
Extraction speed 0.6 X
Track quality 100.0 %
Test CRC 5C6C9875
Copy CRC 5C6C9875
Track not present in AccurateRip database
Copy OK

Track 2

Filename C:\Vegeta's Rips\02 - Masato Nakamura - CASINO NIGHT - ACT 1.wav

Peak level 98.8 %
Extraction speed 1.2 X
Track quality 99.9 %
Test CRC CD7F6C8C
Copy CRC CD7F6C8C
Track not present in AccurateRip database
Copy OK

Track 3

Filename C:\Vegeta's Rips\03 - Masato Nakamura - CASINO NIGHT - ACT 2.wav

Peak level 98.8 %
Extraction speed 2.3 X
Track quality 100.0 %
Test CRC 8164794F
Copy CRC 8164794F
Track not present in AccurateRip database
Copy OK

Track 4

Filename C:\Vegeta's Rips\04 - Naofumi Hataya - MUSHROOM HILL - ACT 1.wav

Peak level 98.8 %
Extraction speed 2.2 X
Track quality 100.0 %
Test CRC A3638C1B
Copy CRC A3638C1B
Track not present in AccurateRip database
Copy OK

Track 5

Filename C:\Vegeta's Rips\05 - Naofumi Hataya - MUSHROOM HILL - ACT 2.wav

Peak level 98.8 %
Extraction speed 2.4 X
Track quality 100.0 %
Test CRC 8432A68F
Copy CRC 8432A68F
Track not present in AccurateRip database
Copy OK

Track 6

Filename C:\Vegeta's Rips\06 - Jun Senoue - EMERALD COAST - ACT 1 ''BLUE AZURE WORLD''.wav

Peak level 98.8 %
Extraction speed 2.7 X
Track quality 100.0 %
Test CRC 9A49EA1E
Copy CRC 9A49EA1E
Track not present in AccurateRip database
Copy OK

Track 7

Filename C:\Vegeta's Rips\07 - Jun Senoue - EMERALD COAST - ACT 2 ''WINDY AND RIPPLY''.wav

Peak level 98.8 %
Extraction speed 2.7 X
Track quality 100.0 %
Test CRC E0ED18C2
Copy CRC E0ED18C2
Track not present in AccurateRip database
Copy OK

Track 8

Filename C:\Vegeta's Rips\08 - Jun Senoue - RADICAL HIGHWAY - ACT 1 ''VENGEANCE IS MINE - Cash Cash RMX''.wav

Peak level 98.8 %
Extraction speed 2.9 X
Track quality 100.0 %
Test CRC 02B3F641
Copy CRC 02B3F641
Track not present in AccurateRip database
Copy OK

Track 9

Filename C:\Vegeta's Rips\09 - Jun Senoue - RADICAL HIGHWAY - ACT 2 ''VENGEANCE IS MINE - Circuit Freq RMX''.wav

Peak level 98.8 %
Extraction speed 2.9 X
Track quality 100.0 %
Test CRC C2CFBA57
Copy CRC C2CFBA57
Track not present in AccurateRip database
Copy OK

Track 10

Filename C:\Vegeta's Rips\10 - Hideki Naganuma - WATER PALACE - ACT 1 ''BACK 2 BACK - Digital Remakin' Track''.wav

Peak level 88.1 %
Extraction speed 3.0 X
Track quality 100.0 %
Test CRC 04CB0A06
Copy CRC 04CB0A06
Track not present in AccurateRip database
Copy OK

Track 11

Filename C:\Vegeta's Rips\11 - Hideki Naganuma - WATER PALACE - ACT 2 ''BACK 2 BACK - Cash Cash RMX''.wav

Peak level 98.8 %
Extraction speed 2.2 X
Track quality 99.9 %
Test CRC 81CAA49E
Copy CRC 81CAA49E
Track not present in AccurateRip database
Copy OK

Track 12

Filename C:\Vegeta's Rips\12 - Tomoya Ohtani - TROPICAL RESORT - Color Power , Red Burst.wav

Peak level 98.8 %
Extraction speed 1.6 X
Track quality 100.0 %
Test CRC 59BD4B9C
Copy CRC 59BD4B9C
Track not present in AccurateRip database
Copy OK

Track 13

Filename C:\Vegeta's Rips\13 - Tomoya Ohtani - TROPICAL RESORT - ACT 1.wav

Peak level 98.8 %
Extraction speed 3.5 X
Track quality 100.0 %
Test CRC 5907D8CB
Copy CRC 5907D8CB
Track not present in AccurateRip database
Copy OK

Track 14

Filename C:\Vegeta's Rips\14 - Tomoya Ohtani - TROPICAL RESORT - Color Power , Cyan Laser.wav

Peak level 98.8 %
Extraction speed 1.3 X
Track quality 100.0 %
Test CRC 8F62001F
Copy CRC 8F62001F
Track not present in AccurateRip database
Copy OK

Track 15

Filename C:\Vegeta's Rips\15 - Tomoya Ohtani - TROPICAL RESORT - ACT 2.wav

Peak level 98.8 %
Extraction speed 3.5 X
Track quality 100.0 %
Test CRC 697DCDCA
Copy CRC 697DCDCA
Track not present in AccurateRip database
Copy OK

Track 16

Filename C:\Vegeta's Rips\16 - Jun Senoue - BOSS BATTLE - BIG ARMS.wav

Peak level 98.8 %
Extraction speed 2.6 X
Track quality 99.9 %
Test CRC 7A8F1606
Copy CRC 7A8F1606
Track not present in AccurateRip database
Copy OK

Track 17

Filename C:\Vegeta's Rips\17 - Heigo Tani & Fumie Kumatani - BOSS BATTLE - BIOLIZARD ''SUPPORTING ME...''.wav

Peak level 98.8 %
Extraction speed 3.7 X
Track quality 100.0 %
Test CRC 9F59A192
Copy CRC 9F59A192
Track not present in AccurateRip database
Copy OK

Track 18

Filename C:\Vegeta's Rips\18 - Jun Senoue - BOSS BATTLE - EGG EMPEROR.wav

Peak level 98.8 %
Extraction speed 3.7 X
Track quality 100.0 %
Test CRC 4232C3DB
Copy CRC 4232C3DB
Track not present in AccurateRip database
Copy OK

Track 19

Filename C:\Vegeta's Rips\19 - Naofumi Hataya - SPECIAL STAGE.wav

Peak level 98.8 %
Extraction speed 2.4 X
Track quality 99.9 %
Test CRC C04E1721
Copy CRC C04E1721
Track not present in AccurateRip database
Copy OK

Track 20

Filename C:\Vegeta's Rips\20 - Masato Nakamura, SEGA, Jun Senoue, Hideki Naganuma, Tomoya Ohtani - END ROLL MEDLEY ver. 2.wav

Peak level 98.8 %
Extraction speed 4.4 X
Track quality 100.0 %
Test CRC 66AAE447
Copy CRC 66AAE447
Track not present in AccurateRip database
Copy OK

Track 21

Filename C:\Vegeta's Rips\21 - Richard Jacques - CHALLENGE , MISSION 1 ''SUPER SONIC RACING - Cash Cash vs. Jun Senoue RMX''.wav

Peak level 98.8 %
Extraction speed 4.1 X
Track quality 100.0 %
Test CRC AF9D50B9
Copy CRC AF9D50B9
Track not present in AccurateRip database
Copy OK

Track 22

Filename C:\Vegeta's Rips\22 - Jun Senoue - CHALLENGE , MISSION 2.wav

Peak level 98.8 %
Extraction speed 4.0 X
Track quality 100.0 %
Test CRC C72007F3
Copy CRC C72007F3
Track not present in AccurateRip database
Copy OK

Track 23

Filename C:\Vegeta's Rips\23 - Kenchi Tokoi - CHALLENGE , MISSION 3.wav

Peak level 98.8 %
Extraction speed 4.1 X
Track quality 100.0 %
Test CRC C187B0E0
Copy CRC C187B0E0
Track not present in AccurateRip database
Copy OK

Track 24

Filename C:\Vegeta's Rips\24 - Jun Senoue - CHALLENGE , MISSION 4.wav

Peak level 98.8 %
Extraction speed 3.9 X
Track quality 100.0 %
Test CRC EB97E676
Copy CRC EB97E676
Track not present in AccurateRip database
Copy OK

Track 25

Filename C:\Vegeta's Rips\25 - Richard Jacques - CHALLENGE , MISSION 5.wav

Peak level 98.8 %
Extraction speed 4.3 X
Track quality 100.0 %
Test CRC 23AC36A8
Copy CRC 23AC36A8
Track not present in AccurateRip database
Copy OK

None of the tracks are present in the AccurateRip database

No errors occurred

End of status report

---- CUETools DB Plugin V2.1.3

[CTDB TOCID: P.q_MXl0j_tkK.lJlf17qDZYzYQ-] disk not present in database, Submit result: P.q_MXl0j_tkK.lJlf17qDZYzYQ- has been uploaded

==== Log checksum DFC61D6C518C2AB9DAA4E75E9D83E73818261A996694C2A83C73284C0A87AA27 ====
REM GENRE "Video Game" 
REM DATE 2012
REM DISCID 6F111E19
REM COMMENT "ExactAudioCopy v1.0b3"
CATALOG 4571164382616
PERFORMER "Various Artists"
TITLE "SONIC GENERATIONS Original Soundtrack : Blue Blur - Disc 2"
FILE "01 - Masato Nakamura - TITLE ( Short ver.).wav" WAVE
TRACK 01 AUDIO
TITLE "TITLE ( Short ver.)"
PERFORMER "Masato Nakamura"
ISRC JPX301272770
INDEX 01 00:00:00
FILE "02 - Masato Nakamura - CASINO NIGHT - ACT 1.wav" WAVE
TRACK 02 AUDIO
TITLE "CASINO NIGHT - ACT 1"
PERFORMER "Masato Nakamura"
ISRC JPX301272780
INDEX 01 00:00:00
FILE "03 - Masato Nakamura - CASINO NIGHT - ACT 2.wav" WAVE
TRACK 03 AUDIO
TITLE "CASINO NIGHT - ACT 2"
PERFORMER "Masato Nakamura"
ISRC JPX301272790
INDEX 01 00:00:00
FILE "04 - Naofumi Hataya - MUSHROOM HILL - ACT 1.wav" WAVE
TRACK 04 AUDIO
TITLE "MUSHROOM HILL - ACT 1"
PERFORMER "Naofumi Hataya"
ISRC JPX301272800
INDEX 01 00:00:00
FILE "05 - Naofumi Hataya - MUSHROOM HILL - ACT 2.wav" WAVE
TRACK 05 AUDIO
TITLE "MUSHROOM HILL - ACT 2"
PERFORMER "Naofumi Hataya"
ISRC JPX301272810
INDEX 01 00:00:00
FILE "06 - Jun Senoue - EMERALD COAST - ACT 1 ''BLUE AZURE WORLD''.wav" WAVE
TRACK 06 AUDIO
TITLE "EMERALD COAST - ACT 1 ''BLUE AZURE WORLD''"
PERFORMER "Jun Senoue"
ISRC JPX301272820
INDEX 01 00:00:00
FILE "07 - Jun Senoue - EMERALD COAST - ACT 2 ''WINDY AND RIPPLY''.wav" WAVE
TRACK 07 AUDIO
TITLE "EMERALD COAST - ACT 2 ''WINDY AND RIPPLY''"
PERFORMER "Jun Senoue"
ISRC JPX301272830
INDEX 01 00:00:00
FILE "08 - Jun Senoue - RADICAL HIGHWAY - ACT 1 ''VENGEANCE IS MINE - Cash Cash RMX''.wav" WAVE
TRACK 08 AUDIO
TITLE "RADICAL HIGHWAY - ACT 1 ''VENGEANCE IS MINE - Cash Cash RMX''"
PERFORMER "Jun Senoue"
ISRC JPX301272840
INDEX 01 00:00:00
FILE "09 - Jun Senoue - RADICAL HIGHWAY - ACT 2 ''VENGEANCE IS MINE - Circuit Freq RMX''.wav" WAVE
TRACK 09 AUDIO
TITLE "RADICAL HIGHWAY - ACT 2 ''VENGEANCE IS MINE - Circuit Freq RMX''"
PERFORMER "Jun Senoue"
ISRC JPX301272850
INDEX 01 00:00:00
FILE "10 - Hideki Naganuma - WATER PALACE - ACT 1 ''BACK 2 BACK - Digital Remakin' Track''.wav" WAVE
TRACK 10 AUDIO
TITLE "WATER PALACE - ACT 1 ''BACK 2 BACK - Digital Remakin' Track''"
PERFORMER "Hideki Naganuma"
ISRC JPX301272860
INDEX 01 00:00:00
FILE "11 - Hideki Naganuma - WATER PALACE - ACT 2 ''BACK 2 BACK - Cash Cash RMX''.wav" WAVE
TRACK 11 AUDIO
TITLE "WATER PALACE - ACT 2 ''BACK 2 BACK - Cash Cash RMX''"
PERFORMER "Hideki Naganuma"
ISRC JPX301272870
INDEX 01 00:00:00
FILE "12 - Tomoya Ohtani - TROPICAL RESORT - Color Power , Red Burst.wav" WAVE
TRACK 12 AUDIO
TITLE "TROPICAL RESORT - Color Power / Red Burst"
PERFORMER "Tomoya Ohtani"
ISRC JPX301272880
INDEX 01 00:00:00
FILE "13 - Tomoya Ohtani - TROPICAL RESORT - ACT 1.wav" WAVE
TRACK 13 AUDIO
TITLE "TROPICAL RESORT - ACT 1"
PERFORMER "Tomoya Ohtani"
ISRC JPX301272890
INDEX 01 00:00:00
FILE "14 - Tomoya Ohtani - TROPICAL RESORT - Color Power , Cyan Laser.wav" WAVE
TRACK 14 AUDIO
TITLE "TROPICAL RESORT - Color Power / Cyan Laser"
PERFORMER "Tomoya Ohtani"
ISRC JPX301272900
INDEX 01 00:00:00
FILE "15 - Tomoya Ohtani - TROPICAL RESORT - ACT 2.wav" WAVE
TRACK 15 AUDIO
TITLE "TROPICAL RESORT - ACT 2"
PERFORMER "Tomoya Ohtani"
ISRC JPX301272910
INDEX 01 00:00:00
FILE "16 - Jun Senoue - BOSS BATTLE - BIG ARMS.wav" WAVE
TRACK 16 AUDIO
TITLE "BOSS BATTLE - BIG ARMS"
PERFORMER "Jun Senoue"
ISRC JPX301272920
INDEX 01 00:00:00
FILE "17 - Heigo Tani & Fumie Kumatani - BOSS BATTLE - BIOLIZARD ''SUPPORTING ME...''.wav" WAVE
TRACK 17 AUDIO
TITLE "BOSS BATTLE - BIOLIZARD ''SUPPORTING ME...''"
PERFORMER "Heigo Tani & Fumie Kumatani"
ISRC JPX301272930
INDEX 01 00:00:00
FILE "18 - Jun Senoue - BOSS BATTLE - EGG EMPEROR.wav" WAVE
TRACK 18 AUDIO
TITLE "BOSS BATTLE - EGG EMPEROR"
PERFORMER "Jun Senoue"
ISRC JPX301272940
INDEX 01 00:00:00
FILE "19 - Naofumi Hataya - SPECIAL STAGE.wav" WAVE
TRACK 19 AUDIO
TITLE "SPECIAL STAGE"
PERFORMER "Naofumi Hataya"
ISRC JPX301272950
INDEX 01 00:00:00
FILE "20 - Masato Nakamura, SEGA, Jun Senoue, Hideki Naganuma, Tomoya Ohtani - END ROLL MEDLEY ver. 2.wav" WAVE
TRACK 20 AUDIO
TITLE "END ROLL MEDLEY ver. 2"
PERFORMER "Masato Nakamura, SEGA, Jun Senoue, Hideki Naganuma, Tomoya Ohtani"
ISRC JPX301272960
INDEX 01 00:00:00
FILE "21 - Richard Jacques - CHALLENGE , MISSION 1 ''SUPER SONIC RACING - Cash Cash vs. Jun Senoue RMX''.wav" WAVE
TRACK 21 AUDIO
TITLE "CHALLENGE / MISSION 1 ''SUPER SONIC RACING - Cash Cash vs. Jun Senoue RMX''"
PERFORMER "Richard Jacques"
ISRC JPX301272970
INDEX 01 00:00:00
FILE "22 - Jun Senoue - CHALLENGE , MISSION 2.wav" WAVE
TRACK 22 AUDIO
TITLE "CHALLENGE / MISSION 2"
PERFORMER "Jun Senoue"
ISRC JPX301272980
INDEX 01 00:00:00
FILE "23 - Kenchi Tokoi - CHALLENGE , MISSION 3.wav" WAVE
TRACK 23 AUDIO
TITLE "CHALLENGE / MISSION 3"
PERFORMER "Kenchi Tokoi"
ISRC JPX301272990
INDEX 01 00:00:00
FILE "24 - Jun Senoue - CHALLENGE , MISSION 4.wav" WAVE
TRACK 24 AUDIO
TITLE "CHALLENGE / MISSION 4"
PERFORMER "Jun Senoue"
ISRC JPX301273000
INDEX 01 00:00:00
FILE "25 - Richard Jacques - CHALLENGE , MISSION 5.wav" WAVE
TRACK 25 AUDIO
TITLE "CHALLENGE / MISSION 5"
PERFORMER "Richard Jacques"
ISRC JPX301273010
INDEX 01 00:00:00
AUDIOCHECKER v2.0 beta (build 457) - by Dester - opdester@freemail.hu 
~~~~~~~~~~~~~~~~~~~~~~~~~~~~~~~~~~
-=== DO NOT EDIT THIS FILE! ===-

Path: ...\Disc 2

01 -=- 01 - Masato Nakamura - TITLE ( Short ver.).flac -=- CDDA (100%)
02 -=- 02 - Masato Nakamura - CASINO NIGHT - ACT 1.flac -=- CDDA (100%)
03 -=- 03 - Masato Nakamura - CASINO NIGHT - ACT 2.flac -=- CDDA (100%)
04 -=- 04 - Naofumi Hataya - MUSHROOM HILL - ACT 1.flac -=- CDDA (100%)
05 -=- 05 - Naofumi Hataya - MUSHROOM HILL - ACT 2.flac -=- CDDA (100%)
06 -=- 06 - Jun Senoue - EMERALD COAST - ACT 1 ''BLUE AZURE WORLD''.flac -=- CDDA (100%)
07 -=- 07 - Jun Senoue - EMERALD COAST - ACT 2 ''WINDY AND RIPPLY''.flac -=- CDDA (100%)
08 -=- 08 - Jun Senoue - RADICAL HIGHWAY - ACT 1 ''VENGEANCE IS MINE - Cash Cash RMX''.flac -=- CDDA (99%)
09 -=- 09 - Jun Senoue - RADICAL HIGHWAY - ACT 2 ''VENGEANCE IS MINE - Circuit Freq RMX''.flac -=- CDDA (100%)
10 -=- 10 - Hideki Naganuma - WATER PALACE - ACT 1 ''BACK 2 BACK - Digital Remakin' Track''.flac -=- CDDA (100%)
11 -=- 11 - Hideki Naganuma - WATER PALACE - ACT 2 ''BACK 2 BACK - Cash Cash RMX''.flac -=- CDDA (100%)
12 -=- 12 - Tomoya Ohtani - TROPICAL RESORT - Color Power , Red Burst.flac -=- CDDA (100%)
13 -=- 13 - Tomoya Ohtani - TROPICAL RESORT - ACT 1.flac -=- CDDA (100%)
14 -=- 14 - Tomoya Ohtani - TROPICAL RESORT - Color Power , Cyan Laser.flac -=- CDDA (100%)
15 -=- 15 - Tomoya Ohtani - TROPICAL RESORT - ACT 2.flac -=- CDDA (100%)
16 -=- 16 - Jun Senoue - BOSS BATTLE - BIG ARMS.flac -=- CDDA (100%)
17 -=- 17 - Heigo Tani & Fumie Kumatani - BOSS BATTLE - BIOLIZARD ''SUPPORTING ME...''.flac -=- CDDA (100%)
18 -=- 18 - Jun Senoue - BOSS BATTLE - EGG EMPEROR.flac -=- CDDA (100%)
19 -=- 19 - Naofumi Hataya - SPECIAL STAGE.flac -=- CDDA (100%)
20 -=- 20 - Masato Nakamura, SEGA, Jun Senoue, Hideki Naganuma, Tomoya Ohtani - END ROLL MEDLEY ver. 2.flac -=- CDDA (100%)
21 -=- 21 - Richard Jacques - CHALLENGE , MISSION 1 ''SUPER SONIC RACING - Cash Cash vs. Jun Senoue RMX''.flac -=- CDDA (100%)
22 -=- 22 - Jun Senoue - CHALLENGE , MISSION 2.flac -=- CDDA (100%)
23 -=- 23 - Kenchi Tokoi - CHALLENGE , MISSION 3.flac -=- CDDA (100%)
24 -=- 24 - Jun Senoue - CHALLENGE , MISSION 4.flac -=- CDDA (100%)
25 -=- 25 - Richard Jacques - CHALLENGE , MISSION 5.flac -=- CDDA (100%)

Summary 99,96% CDDA

90405428
Продолжительность: 01:09:16
Треклист:
01. TITLE DEMO
02. RIVAL BATTLE - METAL SONIC ''STARDUST SPEEDWAY''
03. RIVAL BATTLE - METAL SONIC (US ver.) ''STARDUST SPEEDWAY''
04. RIVAL BATTLE - SHADOW THE HEDGEHOG ''FOR TRUE STORY - Circuit Freq RMX''
05. RIVAL BATTLE - SHADOW THE HEDGEHOG - Sonic Attack ''LIVE & LEARN (Short ver.)''
06. RIVAL BATTLE - SHADOW THE HEDGEHOG - Shadow Attack ''ALL HAIL SHADOW (Short ver.)''
07. RIVAL BATTLE - SILVER THE HEDGEHOG
08. BOSS BATTLE - DEATH EGG ROBOT
09. BOSS BATTLE - PERFECT CHAOS Pt-I ''OPEN YOUR HEART - Crush 40 vs. Circuit Freq RMX''
10. BOSS BATTLE - PERFECT CHAOS Pt-II ''PERFECT CHAOS REVIVAL!''
11. BOSS BATTLE - EGG DRAGOON
12. BOSS BATTLE - TIME EATER ver. 1
13. BOSS BATTLE - TIME EATER ver. 2
14. BOSS BATTLE - TIME EATER - Final Attack
15. WHITE SPACE MEDLEY
16. MENU 1
17. MENU 2
18. JINGLE - INVINCIBLE ver. 1
19. JINGLE - INVINCIBLE ver. 2
20. JINGLE - TIMER
21. JINGLE - ACT CLEAR
22. JINGLE - RESULT ver. 1
23. JINGLE - RESULT ver. 2
24. JINGLE - GAME OVER
25. SKILL - PRECIOUS TIME / RING TIME
26. SKILL - TIME BRAKE
27. SKILL SHOP
28. COLLECTION ROOM
29. GALLERY
30. CUT SCENE 1
31. CUT SCENE 2
32. CUT SCENE 3
33. CUT SCENE 4
34. CUT SCENE 5
35. CUT SCENE 6
36. CUT SCENE 7
37. CUT SCENE 8
38. CUT SCENE 9
39. CUT SCENE 10
Exact Audio Copy V1.0 beta 3 from 29. August 2011 

EAC extraction logfile from 11. January 2012, 18:42

Various Artists / SONIC GENERATIONS Original Soundtrack : Blue Blur - Disc 3

Used drive : ASUS BW-12B1ST Adapter: 0 ID: 1

Read mode : Secure
Utilize accurate stream : Yes
Defeat audio cache : Yes
Make use of C2 pointers : No

Read offset correction : 6
Overread into Lead-In and Lead-Out : No
Fill up missing offset samples with silence : Yes
Delete leading and trailing silent blocks : No
Null samples used in CRC calculations : Yes
Used interface : Native Win32 interface for Win NT & 2000
Gap handling : Appended to previous track

Used output format : User Defined Encoder
Selected bitrate : 1024 kBit/s
Quality : High
Add ID3 tag : No
Command line compressor : C:\Program Files (x86)\FLAC\flac.exe
Additional command line options : -8 -V -T "ARTIST=%artist%" -T "TITLE=%title%" -T "ALBUM=%albumtitle%" -T "DATE=%year%" -T "TRACKNUMBER=%tracknr%" -T "GENRE=%genre%" -T "PERFORMER=%albuminterpret%" -T "COMPOSER=%composer%" %haslyrics%--tag-from-file=LYRICS="%lyricsfile%"%haslyrics% -T "ALBUMARTIST=%albumartist%" -T "ALBUM ARTIST=%albumartist%" -T "DISCNUMBER=%cdnumber%" -T "TOTALDISCS=%totalcds%" -T "TOTALTRACKS=%numtracks%" -T "COMMENT=%comment%" %source% -o %dest%

TOC of the extracted CD

Track | Start | Length | Start sector | End sector
---------------------------------------------------------
1 | 0:00.00 | 0:41.57 | 0 | 3131
2 | 0:41.57 | 1:47.48 | 3132 | 11204
3 | 2:29.30 | 2:03.17 | 11205 | 20446
4 | 4:32.47 | 2:20.36 | 20447 | 30982
5 | 6:53.08 | 0:47.38 | 30983 | 34545
6 | 7:40.46 | 0:47.51 | 34546 | 38121
7 | 8:28.22 | 3:41.41 | 38122 | 54737
8 | 12:09.63 | 2:57.05 | 54738 | 68017
9 | 15:06.68 | 4:36.23 | 68018 | 88740
10 | 19:43.16 | 2:30.56 | 88741 | 100046
11 | 22:13.72 | 3:00.28 | 100047 | 113574
12 | 25:14.25 | 2:18.53 | 113575 | 123977
13 | 27:33.03 | 2:22.74 | 123978 | 134701
14 | 29:56.02 | 0:47.48 | 134702 | 138274
15 | 30:43.50 | 10:14.37 | 138275 | 184361
16 | 40:58.12 | 2:50.43 | 184362 | 197154
17 | 43:48.55 | 0:37.16 | 197155 | 199945
18 | 44:25.71 | 0:19.29 | 199946 | 201399
19 | 44:45.25 | 0:22.00 | 201400 | 203049
20 | 45:07.25 | 0:18.73 | 203050 | 204472
21 | 45:26.23 | 0:07.10 | 204473 | 205007
22 | 45:33.33 | 0:25.38 | 205008 | 206920
23 | 45:58.71 | 0:35.24 | 206921 | 209569
24 | 46:34.20 | 0:14.14 | 209570 | 210633
25 | 46:48.34 | 0:21.58 | 210634 | 212266
26 | 47:10.17 | 0:23.20 | 212267 | 214011
27 | 47:33.37 | 1:29.57 | 214012 | 220743
28 | 49:03.19 | 2:42.36 | 220744 | 232929
29 | 51:45.55 | 4:15.61 | 232930 | 252115
30 | 56:01.41 | 1:19.31 | 252116 | 258071
31 | 57:20.72 | 1:00.48 | 258072 | 262619
32 | 58:21.45 | 1:16.54 | 262620 | 268373
33 | 59:38.24 | 0:47.24 | 268374 | 271922
34 | 60:25.48 | 1:45.22 | 271923 | 279819
35 | 62:10.70 | 0:26.66 | 279820 | 281835
36 | 62:37.61 | 0:48.65 | 281836 | 285500
37 | 63:26.51 | 3:40.61 | 285501 | 302061
38 | 67:07.37 | 0:19.12 | 302062 | 303498
39 | 67:26.49 | 1:48.73 | 303499 | 311671

Track 1

Filename C:\Vegeta's Rips\01 - Jun Senoue - TITLE DEMO.wav

Pre-gap length 0:00:02.00

Peak level 98.8 %
Extraction speed 1.2 X
Track quality 100.0 %
Test CRC B7111654
Copy CRC B7111654
Track not present in AccurateRip database
Copy OK

Track 2

Filename C:\Vegeta's Rips\02 - Naofumi Hataya - RIVAL BATTLE - METAL SONIC ''STARDUST SPEEDWAY''.wav

Peak level 98.8 %
Extraction speed 1.8 X
Track quality 100.0 %
Test CRC 022919BD
Copy CRC 022919BD
Track not present in AccurateRip database
Copy OK

Track 3

Filename C:\Vegeta's Rips\03 - Spencer Nilsen - RIVAL BATTLE - METAL SONIC (US ver.) ''STARDUST SPEEDWAY''.wav

Peak level 98.8 %
Extraction speed 2.0 X
Track quality 100.0 %
Test CRC A67BA673
Copy CRC A67BA673
Track not present in AccurateRip database
Copy OK

Track 4

Filename C:\Vegeta's Rips\04 - Heigo Tani & Fumie Kumatani - RIVAL BATTLE - SHADOW THE HEDGEHOG ''FOR TRUE STORY - Circuit Freq RMX''.wav

Peak level 98.8 %
Extraction speed 2.1 X
Track quality 100.0 %
Test CRC 0FE94A66
Copy CRC 0FE94A66
Track not present in AccurateRip database
Copy OK

Track 5

Filename C:\Vegeta's Rips\05 - Jun Senoue - RIVAL BATTLE - SHADOW THE HEDGEHOG - Sonic Attack ''LIVE & LEARN (Short ver.)''.wav

Peak level 98.8 %
Extraction speed 1.5 X
Track quality 100.0 %
Test CRC BA3C7BC3
Copy CRC BA3C7BC3
Track not present in AccurateRip database
Copy OK

Track 6

Filename C:\Vegeta's Rips\06 - Jun Senoue - RIVAL BATTLE - SHADOW THE HEDGEHOG - Shadow Attack ''ALL HAIL SHADOW (Short ver.)''.wav

Peak level 98.8 %
Extraction speed 1.6 X
Track quality 100.0 %
Test CRC BFA706E1
Copy CRC BFA706E1
Track not present in AccurateRip database
Copy OK

Track 7

Filename C:\Vegeta's Rips\07 - Richard Jacques - RIVAL BATTLE - SILVER THE HEDGEHOG.wav

Peak level 91.6 %
Extraction speed 2.5 X
Track quality 100.0 %
Test CRC 2DE22773
Copy CRC 2DE22773
Track not present in AccurateRip database
Copy OK

Track 8

Filename C:\Vegeta's Rips\08 - Masato Nakamura - BOSS BATTLE - DEATH EGG ROBOT.wav

Peak level 98.8 %
Extraction speed 2.6 X
Track quality 100.0 %
Test CRC C524EDE0
Copy CRC C524EDE0
Track not present in AccurateRip database
Copy OK

Track 9

Filename C:\Vegeta's Rips\09 - Jun Senoue & Kenchi Tokoi - BOSS BATTLE - PERFECT CHAOS Pt-I ''OPEN YOUR HEART - Crush 40 vs. Circuit Freq RMX''.wav

Peak level 98.8 %
Extraction speed 2.9 X
Track quality 100.0 %
Test CRC 64B9E978
Copy CRC 64B9E978
Track not present in AccurateRip database
Copy OK

Track 10

Filename C:\Vegeta's Rips\10 - Kenchi Tokoi - BOSS BATTLE - PERFECT CHAOS Pt-II ''PERFECT CHAOS REVIVAL!''.wav

Peak level 90.1 %
Extraction speed 1.8 X
Track quality 99.9 %
Test CRC B8F25311
Copy CRC B8F25311
Track not present in AccurateRip database
Copy OK

Track 11

Filename C:\Vegeta's Rips\11 - Hideaki Kobayashi - BOSS BATTLE - EGG DRAGOON.wav

Peak level 98.8 %
Extraction speed 3.0 X
Track quality 100.0 %
Test CRC 7B7C3DC8
Copy CRC 7B7C3DC8
Track not present in AccurateRip database
Copy OK

Track 12

Filename C:\Vegeta's Rips\12 - Richard Jacques - BOSS BATTLE - TIME EATER ver. 1.wav

Peak level 98.8 %
Extraction speed 2.9 X
Track quality 100.0 %
Test CRC 9F77050D
Copy CRC 9F77050D
Track not present in AccurateRip database
Copy OK

Track 13

Filename C:\Vegeta's Rips\13 - Richard Jacques - BOSS BATTLE - TIME EATER ver. 2.wav

Peak level 98.8 %
Extraction speed 3.0 X
Track quality 100.0 %
Test CRC 1DA86466
Copy CRC 1DA86466
Track not present in AccurateRip database
Copy OK

Track 14

Filename C:\Vegeta's Rips\14 - Jun Senoue - BOSS BATTLE - TIME EATER - Final Attack.wav

Peak level 98.8 %
Extraction speed 2.1 X
Track quality 100.0 %
Test CRC 6331166B
Copy CRC 6331166B
Track not present in AccurateRip database
Copy OK

Track 15

Filename C:\Vegeta's Rips\15 - Jun Senoue, Masato Nakamura, SEGA, Tomoya Ohtani, Kenchi Tokoi, Naofumi Hataya, Mariko Nanba - WHITE SPACE MEDLEY.wav

Peak level 98.8 %
Extraction speed 3.4 X
Track quality 99.9 %
Test CRC 33B037EE
Copy CRC 33B037EE
Track not present in AccurateRip database
Copy OK

Track 16

Filename C:\Vegeta's Rips\16 - Naofumi Hataya - MENU 1.wav

Peak level 98.8 %
Extraction speed 3.5 X
Track quality 100.0 %
Test CRC BC3C1DF5
Copy CRC BC3C1DF5
Track not present in AccurateRip database
Copy OK

Track 17

Filename C:\Vegeta's Rips\17 - Naofumi Hataya - MENU 2.wav

Peak level 98.8 %
Extraction speed 2.1 X
Track quality 100.0 %
Test CRC 9892F4B0
Copy CRC 9892F4B0
Track not present in AccurateRip database
Copy OK

Track 18

Filename C:\Vegeta's Rips\18 - Masato Nakamura - JINGLE - INVINCIBLE ver. 1.wav

Peak level 98.8 %
Extraction speed 1.5 X
Track quality 100.0 %
Test CRC 5DB6DD19
Copy CRC 5DB6DD19
Track not present in AccurateRip database
Copy OK

Track 19

Filename C:\Vegeta's Rips\19 - Masato Nakamura - JINGLE - INVINCIBLE ver. 2.wav

Peak level 98.8 %
Extraction speed 1.6 X
Track quality 100.0 %
Test CRC 6683CF8A
Copy CRC 6683CF8A
Track not present in AccurateRip database
Copy OK

Track 20

Filename C:\Vegeta's Rips\20 - Jun Senoue - JINGLE - TIMER.wav

Peak level 98.8 %
Extraction speed 1.4 X
Track quality 100.0 %
Test CRC 76737FC3
Copy CRC 76737FC3
Track not present in AccurateRip database
Copy OK

Track 21

Filename C:\Vegeta's Rips\21 - Jun Senoue - JINGLE - ACT CLEAR.wav

Peak level 98.8 %
Extraction speed 0.6 X
Track quality 100.0 %
Test CRC 6B61A22C
Copy CRC 6B61A22C
Track not present in AccurateRip database
Copy OK

Track 22

Filename C:\Vegeta's Rips\22 - Jun Senoue - JINGLE - RESULT ver. 1.wav

Peak level 98.8 %
Extraction speed 1.8 X
Track quality 100.0 %
Test CRC 5239E215
Copy CRC 5239E215
Track not present in AccurateRip database
Copy OK

Track 23

Filename C:\Vegeta's Rips\23 - Jun Senoue - JINGLE - RESULT ver. 2.wav

Peak level 98.8 %
Extraction speed 2.1 X
Track quality 100.0 %
Test CRC D78EDF2F
Copy CRC D78EDF2F
Track not present in AccurateRip database
Copy OK

Track 24

Filename C:\Vegeta's Rips\24 - Jun Senoue - JINGLE - GAME OVER.wav

Peak level 98.8 %
Extraction speed 1.1 X
Track quality 100.0 %
Test CRC CD5BE385
Copy CRC CD5BE385
Track not present in AccurateRip database
Copy OK

Track 25

Filename C:\Vegeta's Rips\25 - Jun Senoue - SKILL - PRECIOUS TIME , RING TIME.wav

Peak level 98.8 %
Extraction speed 1.6 X
Track quality 100.0 %
Test CRC 6D002133
Copy CRC 6D002133
Track not present in AccurateRip database
Copy OK

Track 26

Filename C:\Vegeta's Rips\26 - Kenchi Tokoi - SKILL - TIME BRAKE.wav

Peak level 98.8 %
Extraction speed 1.6 X
Track quality 100.0 %
Test CRC 3D57124C
Copy CRC 3D57124C
Track not present in AccurateRip database
Copy OK

Track 27

Filename C:\Vegeta's Rips\27 - Masato Nakamura - SKILL SHOP.wav

Peak level 98.8 %
Extraction speed 3.2 X
Track quality 100.0 %
Test CRC 440B4606
Copy CRC 440B4606
Track not present in AccurateRip database
Copy OK

Track 28

Filename C:\Vegeta's Rips\28 - Jun Senoue - COLLECTION ROOM.wav

Peak level 98.8 %
Extraction speed 3.7 X
Track quality 100.0 %
Test CRC DFDE3520
Copy CRC DFDE3520
Track not present in AccurateRip database
Copy OK

Track 29

Filename C:\Vegeta's Rips\29 - Jun Senoue - GALLERY.wav

Peak level 98.8 %
Extraction speed 4.1 X
Track quality 100.0 %
Test CRC 0956D738
Copy CRC 0956D738
Track not present in AccurateRip database
Copy OK

Track 30

Filename C:\Vegeta's Rips\30 - Richard Jacques - CUT SCENE 1.wav

Peak level 98.8 %
Extraction speed 3.2 X
Track quality 100.0 %
Test CRC 28EE36F0
Copy CRC 28EE36F0
Track not present in AccurateRip database
Copy OK

Track 31

Filename C:\Vegeta's Rips\31 - Yutaka Minobe - CUT SCENE 2.wav

Peak level 98.5 %
Extraction speed 2.9 X
Track quality 100.0 %
Test CRC 484DF25D
Copy CRC 484DF25D
Track not present in AccurateRip database
Copy OK

Track 32

Filename C:\Vegeta's Rips\32 - Yasufumi Fukuda - CUT SCENE 3.wav

Peak level 98.8 %
Extraction speed 3.2 X
Track quality 100.0 %
Test CRC 605D3234
Copy CRC 605D3234
Track not present in AccurateRip database
Copy OK

Track 33

Filename C:\Vegeta's Rips\33 - Richard Jacques - CUT SCENE 4.wav

Peak level 98.8 %
Extraction speed 2.7 X
Track quality 100.0 %
Test CRC C23B1C76
Copy CRC C23B1C76
Track not present in AccurateRip database
Copy OK

Track 34

Filename C:\Vegeta's Rips\34 - Yutaka Minobe - CUT SCENE 5.wav

Peak level 98.8 %
Extraction speed 3.6 X
Track quality 100.0 %
Test CRC 915BA77B
Copy CRC 915BA77B
Track not present in AccurateRip database
Copy OK

Track 35

Filename C:\Vegeta's Rips\35 - Jun Senoue - CUT SCENE 6.wav

Peak level 98.8 %
Extraction speed 0.8 X
Track quality 99.6 %
Test CRC B997D01B
Copy CRC B997D01B
Track not present in AccurateRip database
Copy OK

Track 36

Filename C:\Vegeta's Rips\36 - Richard Jacques - CUT SCENE 7.wav

Peak level 98.8 %
Extraction speed 2.7 X
Track quality 100.0 %
Test CRC 27F05C3A
Copy CRC 27F05C3A
Track not present in AccurateRip database
Copy OK

Track 37

Filename C:\Vegeta's Rips\37 - Yasufumi Fukuda - CUT SCENE 8.wav

Peak level 98.8 %
Extraction speed 4.3 X
Track quality 100.0 %
Test CRC E3FA392D
Copy CRC E3FA392D
Track not present in AccurateRip database
Copy OK

Track 38

Filename C:\Vegeta's Rips\38 - Jun Senoue - CUT SCENE 9.wav

Peak level 98.8 %
Extraction speed 1.7 X
Track quality 100.0 %
Test CRC 168C98AF
Copy CRC 168C98AF
Track not present in AccurateRip database
Copy OK

Track 39

Filename C:\Vegeta's Rips\39 - Yasufumi Fukuda - CUT SCENE 10.wav

Peak level 98.8 %
Extraction speed 3.7 X
Track quality 100.0 %
Test CRC 6C04C9D4
Copy CRC 6C04C9D4
Track not present in AccurateRip database
Copy OK

None of the tracks are present in the AccurateRip database

No errors occurred

End of status report

---- CUETools DB Plugin V2.1.3

[CTDB TOCID: r0TOtqtbVFQOOQWiXhHt9Rrzj50-] disk not present in database, Submit result: r0TOtqtbVFQOOQWiXhHt9Rrzj50- has been uploaded

==== Log checksum B6C1389FBD968FCC207317981D4DB85AAEDCF168052B479EA583D052ACDC89D5 ====
REM GENRE "Video Game" 
REM DATE 2012
REM DISCID 4A103B27
REM COMMENT "ExactAudioCopy v1.0b3"
CATALOG 4571164382616
PERFORMER "Various Artists"
TITLE "SONIC GENERATIONS Original Soundtrack : Blue Blur - Disc 3"
FILE "01 - Jun Senoue - TITLE DEMO.wav" WAVE
TRACK 01 AUDIO
TITLE "TITLE DEMO"
PERFORMER "Jun Senoue"
ISRC JPX301273020
INDEX 01 00:00:00
FILE "02 - Naofumi Hataya - RIVAL BATTLE - METAL SONIC ''STARDUST SPEEDWAY''.wav" WAVE
TRACK 02 AUDIO
TITLE "RIVAL BATTLE - METAL SONIC ''STARDUST SPEEDWAY''"
PERFORMER "Naofumi Hataya"
ISRC JPX301273030
INDEX 01 00:00:00
FILE "03 - Spencer Nilsen - RIVAL BATTLE - METAL SONIC (US ver.) ''STARDUST SPEEDWAY''.wav" WAVE
TRACK 03 AUDIO
TITLE "RIVAL BATTLE - METAL SONIC (US ver.) ''STARDUST SPEEDWAY''"
PERFORMER "Spencer Nilsen"
ISRC JPX301273040
INDEX 01 00:00:00
FILE "04 - Heigo Tani & Fumie Kumatani - RIVAL BATTLE - SHADOW THE HEDGEHOG ''FOR TRUE STORY - Circuit Freq RMX''.wav" WAVE
TRACK 04 AUDIO
TITLE "RIVAL BATTLE - SHADOW THE HEDGEHOG ''FOR TRUE STORY - Circuit Freq RMX''"
PERFORMER "Heigo Tani & Fumie Kumatani"
ISRC JPX301273050
INDEX 01 00:00:00
FILE "05 - Jun Senoue - RIVAL BATTLE - SHADOW THE HEDGEHOG - Sonic Attack ''LIVE & LEARN (Short ver.)''.wav" WAVE
TRACK 05 AUDIO
TITLE "RIVAL BATTLE - SHADOW THE HEDGEHOG - Sonic Attack ''LIVE & LEARN (Short ver.)''"
PERFORMER "Jun Senoue"
ISRC JPX301273060
INDEX 01 00:00:00
FILE "06 - Jun Senoue - RIVAL BATTLE - SHADOW THE HEDGEHOG - Shadow Attack ''ALL HAIL SHADOW (Short ver.)''.wav" WAVE
TRACK 06 AUDIO
TITLE "RIVAL BATTLE - SHADOW THE HEDGEHOG - Shadow Attack ''ALL HAIL SHADOW (Short v..."
PERFORMER "Jun Senoue"
ISRC JPX301273070
INDEX 01 00:00:00
FILE "07 - Richard Jacques - RIVAL BATTLE - SILVER THE HEDGEHOG.wav" WAVE
TRACK 07 AUDIO
TITLE "RIVAL BATTLE - SILVER THE HEDGEHOG"
PERFORMER "Richard Jacques"
ISRC JPX301273080
INDEX 01 00:00:00
FILE "08 - Masato Nakamura - BOSS BATTLE - DEATH EGG ROBOT.wav" WAVE
TRACK 08 AUDIO
TITLE "BOSS BATTLE - DEATH EGG ROBOT"
PERFORMER "Masato Nakamura"
ISRC JPX301273090
INDEX 01 00:00:00
FILE "09 - Jun Senoue & Kenchi Tokoi - BOSS BATTLE - PERFECT CHAOS Pt-I ''OPEN YOUR HEART - Crush 40 vs. Circuit Freq RMX''.wav" WAVE
TRACK 09 AUDIO
TITLE "BOSS BATTLE - PERFECT CHAOS Pt-I ''OPEN YOUR HEART - Crush 40 vs. Circuit Fre..."
PERFORMER "Jun Senoue & Kenchi Tokoi"
ISRC JPX301273100
INDEX 01 00:00:00
FILE "10 - Kenchi Tokoi - BOSS BATTLE - PERFECT CHAOS Pt-II ''PERFECT CHAOS REVIVAL!''.wav" WAVE
TRACK 10 AUDIO
TITLE "BOSS BATTLE - PERFECT CHAOS Pt-II ''PERFECT CHAOS REVIVAL!''"
PERFORMER "Kenchi Tokoi"
ISRC JPX301273110
INDEX 01 00:00:00
FILE "11 - Hideaki Kobayashi - BOSS BATTLE - EGG DRAGOON.wav" WAVE
TRACK 11 AUDIO
TITLE "BOSS BATTLE - EGG DRAGOON"
PERFORMER "Hideaki Kobayashi"
ISRC JPX301273120
INDEX 01 00:00:00
FILE "12 - Richard Jacques - BOSS BATTLE - TIME EATER ver. 1.wav" WAVE
TRACK 12 AUDIO
TITLE "BOSS BATTLE - TIME EATER ver. 1"
PERFORMER "Richard Jacques"
ISRC JPX301273130
INDEX 01 00:00:00
FILE "13 - Richard Jacques - BOSS BATTLE - TIME EATER ver. 2.wav" WAVE
TRACK 13 AUDIO
TITLE "BOSS BATTLE - TIME EATER ver. 2"
PERFORMER "Richard Jacques"
ISRC JPX301273140
INDEX 01 00:00:00
FILE "14 - Jun Senoue - BOSS BATTLE - TIME EATER - Final Attack.wav" WAVE
TRACK 14 AUDIO
TITLE "BOSS BATTLE - TIME EATER - Final Attack"
PERFORMER "Jun Senoue"
ISRC JPX301273150
INDEX 01 00:00:00
FILE "15 - Jun Senoue, Masato Nakamura, SEGA, Tomoya Ohtani, Kenchi Tokoi, Naofumi Hataya, Mariko Nanba - WHITE SPACE MEDLEY.wav" WAVE
TRACK 15 AUDIO
TITLE "WHITE SPACE MEDLEY"
PERFORMER "Jun Senoue, Masato Nakamura, SEGA, Tomoya Ohtani, Kenchi Tokoi, Naofumi Hatay..."
ISRC JPX301273160
INDEX 01 00:00:00
FILE "16 - Naofumi Hataya - MENU 1.wav" WAVE
TRACK 16 AUDIO
TITLE "MENU 1"
PERFORMER "Naofumi Hataya"
ISRC JPX301273170
INDEX 01 00:00:00
FILE "17 - Naofumi Hataya - MENU 2.wav" WAVE
TRACK 17 AUDIO
TITLE "MENU 2"
PERFORMER "Naofumi Hataya"
ISRC JPX301273180
INDEX 01 00:00:00
FILE "18 - Masato Nakamura - JINGLE - INVINCIBLE ver. 1.wav" WAVE
TRACK 18 AUDIO
TITLE "JINGLE - INVINCIBLE ver. 1"
PERFORMER "Masato Nakamura"
ISRC JPX301273190
INDEX 01 00:00:00
FILE "19 - Masato Nakamura - JINGLE - INVINCIBLE ver. 2.wav" WAVE
TRACK 19 AUDIO
TITLE "JINGLE - INVINCIBLE ver. 2"
PERFORMER "Masato Nakamura"
ISRC JPX301273200
INDEX 01 00:00:00
FILE "20 - Jun Senoue - JINGLE - TIMER.wav" WAVE
TRACK 20 AUDIO
TITLE "JINGLE - TIMER"
PERFORMER "Jun Senoue"
ISRC JPX301273210
INDEX 01 00:00:00
FILE "21 - Jun Senoue - JINGLE - ACT CLEAR.wav" WAVE
TRACK 21 AUDIO
TITLE "JINGLE - ACT CLEAR"
PERFORMER "Jun Senoue"
ISRC JPX301273220
INDEX 01 00:00:00
FILE "22 - Jun Senoue - JINGLE - RESULT ver. 1.wav" WAVE
TRACK 22 AUDIO
TITLE "JINGLE - RESULT ver. 1"
PERFORMER "Jun Senoue"
ISRC JPX301273230
INDEX 01 00:00:00
FILE "23 - Jun Senoue - JINGLE - RESULT ver. 2.wav" WAVE
TRACK 23 AUDIO
TITLE "JINGLE - RESULT ver. 2"
PERFORMER "Jun Senoue"
ISRC JPX301273240
INDEX 01 00:00:00
FILE "24 - Jun Senoue - JINGLE - GAME OVER.wav" WAVE
TRACK 24 AUDIO
TITLE "JINGLE - GAME OVER"
PERFORMER "Jun Senoue"
ISRC JPX301273250
INDEX 01 00:00:00
FILE "25 - Jun Senoue - SKILL - PRECIOUS TIME , RING TIME.wav" WAVE
TRACK 25 AUDIO
TITLE "SKILL - PRECIOUS TIME / RING TIME"
PERFORMER "Jun Senoue"
ISRC JPX301273260
INDEX 01 00:00:00
FILE "26 - Kenchi Tokoi - SKILL - TIME BRAKE.wav" WAVE
TRACK 26 AUDIO
TITLE "SKILL - TIME BRAKE"
PERFORMER "Kenchi Tokoi"
ISRC JPX301273270
INDEX 01 00:00:00
FILE "27 - Masato Nakamura - SKILL SHOP.wav" WAVE
TRACK 27 AUDIO
TITLE "SKILL SHOP"
PERFORMER "Masato Nakamura"
ISRC JPX301273280
INDEX 01 00:00:00
FILE "28 - Jun Senoue - COLLECTION ROOM.wav" WAVE
TRACK 28 AUDIO
TITLE "COLLECTION ROOM"
PERFORMER "Jun Senoue"
ISRC JPX301273290
INDEX 01 00:00:00
FILE "29 - Jun Senoue - GALLERY.wav" WAVE
TRACK 29 AUDIO
TITLE "GALLERY"
PERFORMER "Jun Senoue"
ISRC JPX301273300
INDEX 01 00:00:00
FILE "30 - Richard Jacques - CUT SCENE 1.wav" WAVE
TRACK 30 AUDIO
TITLE "CUT SCENE 1"
PERFORMER "Richard Jacques"
ISRC JPX301273310
INDEX 01 00:00:00
FILE "31 - Yutaka Minobe - CUT SCENE 2.wav" WAVE
TRACK 31 AUDIO
TITLE "CUT SCENE 2"
PERFORMER "Yutaka Minobe"
ISRC JPX301273320
INDEX 01 00:00:00
FILE "32 - Yasufumi Fukuda - CUT SCENE 3.wav" WAVE
TRACK 32 AUDIO
TITLE "CUT SCENE 3"
PERFORMER "Yasufumi Fukuda"
ISRC JPX301273330
INDEX 01 00:00:00
FILE "33 - Richard Jacques - CUT SCENE 4.wav" WAVE
TRACK 33 AUDIO
TITLE "CUT SCENE 4"
PERFORMER "Richard Jacques"
ISRC JPX301273340
INDEX 01 00:00:00
FILE "34 - Yutaka Minobe - CUT SCENE 5.wav" WAVE
TRACK 34 AUDIO
TITLE "CUT SCENE 5"
PERFORMER "Yutaka Minobe"
ISRC JPX301273350
INDEX 01 00:00:00
FILE "35 - Jun Senoue - CUT SCENE 6.wav" WAVE
TRACK 35 AUDIO
TITLE "CUT SCENE 6"
PERFORMER "Jun Senoue"
ISRC JPX301273360
INDEX 01 00:00:00
FILE "36 - Richard Jacques - CUT SCENE 7.wav" WAVE
TRACK 36 AUDIO
TITLE "CUT SCENE 7"
PERFORMER "Richard Jacques"
ISRC JPX301273370
INDEX 01 00:00:00
FILE "37 - Yasufumi Fukuda - CUT SCENE 8.wav" WAVE
TRACK 37 AUDIO
TITLE "CUT SCENE 8"
PERFORMER "Yasufumi Fukuda"
ISRC JPX301273380
INDEX 01 00:00:00
FILE "38 - Jun Senoue - CUT SCENE 9.wav" WAVE
TRACK 38 AUDIO
TITLE "CUT SCENE 9"
PERFORMER "Jun Senoue"
ISRC JPX301273390
INDEX 01 00:00:00
FILE "39 - Yasufumi Fukuda - CUT SCENE 10.wav" WAVE
TRACK 39 AUDIO
TITLE "CUT SCENE 10"
PERFORMER "Yasufumi Fukuda"
ISRC JPX301273400
INDEX 01 00:00:00
AUDIOCHECKER v2.0 beta (build 457) - by Dester - opdester@freemail.hu 
~~~~~~~~~~~~~~~~~~~~~~~~~~~~~~~~~~
-=== DO NOT EDIT THIS FILE! ===-

Path: ...\Disc 3

01 -=- 01 - Jun Senoue - TITLE DEMO.flac -=- CDDA (100%)
02 -=- 02 - Naofumi Hataya - RIVAL BATTLE - METAL SONIC ''STARDUST SPEEDWAY''.flac -=- CDDA (100%)
03 -=- 03 - Spencer Nilsen - RIVAL BATTLE - METAL SONIC (US ver.) ''STARDUST SPEEDWAY''.flac -=- CDDA (100%)
04 -=- 04 - Heigo Tani & Fumie Kumatani - RIVAL BATTLE - SHADOW THE HEDGEHOG ''FOR TRUE STORY - Circuit Freq RMX''.flac -=- CDDA (100%)
05 -=- 05 - Jun Senoue - RIVAL BATTLE - SHADOW THE HEDGEHOG - Sonic Attack ''LIVE & LEARN (Short ver.)''.flac -=- CDDA (100%)
06 -=- 06 - Jun Senoue - RIVAL BATTLE - SHADOW THE HEDGEHOG - Shadow Attack ''ALL HAIL SHADOW (Short ver.)''.flac -=- CDDA (100%)
07 -=- 07 - Richard Jacques - RIVAL BATTLE - SILVER THE HEDGEHOG.flac -=- CDDA (100%)
08 -=- 08 - Masato Nakamura - BOSS BATTLE - DEATH EGG ROBOT.flac -=- CDDA (100%)
09 -=- 09 - Jun Senoue & Kenchi Tokoi - BOSS BATTLE - PERFECT CHAOS Pt-I ''OPEN YOUR HEART - Crush 40 vs. Circuit Freq RMX''.flac -=- CDDA (99%)
10 -=- 10 - Kenchi Tokoi - BOSS BATTLE - PERFECT CHAOS Pt-II ''PERFECT CHAOS REVIVAL!''.flac -=- CDDA (100%)
11 -=- 11 - Hideaki Kobayashi - BOSS BATTLE - EGG DRAGOON.flac -=- CDDA (100%)
12 -=- 12 - Richard Jacques - BOSS BATTLE - TIME EATER ver. 1.flac -=- CDDA (100%)
13 -=- 13 - Richard Jacques - BOSS BATTLE - TIME EATER ver. 2.flac -=- CDDA (100%)
14 -=- 14 - Jun Senoue - BOSS BATTLE - TIME EATER - Final Attack.flac -=- CDDA (100%)
15 -=- 15 - Jun Senoue, Masato Nakamura, SEGA, Tomoya Ohtani, Kenchi Tokoi, Naofumi Hataya, Mariko Nanba - WHITE SPACE MEDLEY.flac -=- CDDA (100%)
16 -=- 16 - Naofumi Hataya - MENU 1.flac -=- CDDA (100%)
17 -=- 17 - Naofumi Hataya - MENU 2.flac -=- CDDA (100%)
18 -=- 18 - Masato Nakamura - JINGLE - INVINCIBLE ver. 1.flac -=- CDDA (100%)
19 -=- 19 - Masato Nakamura - JINGLE - INVINCIBLE ver. 2.flac -=- CDDA (100%)
20 -=- 20 - Jun Senoue - JINGLE - TIMER.flac -=- CDDA (100%)
21 -=- 21 - Jun Senoue - JINGLE - ACT CLEAR.flac -=- CDDA (100%)
22 -=- 22 - Jun Senoue - JINGLE - RESULT ver. 1.flac -=- CDDA (100%)
23 -=- 23 - Jun Senoue - JINGLE - RESULT ver. 2.flac -=- CDDA (100%)
24 -=- 24 - Jun Senoue - JINGLE - GAME OVER.flac -=- CDDA (100%)
25 -=- 25 - Jun Senoue - SKILL - PRECIOUS TIME , RING TIME.flac -=- CDDA (100%)
26 -=- 26 - Kenchi Tokoi - SKILL - TIME BRAKE.flac -=- CDDA (100%)
27 -=- 27 - Masato Nakamura - SKILL SHOP.flac -=- CDDA (100%)
28 -=- 28 - Jun Senoue - COLLECTION ROOM.flac -=- CDDA (99%)
29 -=- 29 - Jun Senoue - GALLERY.flac -=- CDDA (99%)
30 -=- 30 - Richard Jacques - CUT SCENE 1.flac -=- CDDA (100%)
31 -=- 31 - Yutaka Minobe - CUT SCENE 2.flac -=- CDDA (100%)
32 -=- 32 - Yasufumi Fukuda - CUT SCENE 3.flac -=- CDDA (54%)
33 -=- 33 - Richard Jacques - CUT SCENE 4.flac -=- CDDA (94%)
34 -=- 34 - Yutaka Minobe - CUT SCENE 5.flac -=- CDDA (100%)
35 -=- 35 - Jun Senoue - CUT SCENE 6.flac -=- CDDA (100%)
36 -=- 36 - Richard Jacques - CUT SCENE 7.flac -=- CDDA (100%)
37 -=- 37 - Yasufumi Fukuda - CUT SCENE 8.flac -=- CDDA (100%)
38 -=- 38 - Jun Senoue - CUT SCENE 9.flac -=- CDDA (100%)
39 -=- 39 - Yasufumi Fukuda - CUT SCENE 10.flac -=- CDDA (100%)

Summary 98,59% CDDA

240863076
info [Профиль]  [ЛС] 

sergfila

Пол: Пол:Муж

Стаж: 10 лет

Сообщений: 364

Россия
Рейтинг

post 24-Мар-2012 10:24 (спустя 8 дней) [-]0[+]

[Цитировать] 

ух ты Улыбаюсь , спасибо... Подмигиваю

_________________
info [Профиль]  [ЛС] 

Ritsu

Пол: Пол:Муж

Стаж: 10 лет

Сообщений: 881

Австралия
Рейтинг

post 13-Апр-2012 00:17 (спустя 19 дней) [-]0[+]

[Цитировать] 

МОЙ БОГ Я ЛЮБЛЮ ТЕБЯ, ХОТЬ И АТЕИСТ!!1

Огромное спасибо за раздачу, блииин, качаю, всё Улыбаюсь

_________________
Флудите вместе с Рицу и будет вам счастье! ^__^

"...Зажжем рок в этой дыре!.."
info [Профиль]  [ЛС] 

GreyYar

Пол: Пол:Муж

Стаж: 11 лет

Сообщений: 196

Россия
Рейтинг

post 05-Сен-2014 22:27 (спустя 2 года 4 месяца) [-]0[+]

[Цитировать] 

Спасибо за отличный OST Подмигиваю
info [Профиль]  [ЛС] 
Показать сообщения:    
Ответить на тему

Текущее время: 23-Май 06:30

Часовой пояс: GMT + 4



Вы не можете начинать темы
Вы не можете отвечать на сообщения
Вы не можете редактировать свои сообщения
Вы не можете удалять свои сообщения
Вы не можете голосовать в опросах
Вы не можете прикреплять файлы к сообщениям
Вы не можете скачивать файлы