Ошибка

(Hard Rock/Pop Rock) Phenomena - The Complete Works - 2006, FLAC (tracks+.cue), lossless

Ответить на тему
 
Автор Сообщение

TheMrMafiozi

Пол: Пол:Муж

Стаж: 10 лет

Сообщений: 859

СССР
Рейтинг

post 01-Ноя-2010 19:04 0[+]

[Цитировать] 

Phenomena - The Complete Works

Жанр: Hard Rock/Pop Rock
Производитель диска: UK
Год издания данного носителя: 2006
Лейбл: Escape Music
Каталоговый номер: ESM142
Тип релиза: tracks+.cue
Аудио кодек: FLAC
Битрейт аудио: lossless
Продолжительность: 3 CD's
Полиграфия: присутствует
Треклист:
01. Kiss Of Fire (4:54)
02. Still The Night (3:28)
03. Dance With The Devil (4:44)
04. Phoenix Rising (4:44)
05. Believe (5:53)
06. Who's Watching You (3:41)
07. Hell On Wings (3:56)
08. Twilight Zone (4:14)
09. Phenomena (2:06)
10. Still The Night (New Recording) (3:39)
11. Karma (5:22)
12. Coming Back Strong (First Ever Phenomena Rehearsal) (4:37)
13. Assassins Of The Night (First Ever Phenomena Rehearsal) (5:30)
14. Phoenix Rising (First Ever Phenomena Rehearsal) (6:01)
Exact Audio Copy V0.99 prebeta 4 from 23. January 2008

Отчёт EAC об извлечении, выполненном 11. февраля 2009, 9:24

Phenomena / Phenomena (The Complete Works)

Дисковод: Optiarc DVD RW AD-7200S Adapter: 0 ID: 1

Режим чтения : Достоверность
Использование точного потока : Да
Отключение кэша аудио : Да
Использование указателей C2 : Нет

Коррекция смещения при чтении : 48
Способность читать области Lead-in и Lead-out : Нет
Заполнение пропущенных сэмплов тишиной : Да
Удаление блоков с тишиной в начале и конце : Нет
При вычислениях CRC использовались нулевые сэмплы : Да
Интерфейс : Встроенный Win32-интерфейс для Win NT/2000

Выходной формат : Внутренние WAV-операции
Формат сэмплов : 44.100 Гц; 16 бит; стерео

TOC извлечённого CD

Трек | Старт | Длительность | Начальный сектор | Конечный сектор
---------------------------------------------------------------------
1 | 0:00.00 | 4:53.61 | 0 | 22035
2 | 4:53.61 | 3:27.45 | 22036 | 37605
3 | 8:21.31 | 4:44.01 | 37606 | 58906
4 | 13:05.32 | 4:44.15 | 58907 | 80221
5 | 17:49.47 | 5:53.02 | 80222 | 106698
6 | 23:42.49 | 3:41.32 | 106699 | 123305
7 | 27:24.06 | 3:56.10 | 123306 | 141015
8 | 31:20.16 | 4:13.57 | 141016 | 160047
9 | 35:33.73 | 2:05.69 | 160048 | 169491
10 | 37:39.67 | 3:39.17 | 169492 | 185933
11 | 41:19.09 | 5:21.53 | 185934 | 210061
12 | 46:40.62 | 4:36.50 | 210062 | 230811
13 | 51:17.37 | 5:30.24 | 230812 | 255585
14 | 56:47.61 | 6:01.04 | 255586 | 282664

Характеристики диапазона извлечения и сообщения об ошибках

Выбранный диапазон

Имя файла D:\Download\Моя Раздача\Phenomena - The Complete Works\CD 1\Phenomena - Phenomena (The Complete Works).wav

Пиковый уровень 99.6 %
Качество диапазона 100.0 %
CRC копии 486B840B
Копирование... OK

Ошибок не произошло

AccurateRip: сводка
Трек 1 точное извлечение (доверие 5) [5261DD0E]
Трек 2 точное извлечение (доверие 5) [8FD9B8C4]
Трек 3 точное извлечение (доверие 5) [C49C3F1E]
Трек 4 точное извлечение (доверие 5) [E35C84CE]
Трек 5 точное извлечение (доверие 5) [9A9A5ED2]
Трек 6 точное извлечение (доверие 5) [1AA4951E]
Трек 7 точное извлечение (доверие 5) [3D45971C]
Трек 8 точное извлечение (доверие 5) [095AE8B0]
Трек 9 точное извлечение (доверие 5) [B00A1349]
Трек 10 точное извлечение (доверие 5) [E0367800]
Трек 11 точное извлечение (доверие 5) [8E1DD057]
Трек 12 точное извлечение (доверие 5) [326C26F0]
Трек 13 точное извлечение (доверие 5) [CFAD7D3B]
Трек 14 точное извлечение (доверие 5) [C642B767]
Все треки извлечены точно

Конец отчёта

Код:

PERFORMER "Phenomena"
TITLE "Phenomena (The Complete Works)"
FILE "L:\Phenomena\Phenomena - The Complete Works - (3CD Box Set) (2006) [FLAC]\CD 1\01 Kiss Of Fire.wav" WAVE
  TRACK 01 AUDIO
    TITLE "Kiss Of Fire"
    PERFORMER "Phenomena"
    INDEX 01 00:00:00
FILE "L:\Phenomena\Phenomena - The Complete Works - (3CD Box Set) (2006) [FLAC]\CD 1\02 Still The Night.wav" WAVE
  TRACK 02 AUDIO
    TITLE "Still The Night"
    PERFORMER "Phenomena"
    INDEX 01 00:00:00
  TRACK 03 AUDIO
    TITLE "Dance With The Devil"
    PERFORMER "Phenomena"
    INDEX 00 03:26:45
FILE "L:\Phenomena\Phenomena - The Complete Works - (3CD Box Set) (2006) [FLAC]\CD 1\03 Dance With The Devil.wav" WAVE
    INDEX 01 00:00:00
FILE "L:\Phenomena\Phenomena - The Complete Works - (3CD Box Set) (2006) [FLAC]\CD 1\04 Phoenix Rising.wav" WAVE
  TRACK 04 AUDIO
    TITLE "Phoenix Rising"
    PERFORMER "Phenomena"
    INDEX 01 00:00:00
FILE "L:\Phenomena\Phenomena - The Complete Works - (3CD Box Set) (2006) [FLAC]\CD 1\05 Believe.wav" WAVE
  TRACK 05 AUDIO
    TITLE "Believe"
    PERFORMER "Phenomena"
    INDEX 01 00:00:00
FILE "L:\Phenomena\Phenomena - The Complete Works - (3CD Box Set) (2006) [FLAC]\CD 1\06 Who's Watching You.wav" WAVE
  TRACK 06 AUDIO
    TITLE "Who's Watching You"
    PERFORMER "Phenomena"
    INDEX 01 00:00:00
  TRACK 07 AUDIO
    TITLE "Hell On Wings"
    PERFORMER "Phenomena"
    INDEX 00 03:40:32
FILE "L:\Phenomena\Phenomena - The Complete Works - (3CD Box Set) (2006) [FLAC]\CD 1\07 Hell On Wings.wav" WAVE
    INDEX 01 00:00:00
  TRACK 08 AUDIO
    TITLE "Twilight Zone"
    PERFORMER "Phenomena"
    INDEX 00 03:54:10
FILE "L:\Phenomena\Phenomena - The Complete Works - (3CD Box Set) (2006) [FLAC]\CD 1\08 Twilight Zone.wav" WAVE
    INDEX 01 00:00:00
FILE "L:\Phenomena\Phenomena - The Complete Works - (3CD Box Set) (2006) [FLAC]\CD 1\09 Phenomena.wav" WAVE
  TRACK 09 AUDIO
    TITLE "Phenomena"
    PERFORMER "Phenomena"
    INDEX 01 00:00:00
  TRACK 10 AUDIO
    TITLE "Still The Night (New Recording)"
    PERFORMER "Phenomena"
    INDEX 00 02:03:69
FILE "L:\Phenomena\Phenomena - The Complete Works - (3CD Box Set) (2006) [FLAC]\CD 1\10 Still The Night (New Recording).wav" WAVE
    INDEX 01 00:00:00
  TRACK 11 AUDIO
    TITLE "Karma"
    PERFORMER "Phenomena"
    INDEX 00 03:37:17
FILE "L:\Phenomena\Phenomena - The Complete Works - (3CD Box Set) (2006) [FLAC]\CD 1\11 Karma.wav" WAVE
    INDEX 01 00:00:00
  TRACK 12 AUDIO
    TITLE "Coming Back Strong (First Ever Phenomena Rehearsal)"
    PERFORMER "Phenomena"
    INDEX 00 05:19:53
FILE "L:\Phenomena\Phenomena - The Complete Works - (3CD Box Set) (2006) [FLAC]\CD 1\12 Coming Back Strong (First Ever Phenomena Rehearsal).wav" WAVE
    INDEX 01 00:00:00
  TRACK 13 AUDIO
    TITLE "Assassins Of The Night (First Ever Phenomena Rehearsal)"
    PERFORMER "Phenomena"
    INDEX 00 04:34:50
FILE "L:\Phenomena\Phenomena - The Complete Works - (3CD Box Set) (2006) [FLAC]\CD 1\13 Assassins Of The Night (First Ever Phenomena Rehearsal).wav" WAVE
    INDEX 01 00:00:00
  TRACK 14 AUDIO
    TITLE "Phoenix Rising (First Ever Phenomena Rehearsal)"
    PERFORMER "Phenomena"
    INDEX 00 05:28:24
FILE "L:\Phenomena\Phenomena - The Complete Works - (3CD Box Set) (2006) [FLAC]\CD 1\14 Phoenix Rising (First Ever Phenomena Rehearsal).wav" WAVE
    INDEX 01 00:00:00
01. Stop (4:37)
02. Surrender (3:24)
03. Did It All For Love (4:59)
04. Hearts On Fire (4:53)
05. Juke Box (3:48)
06. Double 6, 55, 44... (4:10)
07. No Retreat-No Surrender (4:17)
08. Move-You Loose (3:36)
09. Emotion Mama (3:46)
10. It Must Be Love (3:56)
11. Did It All For Love (New Recording) (4:28)
12. Forever (5:05)
Exact Audio Copy V0.99 prebeta 4 from 23. January 2008

Отчёт EAC об извлечении, выполненном 11. февраля 2009, 9:48

Phenomena / Phenomena II - Dream Runner (The Complete Works)

Дисковод: Optiarc DVD RW AD-7200S Adapter: 0 ID: 1

Режим чтения : Достоверность
Использование точного потока : Да
Отключение кэша аудио : Да
Использование указателей C2 : Нет

Коррекция смещения при чтении : 48
Способность читать области Lead-in и Lead-out : Нет
Заполнение пропущенных сэмплов тишиной : Да
Удаление блоков с тишиной в начале и конце : Нет
При вычислениях CRC использовались нулевые сэмплы : Да
Интерфейс : Встроенный Win32-интерфейс для Win NT/2000

Выходной формат : Внутренние WAV-операции
Формат сэмплов : 44.100 Гц; 16 бит; стерео

TOC извлечённого CD

Трек | Старт | Длительность | Начальный сектор | Конечный сектор
---------------------------------------------------------------------
1 | 0:00.00 | 4:36.57 | 0 | 20756
2 | 4:36.57 | 3:23.64 | 20757 | 36045
3 | 8:00.46 | 4:59.10 | 36046 | 58480
4 | 12:59.56 | 4:53.36 | 58481 | 80491
5 | 17:53.17 | 3:47.39 | 80492 | 97555
6 | 21:40.56 | 4:10.25 | 97556 | 116330
7 | 25:51.06 | 4:16.64 | 116331 | 135594
8 | 30:07.70 | 3:35.69 | 135595 | 151788
9 | 33:43.64 | 3:46.35 | 151789 | 168773
10 | 37:30.24 | 3:55.58 | 168774 | 186456
11 | 41:26.07 | 4:28.12 | 186457 | 206568
12 | 45:54.19 | 5:05.62 | 206569 | 229505

Характеристики диапазона извлечения и сообщения об ошибках

Выбранный диапазон

Имя файла D:\Download\Моя Раздача\Phenomena - The Complete Works\CD 2\Phenomena - Phenomena II - Dream Runner (The Complete Works).wav

Пиковый уровень 94.4 %
Качество диапазона 100.0 %
CRC копии 7DB6E410
Копирование... OK

Ошибок не произошло

AccurateRip: сводка
Трек 1 точное извлечение (доверие 2) [040BD91A]
Трек 2 точное извлечение (доверие 2) [0A3E663E]
Трек 3 точное извлечение (доверие 2) [E0FD29DD]
Трек 4 точное извлечение (доверие 2) [4F71929A]
Трек 5 точное извлечение (доверие 2) [CA2226E5]
Трек 6 точное извлечение (доверие 2) [AD5AAB85]
Трек 7 точное извлечение (доверие 2) [0B090CE0]
Трек 8 точное извлечение (доверие 2) [F326704E]
Трек 9 точное извлечение (доверие 2) [32387A5A]
Трек 10 точное извлечение (доверие 2) [EF972013]
Трек 11 точное извлечение (доверие 2) [A86254F4]
Трек 12 точное извлечение (доверие 2) [34F226FC]
Все треки извлечены точно

Конец отчёта

Код:

PERFORMER "Phenomena"
TITLE "Phenomena II - Dream Runner (The Complete Works)"
FILE "L:\Phenomena\Phenomena - The Complete Works - (3CD Box Set) (2006) [FLAC]\CD 2\01 Stop.wav" WAVE
  TRACK 01 AUDIO
    TITLE "Stop"
    PERFORMER "Phenomena"
    INDEX 01 00:00:00
FILE "L:\Phenomena\Phenomena - The Complete Works - (3CD Box Set) (2006) [FLAC]\CD 2\02 Surrender.wav" WAVE
  TRACK 02 AUDIO
    TITLE "Surrender"
    PERFORMER "Phenomena"
    INDEX 01 00:00:00
  TRACK 03 AUDIO
    TITLE "Did It All For Love"
    PERFORMER "Phenomena"
    INDEX 00 03:22:64
FILE "L:\Phenomena\Phenomena - The Complete Works - (3CD Box Set) (2006) [FLAC]\CD 2\03 Did It All For Love.wav" WAVE
    INDEX 01 00:00:00
FILE "L:\Phenomena\Phenomena - The Complete Works - (3CD Box Set) (2006) [FLAC]\CD 2\04 Hearts On Fire.wav" WAVE
  TRACK 04 AUDIO
    TITLE "Hearts On Fire"
    PERFORMER "Phenomena"
    INDEX 01 00:00:00
FILE "L:\Phenomena\Phenomena - The Complete Works - (3CD Box Set) (2006) [FLAC]\CD 2\05 Juke Box.wav" WAVE
  TRACK 05 AUDIO
    TITLE "Juke Box"
    PERFORMER "Phenomena"
    INDEX 01 00:00:00
FILE "L:\Phenomena\Phenomena - The Complete Works - (3CD Box Set) (2006) [FLAC]\CD 2\06 Double 6, 55, 44....wav" WAVE
  TRACK 06 AUDIO
    TITLE "Double 6, 55, 44..."
    PERFORMER "Phenomena"
    INDEX 01 00:00:00
  TRACK 07 AUDIO
    TITLE "No Retreat-No Surrender"
    PERFORMER "Phenomena"
    INDEX 00 04:08:26
FILE "L:\Phenomena\Phenomena - The Complete Works - (3CD Box Set) (2006) [FLAC]\CD 2\07 No Retreat-No Surrender.wav" WAVE
    INDEX 01 00:00:00
FILE "L:\Phenomena\Phenomena - The Complete Works - (3CD Box Set) (2006) [FLAC]\CD 2\08 Move-You Lose.wav" WAVE
  TRACK 08 AUDIO
    TITLE "Move-You Lose"
    PERFORMER "Phenomena"
    INDEX 01 00:00:00
FILE "L:\Phenomena\Phenomena - The Complete Works - (3CD Box Set) (2006) [FLAC]\CD 2\09 Emotion Mama.wav" WAVE
  TRACK 09 AUDIO
    TITLE "Emotion Mama"
    PERFORMER "Phenomena"
    INDEX 01 00:00:00
  TRACK 10 AUDIO
    TITLE "It Must Be Love"
    PERFORMER "Phenomena"
    INDEX 00 03:45:35
FILE "L:\Phenomena\Phenomena - The Complete Works - (3CD Box Set) (2006) [FLAC]\CD 2\10 It Must Be Love.wav" WAVE
    INDEX 01 00:00:00
FILE "L:\Phenomena\Phenomena - The Complete Works - (3CD Box Set) (2006) [FLAC]\CD 2\11 Did It All For Love (New Recording).wav" WAVE
  TRACK 11 AUDIO
    TITLE "Did It All For Love (New Recording)"
    PERFORMER "Phenomena"
    INDEX 01 00:00:00
FILE "L:\Phenomena\Phenomena - The Complete Works - (3CD Box Set) (2006) [FLAC]\CD 2\12 Forever.wav" WAVE
  TRACK 12 AUDIO
    TITLE "Forever"
    PERFORMER "Phenomena"
    INDEX 01 00:00:00
01. Rock House (4:18)
02. Banzi (4:40)
03. What About Love (5:02)
04. Into The Fire (4:27)
05. A Whole Lot Of Love (5:40)
06. Secret Love (3:57)
07. If You Want To Rock (4:21)
08. How Much Do You Love Me (4:01)
09. Shape It Up (3:41)
10. Rock My Soul (5:04)
11. No Retreat No Surrender (New Recording) (4:13)
12. Scalpel & Heart (1:55)
Exact Audio Copy V0.99 prebeta 4 from 23. January 2008

Отчёт EAC об извлечении, выполненном 11. февраля 2009, 10:25

Phenomena / Phenomena III - Innervision (The Complete Works)

Дисковод: Optiarc DVD RW AD-7200S Adapter: 0 ID: 1

Режим чтения : Достоверность
Использование точного потока : Да
Отключение кэша аудио : Да
Использование указателей C2 : Нет

Коррекция смещения при чтении : 48
Способность читать области Lead-in и Lead-out : Нет
Заполнение пропущенных сэмплов тишиной : Да
Удаление блоков с тишиной в начале и конце : Нет
При вычислениях CRC использовались нулевые сэмплы : Да
Интерфейс : Встроенный Win32-интерфейс для Win NT/2000

Выходной формат : Внутренние WAV-операции
Формат сэмплов : 44.100 Гц; 16 бит; стерео

TOC извлечённого CD

Трек | Старт | Длительность | Начальный сектор | Конечный сектор
---------------------------------------------------------------------
1 | 0:00.00 | 4:17.51 | 0 | 19325
2 | 4:17.51 | 4:39.41 | 19326 | 40291
3 | 8:57.17 | 5:02.33 | 40292 | 62974
4 | 13:59.50 | 4:27.17 | 62975 | 83016
5 | 18:26.67 | 5:40.35 | 83017 | 108551
6 | 24:07.27 | 3:57.34 | 108552 | 126360
7 | 28:04.61 | 4:20.69 | 126361 | 145929
8 | 32:25.55 | 4:00.68 | 145930 | 163997
9 | 36:26.48 | 3:41.33 | 163998 | 180605
10 | 40:08.06 | 5:04.22 | 180606 | 203427
11 | 45:12.28 | 4:13.23 | 203428 | 222425
12 | 49:25.51 | 1:51.13 | 222426 | 230763

Характеристики диапазона извлечения и сообщения об ошибках

Выбранный диапазон

Имя файла D:\Download\Моя Раздача\Phenomena - The Complete Works\CD 3\Phenomena - Phenomena III - Innervision (The Complete Works).wav

Пиковый уровень 96.6 %
Качество диапазона 100.0 %
CRC копии EE749D8A
Копирование... OK

Ошибок не произошло

AccurateRip: сводка
Трек 1 точное извлечение (доверие 5) [3BF5EC33]
Трек 2 точное извлечение (доверие 5) [31CB7CF5]
Трек 3 точное извлечение (доверие 5) [A2233248]
Трек 4 точное извлечение (доверие 5) [096ECEE2]
Трек 5 точное извлечение (доверие 5) [2FCF4539]
Трек 6 точное извлечение (доверие 5) [A069EAE0]
Трек 7 точное извлечение (доверие 5) [1B0A53F5]
Трек 8 точное извлечение (доверие 5) [FA94B176]
Трек 9 точное извлечение (доверие 5) [18C49E1A]
Трек 10 точное извлечение (доверие 5) [9EA79E70]
Трек 11 точное извлечение (доверие 5) [A726E1EA]
Трек 12 точное извлечение (доверие 5) [7BCC960B]
Все треки извлечены точно

Конец отчёта

Код:

PERFORMER "Phenomena"
TITLE "Phenomena III - Innervision (The Complete Works)"
FILE "L:\Phenomena\Phenomena - The Complete Works - (3CD Box Set) (2006) [FLAC]\CD 3\01 Rock House.wav" WAVE
  TRACK 01 AUDIO
    TITLE "Rock House"
    PERFORMER "Phenomena"
    INDEX 01 00:00:00
  TRACK 02 AUDIO
    TITLE "Banzi"
    PERFORMER "Phenomena"
    INDEX 00 04:15:51
FILE "L:\Phenomena\Phenomena - The Complete Works - (3CD Box Set) (2006) [FLAC]\CD 3\02 Banzi.wav" WAVE
    INDEX 01 00:00:00
  TRACK 03 AUDIO
    TITLE "What About Love"
    PERFORMER "Phenomena"
    INDEX 00 04:37:41
FILE "L:\Phenomena\Phenomena - The Complete Works - (3CD Box Set) (2006) [FLAC]\CD 3\03 What About Love.wav" WAVE
    INDEX 01 00:00:00
  TRACK 04 AUDIO
    TITLE "Into The Fire"
    PERFORMER "Phenomena"
    INDEX 00 05:00:33
FILE "L:\Phenomena\Phenomena - The Complete Works - (3CD Box Set) (2006) [FLAC]\CD 3\04 Into The Fire.wav" WAVE
    INDEX 01 00:00:00
  TRACK 05 AUDIO
    TITLE "A Whole Lot Of Love"
    PERFORMER "Phenomena"
    INDEX 00 04:25:17
FILE "L:\Phenomena\Phenomena - The Complete Works - (3CD Box Set) (2006) [FLAC]\CD 3\05 A Whole Lot Of Love.wav" WAVE
    INDEX 01 00:00:00
  TRACK 06 AUDIO
    TITLE "Secret Love"
    PERFORMER "Phenomena"
    INDEX 00 05:38:35
FILE "L:\Phenomena\Phenomena - The Complete Works - (3CD Box Set) (2006) [FLAC]\CD 3\06 Secret Love.wav" WAVE
    INDEX 01 00:00:00
  TRACK 07 AUDIO
    TITLE "If You Want To Rock"
    PERFORMER "Phenomena"
    INDEX 00 03:55:34
FILE "L:\Phenomena\Phenomena - The Complete Works - (3CD Box Set) (2006) [FLAC]\CD 3\07 If You Want To Rock.wav" WAVE
    INDEX 01 00:00:00
  TRACK 08 AUDIO
    TITLE "How Much Do You Love Me"
    PERFORMER "Phenomena"
    INDEX 00 04:18:69
FILE "L:\Phenomena\Phenomena - The Complete Works - (3CD Box Set) (2006) [FLAC]\CD 3\08 How Much Do You Love Me.wav" WAVE
    INDEX 01 00:00:00
  TRACK 09 AUDIO
    TITLE "Shape It Up"
    PERFORMER "Phenomena"
    INDEX 00 03:58:68
FILE "L:\Phenomena\Phenomena - The Complete Works - (3CD Box Set) (2006) [FLAC]\CD 3\09 Shape It Up.wav" WAVE
    INDEX 01 00:00:00
  TRACK 10 AUDIO
    TITLE "Rock My Soul"
    PERFORMER "Phenomena"
    INDEX 00 03:39:33
FILE "L:\Phenomena\Phenomena - The Complete Works - (3CD Box Set) (2006) [FLAC]\CD 3\10 Rock My Soul.wav" WAVE
    INDEX 01 00:00:00
  TRACK 11 AUDIO
    TITLE "No Retreat No Surrender (New Recording)"
    PERFORMER "Phenomena"
    INDEX 00 05:02:22
FILE "L:\Phenomena\Phenomena - The Complete Works - (3CD Box Set) (2006) [FLAC]\CD 3\11 No Retreat No Surrender (New Recording).wav" WAVE
    INDEX 01 00:00:00
  TRACK 12 AUDIO
    TITLE "Scalpel & Heart"
    PERFORMER "Phenomena"
    INDEX 00 04:11:23
FILE "L:\Phenomena\Phenomena - The Complete Works - (3CD Box Set) (2006) [FLAC]\CD 3\12 Scalpel & Heart.wav" WAVE
    INDEX 01 00:00:00
info [Профиль]  [ЛС] 
Показать сообщения:    
Ответить на тему

Текущее время: 13-Июл 00:48

Часовой пояс: GMT + 4



Вы не можете начинать темы
Вы не можете отвечать на сообщения
Вы не можете редактировать свои сообщения
Вы не можете удалять свои сообщения
Вы не можете голосовать в опросах
Вы не можете прикреплять файлы к сообщениям
Вы не можете скачивать файлы