Ошибка

(Trance) Ferry Corsten - Twice in a Blue Moon - 2008, FLAC (tracks+.cue)+covers, lossless

Ответить на тему
 
Автор Сообщение

Fokich

Пол: Пол:Муж

Стаж: 12 лет

Сообщений: 259

Россия
Рейтинг

post 31-Окт-2010 10:48 0[+]

[Цитировать] 

Ferry Corsten - Twice in a Blue Moon

Жанр: Trance
Происхождение исполнителя: Netherlands
Год издания данного носителя: 2008
Страна-производитель носителя: Netherlands
Тип релиза: tracks+.cue
Аудио кодек: FLAC
Битрейт аудио: lossless
Продолжительность: 01:18:19
Полиграфия: присутствует
Лейбл: Flashover Recordings
Каталоговый номер: 900.0971.020

Треклист:
01. Shelter Me (6:00)
02. Black Velvet (5:45)
03. We Belong (5:46)
04. Gabriella's Sky (7:11)
05. Made of Love (6:41)
06. Radio Crash (6:37)
07. Twice in a Blue Moon (5:52)
08. Feel You (5:24)
09. Life (6:16)
10. Brain Box (6:05)
11. Shanti (7:09)
12. Visions of Blue (2:09)
13. U2 - New Years Day (Ferry Corsten Extended Vocal Mix) (7:23)

Код:

Exact Audio Copy V0.99 prebeta 5 from 4. May 2009

EAC extraction logfile from 15. August 2009, 19:36

Ferry Corsten / Twice in a Blue Moon

Used drive  : ATAPI   DVD A  DH16A1L   Adapter: 1  ID: 0

Read mode               : Secure
Utilize accurate stream : Yes
Defeat audio cache      : Yes
Make use of C2 pointers : No

Read offset correction                      : 6
Overread into Lead-In and Lead-Out          : No
Fill up missing offset samples with silence : Yes
Delete leading and trailing silent blocks   : No
Null samples used in CRC calculations       : Yes
Used interface                              : Installed external ASPI interface
Gap handling                                : Appended to previous track

Used output format              : User Defined Encoder
Selected bitrate                : 192 kBit/s
Quality                         : High
Add ID3 tag                     : No
Command line compressor         : C:\Program Files\Exact Audio Copy\Flac\flac.exe
Additional command line options : -V -8 -T "artist=%a" -T "title=%t" -T "album=%g" -T "date=%y" -T "tracknumber=%n" -T "genre=%m" %s

TOC of the extracted CD

     Track |   Start  |  Length  | Start sector | End sector
    ---------------------------------------------------------
        1  |  0:00.00 |  5:59.59 |         0    |    26983   
        2  |  5:59.59 |  5:45.37 |     26984    |    52895   
        3  | 11:45.21 |  5:45.58 |     52896    |    78828   
        4  | 17:31.04 |  7:10.59 |     78829    |   111137   
        5  | 24:41.63 |  6:41.16 |    111138    |   141228   
        6  | 31:23.04 |  6:37.37 |    141229    |   171040   
        7  | 38:00.41 |  5:52.32 |    171041    |   197472   
        8  | 43:52.73 |  5:24.18 |    197473    |   221790   
        9  | 49:17.16 |  6:15.65 |    221791    |   249980   
       10  | 55:33.06 |  6:04.74 |    249981    |   277354   
       11  | 61:38.05 |  7:09.11 |    277355    |   309540   
       12  | 68:47.16 |  2:08.52 |    309541    |   319192   
       13  | 70:55.68 |  7:23.27 |    319193    |   352444   

Track  1

     Filename C:\EAC\01. Shelter Me.wav

     Pre-gap length  0:00:02.00

     Peak level 96.6 %
     Track quality 100.0 %
     Test CRC 6619526E
     Copy CRC 6619526E
     Accurately ripped (confidence 3)  [0C837BB7]
     Copy OK

Track  2

     Filename C:\EAC\02. Black Velvet.wav

     Peak level 96.6 %
     Track quality 100.0 %
     Test CRC A2791473
     Copy CRC A2791473
     Accurately ripped (confidence 3)  [D952EF0A]
     Copy OK

Track  3

     Filename C:\EAC\03. We Belong.wav

     Peak level 96.6 %
     Track quality 100.0 %
     Test CRC BCF50A18
     Copy CRC BCF50A18
     Accurately ripped (confidence 3)  [8F40E2C8]
     Copy OK

Track  4

     Filename C:\EAC\04. Gabriella's Sky.wav

     Peak level 96.6 %
     Track quality 100.0 %
     Test CRC 78B98FE6
     Copy CRC 78B98FE6
     Accurately ripped (confidence 3)  [EF65AE5E]
     Copy OK

Track  5

     Filename C:\EAC\05. Made of Love.wav

     Peak level 96.6 %
     Track quality 100.0 %
     Test CRC B3296A9A
     Copy CRC B3296A9A
     Accurately ripped (confidence 3)  [B8A213DF]
     Copy OK

Track  6

     Filename C:\EAC\06. Radio Crash.wav

     Peak level 96.6 %
     Track quality 99.9 %
     Test CRC 6803CA3F
     Copy CRC 6803CA3F
     Accurately ripped (confidence 3)  [4E36B1B3]
     Copy OK

Track  7

     Filename C:\EAC\07. Twice in a Blue Moon.wav

     Peak level 96.6 %
     Track quality 100.0 %
     Test CRC 415A4491
     Copy CRC 415A4491
     Accurately ripped (confidence 3)  [0E68F3BB]
     Copy OK

Track  8

     Filename C:\EAC\08. Feel You.wav

     Peak level 96.6 %
     Track quality 100.0 %
     Test CRC F8B45347
     Copy CRC F8B45347
     Accurately ripped (confidence 3)  [1A6095F4]
     Copy OK

Track  9

     Filename C:\EAC\09. Life.wav

     Peak level 96.6 %
     Track quality 100.0 %
     Test CRC 9CB768CF
     Copy CRC 9CB768CF
     Accurately ripped (confidence 3)  [85C3336C]
     Copy OK

Track 10

     Filename C:\EAC\10. Brain Box.wav

     Peak level 96.6 %
     Track quality 100.0 %
     Test CRC 469D93B4
     Copy CRC 469D93B4
     Accurately ripped (confidence 3)  [EE82EB5B]
     Copy OK

Track 11

     Filename C:\EAC\11. Shanti.wav

     Peak level 96.6 %
     Track quality 100.0 %
     Test CRC 9C805A90
     Copy CRC 9C805A90
     Accurately ripped (confidence 3)  [8C634E25]
     Copy OK

Track 12

     Filename C:\EAC\12. Visions of Blue.wav

     Peak level 96.6 %
     Track quality 100.0 %
     Test CRC B1D21067
     Copy CRC B1D21067
     Accurately ripped (confidence 3)  [CF149AA5]
     Copy OK

Track 13

     Filename C:\EAC\13. U2 - New Years Day (Ferry Corsten Extended Vocal Mix).wav

     Peak level 99.6 %
     Track quality 100.0 %
     Test CRC 76DE10C5
     Copy CRC 76DE10C5
     Accurately ripped (confidence 3)  [2F1A4C08]
     Copy OK

All tracks accurately ripped

No errors occurred

End of status report

Код:

REM GENRE Electronic
REM DATE 2008
REM DISCID B9125B0D
REM COMMENT "ExactAudioCopy v0.99pb5"
PERFORMER "Ferry Corsten"
TITLE "Twice in a Blue Moon"
FILE "01. Shelter Me.wav" WAVE
  TRACK 01 AUDIO
    TITLE "Shelter Me"
    PERFORMER "Ferry Corsten"
    INDEX 01 00:00:00
FILE "02. Black Velvet.wav" WAVE
  TRACK 02 AUDIO
    TITLE "Black Velvet"
    PERFORMER "Ferry Corsten"
    INDEX 01 00:00:00
FILE "03. We Belong.wav" WAVE
  TRACK 03 AUDIO
    TITLE "We Belong"
    PERFORMER "Ferry Corsten"
    INDEX 01 00:00:00
FILE "04. Gabriella's Sky.wav" WAVE
  TRACK 04 AUDIO
    TITLE "Gabriella's Sky"
    PERFORMER "Ferry Corsten"
    INDEX 01 00:00:00
FILE "05. Made of Love.wav" WAVE
  TRACK 05 AUDIO
    TITLE "Made of Love"
    PERFORMER "Ferry Corsten"
    INDEX 01 00:00:00
FILE "06. Radio Crash.wav" WAVE
  TRACK 06 AUDIO
    TITLE "Radio Crash"
    PERFORMER "Ferry Corsten"
    INDEX 01 00:00:00
FILE "07. Twice in a Blue Moon.wav" WAVE
  TRACK 07 AUDIO
    TITLE "Twice in a Blue Moon"
    PERFORMER "Ferry Corsten"
    INDEX 01 00:00:00
FILE "08. Feel You.wav" WAVE
  TRACK 08 AUDIO
    TITLE "Feel You"
    PERFORMER "Ferry Corsten"
    INDEX 01 00:00:00
FILE "09. Life.wav" WAVE
  TRACK 09 AUDIO
    TITLE "Life"
    PERFORMER "Ferry Corsten"
    INDEX 01 00:00:00
FILE "10. Brain Box.wav" WAVE
  TRACK 10 AUDIO
    TITLE "Brain Box"
    PERFORMER "Ferry Corsten"
    INDEX 01 00:00:00
FILE "11. Shanti.wav" WAVE
  TRACK 11 AUDIO
    TITLE "Shanti"
    PERFORMER "Ferry Corsten"
    INDEX 01 00:00:00
FILE "12. Visions of Blue.wav" WAVE
  TRACK 12 AUDIO
    TITLE "Visions of Blue"
    PERFORMER "Ferry Corsten"
    INDEX 01 00:00:00
FILE "13. U2 - New Years Day (Ferry Corsten Extended Vocal Mix).wav" WAVE
  TRACK 13 AUDIO
    TITLE "U2 - New Years Day (Ferry Corsten Extended Vocal Mix)"
    PERFORMER "Ferry Corsten"
    INDEX 01 00:00:00
info [Профиль]  [ЛС] 
Показать сообщения:    
Ответить на тему

Текущее время: 19-Май 23:26

Часовой пояс: GMT + 4



Вы не можете начинать темы
Вы не можете отвечать на сообщения
Вы не можете редактировать свои сообщения
Вы не можете удалять свои сообщения
Вы не можете голосовать в опросах
Вы не можете прикреплять файлы к сообщениям
Вы не можете скачивать файлы