Ошибка

(Trance) Armin Van Buuren - Mirage [Limited Edition] - 2010, FLAC (tracks+cue)+covers, lossless

Ответить на тему
 
Автор Сообщение

чучило-мяучило

Пол: Пол:Жен

Стаж: 12 лет

Сообщений: 492

Предупреждений: 1

Россия
Рейтинг

post 02-Сен-2010 23:09 1[+]

[Цитировать] 

Armin Van Buuren - Mirage

Жанр: Trance
Происхождение исполнителя: Нидерланды
Год издания данного носителя: 2010
Тип релиза: tracks
Аудио кодек: FLAC
Битрейт аудио: lossless
Продолжительность: 01:19:43+00:32:55
Полиграфия: Присутствует
Лейбл: Armada Music
Каталоговый номер: ARMA265

Треклист:
CD1:
01) Desiderium 207 (2:08)
02) Mirage (6:42)
03) This Light Between Us (5:09)
04) Not Giving Up On Love (2:54)
05) I Don't Own You (6:45)
06) Full Focus (4:42)
07) Take A Moment (5:03)
08) Feels So Good (3:59)
09) Virtual Friend (7:12)
10) Drowning (2:44)
11) Down To Love (4:15)
12) Coming Home (6:20)
13) These Silent Hearts (5:49)
14) Orbion (5:18)
15) Minack (6:44)
16) Youtopia (4:00)

CD2:
01) Breathe In Deep (6:12)
02) Take Me Where I Wanna Go (7:22)
03) I Surrender (8:07)
04) Love Too Hard (7:20)
05) Virtual Friend (Acoustic Mix) (3:54)

Код:

REM GENRE Trance
REM DATE 2010
REM DISCID BE12AE10
REM COMMENT "ExactAudioCopy v0.99pb5"
CATALOG 8717306965330
PERFORMER "Armin van Buuren"
TITLE "Mirage"
FILE "Armin van Buuren - Mirage (ARMA263) (2010) - FLAC\01 - Desiderium 207 (feat. Susana).wav" WAVE
  TRACK 01 AUDIO
    TITLE "Desiderium 207 (feat. Susana)"
    PERFORMER "Armin van Buuren"
    ISRC NLF711001080
    INDEX 01 00:00:00
FILE "Disc 1\02 - Mirage.wav" WAVE
  TRACK 02 AUDIO
    TITLE "Mirage"
    PERFORMER "Armin van Buuren"
    ISRC NLF711001081
    INDEX 01 00:00:00
FILE "Disc 1\03 - This Light Between Us (feat. Christian Burns).wav" WAVE
  TRACK 03 AUDIO
    TITLE "This Light Between Us (feat. Christian Burns)"
    PERFORMER "Armin van Buuren"
    ISRC NLF711001082
    INDEX 01 00:00:00
FILE "Disc 1\04 - Not Giving Up On Love (vs Sophie Ellis-Bextor).wav" WAVE
  TRACK 04 AUDIO
    TITLE "Not Giving Up On Love (vs Sophie Ellis-Bextor)"
    PERFORMER "Armin van Buuren"
    ISRC NLF711001083
    INDEX 01 00:00:00
  TRACK 05 AUDIO
    TITLE "I Don't Own You"
    PERFORMER "Armin van Buuren"
    ISRC NLF711001084
    INDEX 00 02:52:42
FILE "Disc 1\05 - I Don't Own You.wav" WAVE
    INDEX 01 00:00:00
FILE "Disc 1\06 - Full Focus.wav" WAVE
  TRACK 06 AUDIO
    TITLE "Full Focus"
    PERFORMER "Armin van Buuren"
    ISRC NLF711000920
    INDEX 01 00:00:00
FILE "Disc 1\07 - Take A Moment (feat. Winter Kills).wav" WAVE
  TRACK 07 AUDIO
    TITLE "Take A Moment (feat. Winter Kills)"
    PERFORMER "Armin van Buuren"
    ISRC NLF711001085
    INDEX 01 00:00:00
FILE "Disc 1\08 - Feels So Good (feat. Nadia Ali).wav" WAVE
  TRACK 08 AUDIO
    TITLE "Feels So Good (feat. Nadia Ali)"
    PERFORMER "Armin van Buuren"
    ISRC NLF711001086
    INDEX 01 00:00:00
  TRACK 09 AUDIO
    TITLE "Virtual Friend (feat. Sophie)"
    PERFORMER "Armin van Buuren"
    ISRC NLF711001087
    INDEX 00 03:57:48
FILE "Disc 1\09 - Virtual Friend (feat. Sophie).wav" WAVE
    INDEX 01 00:00:00
  TRACK 10 AUDIO
    TITLE "Drowning (feat. Laura V)"
    PERFORMER "Armin van Buuren"
    ISRC NLF711001088
    INDEX 00 07:10:25
FILE "Disc 1\10 - Drowning (feat. Laura V).wav" WAVE
    INDEX 01 00:00:00
FILE "Disc 1\11 - Down To Love (feat. Ana Criado).wav" WAVE
  TRACK 11 AUDIO
    TITLE "Down To Love (feat. Ana Criado)"
    PERFORMER "Armin van Buuren"
    ISRC NLF711001089
    INDEX 01 00:00:00
FILE "Disc 1\12 - Coming Home.wav" WAVE
  TRACK 12 AUDIO
    TITLE "Coming Home"
    PERFORMER "Armin van Buuren"
    ISRC NLF711001090
    INDEX 01 00:00:00
FILE "Disc 1\13 - These Silent Hearts (feat. BT).wav" WAVE
  TRACK 13 AUDIO
    TITLE "These Silent Hearts (feat. BT)"
    PERFORMER "Armin van Buuren"
    ISRC NLF711001091
    INDEX 01 00:00:00
FILE "Disc 1\14 - Orbion.wav" WAVE
  TRACK 14 AUDIO
    TITLE "Orbion"
    PERFORMER "Armin van Buuren"
    ISRC NLF711001092
    INDEX 01 00:00:00
FILE "Disc 1\15 - Minack (vs Ferry Corsten).wav" WAVE
  TRACK 15 AUDIO
    TITLE "Minack (vs Ferry Corsten)"
    PERFORMER "Armin van Buuren"
    ISRC NLF711001093
    INDEX 01 00:00:00
FILE "Disc 1\16 - Youtopia (feat. Adam Young).wav" WAVE
  TRACK 16 AUDIO
    TITLE "Youtopia (feat. Adam Young)"
    PERFORMER "Armin van Buuren"
    ISRC NLF711001094
    INDEX 01 00:00:00

Код:

REM GENRE Trance
REM DATE 2010
REM DISCID 3207B705
REM COMMENT "ExactAudioCopy v0.99pb5"
PERFORMER "Armin van Buuren"
TITLE "Mirage - Bonus Tracks"
FILE "Armin van Buuren - Mirage - Bonus Tracks (2010) - FLAC\01 - Breathe In Deep.wav" WAVE
  TRACK 01 AUDIO
    TITLE "Breathe In Deep"
    PERFORMER "Armin van Buuren"
    ISRC NLF711001095
    INDEX 01 00:00:00
  TRACK 02 AUDIO
    TITLE "Take Me Where I Wanna Go"
    PERFORMER "Armin van Buuren"
    ISRC NLF711001096
    INDEX 00 06:09:42
FILE "Armin van Buuren - Mirage - Bonus Tracks (2010) - FLAC\02 - Take Me Where I Wanna Go.wav" WAVE
    INDEX 01 00:00:00
  TRACK 03 AUDIO
    TITLE "I Surrender"
    PERFORMER "Armin van Buuren"
    ISRC NLF711001097
    INDEX 00 07:20:00
FILE "Armin van Buuren - Mirage - Bonus Tracks (2010) - FLAC\03 - I Surrender.wav" WAVE
    INDEX 01 00:00:00
  TRACK 04 AUDIO
    TITLE "Love Too Hard"
    PERFORMER "Armin van Buuren"
    ISRC NLF711001098
    INDEX 00 08:05:33
FILE "Armin van Buuren - Mirage - Bonus Tracks (2010) - FLAC\04 - Love Too Hard.wav" WAVE
    INDEX 01 00:00:00
  TRACK 05 AUDIO
    TITLE "Virtual Friend (Acoustic Mix)"
    PERFORMER "Armin van Buuren"
    ISRC NLF711001099
    INDEX 00 07:17:67
FILE "Armin van Buuren - Mirage - Bonus Tracks (2010) - FLAC\05 - Virtual Friend (Acoustic Mix).wav" WAVE
    INDEX 01 00:00:00

Код:

Exact Audio Copy V0.99 prebeta 5 from 4. May 2009

EAC extraction logfile from 10. September 2010, 15:23

Armin van Buuren / Mirage (ARMA263)

Used drive  : Optiarc DVD+-RW AD-5170S   Adapter: 1  ID: 0

Read mode               : Secure
Utilize accurate stream : Yes
Defeat audio cache      : Yes
Make use of C2 pointers : No

Read offset correction                      : 48
Overread into Lead-In and Lead-Out          : No
Fill up missing offset samples with silence : Yes
Delete leading and trailing silent blocks   : No
Null samples used in CRC calculations       : Yes
Used interface                              : Native Win32 interface for Win NT & 2000
Gap handling                                : Appended to previous track

Used output format              : User Defined Encoder
Selected bitrate                : 320 kBit/s
Quality                         : High
Add ID3 tag                     : No
Command line compressor         : C:\Program Files (x86)\Exact Audio Copy\Flac\flac.exe
Additional command line options : -V -8 -T "artist=%a" -T "title=%t" -T "album=%g" -T "date=%y" -T "tracknumber=%n" -T "genre=%m" %s 

TOC of the extracted CD

     Track |   Start  |  Length  | Start sector | End sector
    ---------------------------------------------------------
        1  |  0:00.00 |  2:08.35 |         0    |     9634   
        2  |  2:08.35 |  6:41.50 |      9635    |    39759   
        3  |  8:50.10 |  5:09.30 |     39760    |    62964   
        4  | 13:59.40 |  2:53.57 |     62965    |    75996   
        5  | 16:53.22 |  6:45.08 |     75997    |   106379   
        6  | 23:38.30 |  4:41.57 |    106380    |   127511   
        7  | 28:20.12 |  5:02.40 |    127512    |   150201   
        8  | 33:22.52 |  3:58.40 |    150202    |   168091   
        9  | 37:21.17 |  7:11.65 |    168092    |   200481   
       10  | 44:33.07 |  2:44.23 |    200482    |   212804   
       11  | 47:17.30 |  4:15.02 |    212805    |   231931   
       12  | 51:32.32 |  6:20.18 |    231932    |   260449   
       13  | 57:52.50 |  5:48.65 |    260450    |   286614   
       14  | 63:41.40 |  5:17.55 |    286615    |   310444   
       15  | 68:59.20 |  6:43.55 |    310445    |   340724   
       16  | 75:43.00 |  3:59.67 |    340725    |   358716   

Track  1

     Filename Z:\EAC Rips\new rips\Armin van Buuren - Mirage (ARMA263) (2010) - FLAC\01 - Desiderium 207 (feat. Susana).wav

     Pre-gap length  0:00:02.00

     Peak level 100.0 %
     Track quality 100.0 %
     Test CRC 5ED80B14
     Copy CRC 5ED80B14
     Track not present in AccurateRip database
     Copy OK

Track  2

     Filename Z:\EAC Rips\new rips\Armin van Buuren - Mirage (ARMA263) (2010) - FLAC\02 - Mirage.wav

     Peak level 100.0 %
     Track quality 100.0 %
     Test CRC D99A0ED3
     Copy CRC D99A0ED3
     Track not present in AccurateRip database
     Copy OK

Track  3

     Filename Z:\EAC Rips\new rips\Armin van Buuren - Mirage (ARMA263) (2010) - FLAC\03 - This Light Between Us (feat. Christian Burns).wav

     Peak level 100.0 %
     Track quality 100.0 %
     Test CRC 0B993667
     Copy CRC 0B993667
     Track not present in AccurateRip database
     Copy OK

Track  4

     Filename Z:\EAC Rips\new rips\Armin van Buuren - Mirage (ARMA263) (2010) - FLAC\04 - Not Giving Up On Love (vs Sophie Ellis-Bextor).wav

     Peak level 100.0 %
     Track quality 100.0 %
     Test CRC 94E45531
     Copy CRC 94E45531
     Track not present in AccurateRip database
     Copy OK

Track  5

     Filename Z:\EAC Rips\new rips\Armin van Buuren - Mirage (ARMA263) (2010) - FLAC\05 - I Don't Own You.wav

     Pre-gap length  0:00:01.15

     Peak level 100.0 %
     Track quality 99.9 %
     Test CRC 9F7A980F
     Copy CRC 9F7A980F
     Track not present in AccurateRip database
     Copy OK

Track  6

     Filename Z:\EAC Rips\new rips\Armin van Buuren - Mirage (ARMA263) (2010) - FLAC\06 - Full Focus.wav

     Peak level 97.7 %
     Track quality 100.0 %
     Test CRC EDFF3192
     Copy CRC EDFF3192
     Track not present in AccurateRip database
     Copy OK

Track  7

     Filename Z:\EAC Rips\new rips\Armin van Buuren - Mirage (ARMA263) (2010) - FLAC\07 - Take A Moment (feat. Winter Kills).wav

     Peak level 100.0 %
     Track quality 99.9 %
     Test CRC FAE71451
     Copy CRC FAE71451
     Track not present in AccurateRip database
     Copy OK

Track  8

     Filename Z:\EAC Rips\new rips\Armin van Buuren - Mirage (ARMA263) (2010) - FLAC\08 - Feels So Good (feat. Nadia Ali).wav

     Peak level 100.0 %
     Track quality 100.0 %
     Test CRC 7FBDE02C
     Copy CRC 7FBDE02C
     Track not present in AccurateRip database
     Copy OK

Track  9

     Filename Z:\EAC Rips\new rips\Armin van Buuren - Mirage (ARMA263) (2010) - FLAC\09 - Virtual Friend (feat. Sophie).wav

     Pre-gap length  0:00:00.67

     Peak level 97.7 %
     Track quality 100.0 %
     Test CRC 771A21B1
     Copy CRC 771A21B1
     Track not present in AccurateRip database
     Copy OK

Track 10

     Filename Z:\EAC Rips\new rips\Armin van Buuren - Mirage (ARMA263) (2010) - FLAC\10 - Drowning (feat. Laura V).wav

     Pre-gap length  0:00:01.40

     Peak level 100.0 %
     Track quality 100.0 %
     Test CRC 34E50D60
     Copy CRC 34E50D60
     Track not present in AccurateRip database
     Copy OK

Track 11

     Filename Z:\EAC Rips\new rips\Armin van Buuren - Mirage (ARMA263) (2010) - FLAC\11 - Down To Love (feat. Ana Criado).wav

     Peak level 98.8 %
     Track quality 99.9 %
     Test CRC C76020F4
     Copy CRC C76020F4
     Track not present in AccurateRip database
     Copy OK

Track 12

     Filename Z:\EAC Rips\new rips\Armin van Buuren - Mirage (ARMA263) (2010) - FLAC\12 - Coming Home.wav

     Peak level 100.0 %
     Track quality 100.0 %
     Test CRC 5ED37358
     Copy CRC 5ED37358
     Track not present in AccurateRip database
     Copy OK

Track 13

     Filename Z:\EAC Rips\new rips\Armin van Buuren - Mirage (ARMA263) (2010) - FLAC\13 - These Silent Hearts (feat. BT).wav

     Peak level 100.0 %
     Track quality 100.0 %
     Test CRC BEE7E3A6
     Copy CRC BEE7E3A6
     Track not present in AccurateRip database
     Copy OK

Track 14

     Filename Z:\EAC Rips\new rips\Armin van Buuren - Mirage (ARMA263) (2010) - FLAC\14 - Orbion.wav

     Peak level 100.0 %
     Track quality 100.0 %
     Test CRC B512B255
     Copy CRC B512B255
     Track not present in AccurateRip database
     Copy OK

Track 15

     Filename Z:\EAC Rips\new rips\Armin van Buuren - Mirage (ARMA263) (2010) - FLAC\15 - Minack (vs Ferry Corsten).wav

     Peak level 100.0 %
     Track quality 100.0 %
     Test CRC A9CC24CB
     Copy CRC A9CC24CB
     Track not present in AccurateRip database
     Copy OK

Track 16

     Filename Z:\EAC Rips\new rips\Armin van Buuren - Mirage (ARMA263) (2010) - FLAC\16 - Youtopia (feat. Adam Young).wav

     Peak level 96.6 %
     Track quality 100.0 %
     Test CRC B6B72685
     Copy CRC B6B72685
     Track not present in AccurateRip database
     Copy OK

None of the tracks are present in the AccurateRip database

No errors occurred

End of status report

Код:

Exact Audio Copy V0.99 prebeta 5 from 4. May 2009

EAC extraction logfile from 15. September 2010, 17:14

Armin van Buuren / Mirage - Bonus Tracks

Used drive  : Optiarc DVD+-RW AD-5170S   Adapter: 1  ID: 0

Read mode               : Secure
Utilize accurate stream : Yes
Defeat audio cache      : Yes
Make use of C2 pointers : No

Read offset correction                      : 48
Overread into Lead-In and Lead-Out          : No
Fill up missing offset samples with silence : Yes
Delete leading and trailing silent blocks   : No
Null samples used in CRC calculations       : Yes
Used interface                              : Native Win32 interface for Win NT & 2000
Gap handling                                : Appended to previous track

Used output format              : User Defined Encoder
Selected bitrate                : 320 kBit/s
Quality                         : High
Add ID3 tag                     : No
Command line compressor         : C:\Program Files (x86)\Exact Audio Copy\Flac\flac.exe
Additional command line options : -V -8 -T "artist=%a" -T "title=%t" -T "album=%g" -T "date=%y" -T "tracknumber=%n" -T "genre=%m" %s 

TOC of the extracted CD

     Track |   Start  |  Length  | Start sector | End sector
    ---------------------------------------------------------
        1  |  0:00.00 |  6:11.42 |         0    |    27866   
        2  |  6:11.42 |  7:22.00 |     27867    |    61016   
        3  | 13:33.42 |  8:07.33 |     61017    |    97574   
        4  | 21:41.00 |  7:19.67 |     97575    |   130566   
        5  | 29:00.67 |  3:54.28 |    130567    |   148144   

Track  1

     Filename Z:\EAC Rips\new rips\Armin van Buuren - Mirage - Bonus Tracks (2010) - FLAC\01 - Breathe In Deep.wav

     Pre-gap length  0:00:02.00

     Peak level 100.0 %
     Track quality 99.9 %
     Test CRC 1EE02FC0
     Copy CRC 1EE02FC0
     Track not present in AccurateRip database
     Copy OK

Track  2

     Filename Z:\EAC Rips\new rips\Armin van Buuren - Mirage - Bonus Tracks (2010) - FLAC\02 - Take Me Where I Wanna Go.wav

     Pre-gap length  0:00:02.00

     Peak level 100.0 %
     Track quality 100.0 %
     Test CRC AFF9ACD0
     Copy CRC AFF9ACD0
     Track not present in AccurateRip database
     Copy OK

Track  3

     Filename Z:\EAC Rips\new rips\Armin van Buuren - Mirage - Bonus Tracks (2010) - FLAC\03 - I Surrender.wav

     Pre-gap length  0:00:02.00

     Peak level 100.0 %
     Track quality 100.0 %
     Test CRC 32F8B585
     Copy CRC 32F8B585
     Track not present in AccurateRip database
     Copy OK

Track  4

     Filename Z:\EAC Rips\new rips\Armin van Buuren - Mirage - Bonus Tracks (2010) - FLAC\04 - Love Too Hard.wav

     Pre-gap length  0:00:02.00

     Peak level 100.0 %
     Track quality 100.0 %
     Test CRC AF1A940A
     Copy CRC AF1A940A
     Track not present in AccurateRip database
     Copy OK

Track  5

     Filename Z:\EAC Rips\new rips\Armin van Buuren - Mirage - Bonus Tracks (2010) - FLAC\05 - Virtual Friend (Acoustic Mix).wav

     Pre-gap length  0:00:02.00

     Peak level 99.9 %
     Track quality 100.0 %
     Test CRC BDE64609
     Copy CRC BDE64609
     Track not present in AccurateRip database
     Copy OK

None of the tracks are present in the AccurateRip database

No errors occurred

End of status report
Спасибо DutchDude за рип и cybpsy за помощь в оформлении.
info [Профиль]  [ЛС] 

чучило-мяучило

Пол: Пол:Жен

Стаж: 12 лет

Сообщений: 492

Предупреждений: 1

Россия
Рейтинг

post 12-Сен-2010 01:15 (спустя 9 дней) [-]1[+]

[Цитировать] 

Рип заменен на более точный. Добавлены cue, log, и каталоговый номер.

_________________
Он ушел прочь
И, не в силах пустоту превозмочь, Мы смотрим в точку, где он только что был, И восклицаем: "Почему? Что? Как?
Какая чудесная ночь!" - Но я считаю, что в этом он прав; Пускай у нас будет шанс...
info [Профиль]  [ЛС] 

AntonForst

Пол: Пол:Муж

Стаж: 11 лет

Сообщений: 37

Предупреждений: 1

Рейтинг

post 12-Сен-2010 17:08 (спустя 15 часов) [-]0[+]

[Цитировать] 

уже есть в mp3 320
+5 бонусов
Качать стоит вообще?

Armin van Buuren feat. Susana - Desiderium 207 (2:08)

и этот трек сток и должен играть ?

_________________


Ох уж эти дешёвые понты...
info [Профиль]  [ЛС] 

obama1

Стаж: 12 лет

Сообщений: 630

Албания
Рейтинг

post 13-Сен-2010 00:05 (спустя 6 часов) [-]0[+]

[Цитировать] 

AntonForst писал(а):

уже есть в mp3 320
+5 бонусов
Качать стоит вообще?

Armin van Buuren feat. Susana - Desiderium 207 (2:08)

и этот трек сток и должен играть ?
да.это как бы интро
info [Профиль]  [ЛС] 

AntonForst

Пол: Пол:Муж

Стаж: 11 лет

Сообщений: 37

Предупреждений: 1

Рейтинг

post 13-Сен-2010 08:16 (спустя 8 часов) [-]0[+]

[Цитировать] 

эм ну тогда подажду и эти обмылки буду слушать)

_________________


Ох уж эти дешёвые понты...
info [Профиль]  [ЛС] 

cybpsy

Пол: Пол:Муж

Стаж: 12 лет

Сообщений: 463

Россия
Рейтинг

post 13-Сен-2010 09:41 (спустя 1 час 24 минуты) [-]0[+]

[Цитировать] 

AntonForst
Чего подождете? Какие обмылки?

Это полный, наиболее точный рип официального альбома. К нему есть 5 бонусных треков пока только в мп3 и расширенные версии некоторых треков с этого альбома так же только в мп3.

_________________
Цивилизация - вредный лишай на теле планеты
Поскорее дождаться бы cветлого праздника - конца света!

Humble user of what.cd/waffles.fm/TT/hdbits/synclub/GFT/TR/ru-board/uniongang/music-vids/pedro/SCC/TL/BCG/revTT/netlab/UG/DB9/leprozorium/zombobox and so on...
info [Профиль]  [ЛС] 

AntonForst

Пол: Пол:Муж

Стаж: 11 лет

Сообщений: 37

Предупреждений: 1

Рейтинг

post 14-Сен-2010 21:58 (спустя 1 день 12 часов) [-]0[+]

[Цитировать] 

а ясно прост тогда Armin захалтурил((
Но мне 3-4 песни понравилось ,значит альбом удался)))
Надеюсь Blizzard сделают пару ремиксов)))
cybpsy
спасибо за инфу прост тогда бы и писали intro)

_________________


Ох уж эти дешёвые понты...
info [Профиль]  [ЛС] 

чучило-мяучило

Пол: Пол:Жен

Стаж: 12 лет

Сообщений: 492

Предупреждений: 1

Россия
Рейтинг

post 16-Сен-2010 22:23 (спустя 2 дня) [-]0[+]

[Цитировать] 

Добавлен рип диска с бонусными треками. Больше обновлений скорее всего не будет.

_________________
Он ушел прочь
И, не в силах пустоту превозмочь, Мы смотрим в точку, где он только что был, И восклицаем: "Почему? Что? Как?
Какая чудесная ночь!" - Но я считаю, что в этом он прав; Пускай у нас будет шанс...
info [Профиль]  [ЛС] 
Показать сообщения:    
Ответить на тему

Текущее время: 19-Май 23:30

Часовой пояс: GMT + 4



Вы не можете начинать темы
Вы не можете отвечать на сообщения
Вы не можете редактировать свои сообщения
Вы не можете удалять свои сообщения
Вы не можете голосовать в опросах
Вы не можете прикреплять файлы к сообщениям
Вы не можете скачивать файлы