Ошибка

(Soundtrack/Game) Gothic 3 Soundtrack (Kai Rozenkranz) - 2006, FLAC (tracks), lossless

Ответить на тему
 
Автор Сообщение

Александр

Пол: Пол:Муж

Стаж: 12 лет

Сообщений: 247

Россия
Рейтинг

post 08-Авг-2010 09:21 0[+]

[Цитировать] 

Gothic 3 Soundtrack

Страна: Германия
Жанр: Soundtrack
Год выпуска: 2006
Формат: FLAC (tracks)
Битрейт аудио: lossless
Продолжительность: 1:07:08
Полиграфия: присутствует
Трэклист:

(01) [Kai Rosenkranz] Title Theme
(02) [Kai Rosenkranz] Opening Sequence
(03) [Kai Rosenkranz] Xardas Tower
(04) [Kai Rosenkranz] Vista Point
(05) [Kai Rosenkranz] Ruinfields
(06) [Kai Rosenkranz] Dark Presence
(07) [Kai Rosenkranz] Orc Camp
(08) [Kai Rosenkranz] From Silden To Trelis
(09) [Kai Rosenkranz] Ominous Woods
(10) [Kai Rosenkranz] Showdown
(11) [Kai Rosenkranz] The Dig
(12) [Kai Rosenkranz] Slaves
(13) [Kai Rosenkranz] Divine Powers
(14) [Kai Rosenkranz] Vengard Theme
(15) [Kai Rosenkranz] Exploring Myrtana
(16) [Kai Rosenkranz] Revolution
(17) [Kai Rosenkranz] Northmar (Upper Level)
(18) [Kai Rosenkranz] The Creation Of The Barrier
(19) [Kai Rosenkranz] Vista Point Reprise
(20) [Kai Rosenkranz] Desert Sun
(21) [Kai Rosenkranz] Welcome To Varant
(22) [Kai Rosenkranz] Northmar (Lower Level)
(23) [Kai Rosenkranz] Sad Strings
(24) [Kai Rosenkranz] The End
(25) [Kai Rosenkranz] End Titles
(26) [Alice Taylor] In My Dreams
(27) [Corvus Corax] Is Nomine Vacans
(28) [Shelly Quest] Welcome To The Bronx
(29) [Steve Baltes RMX] Bring Back The Magic

Код:

EAC extraction logfile from 23. December 2006, 19:10 for CD
Various / Gothic 3

Used drive : PIONEER DVD-RW DVR-111D Adapter: 5 ID: 0
Read mode : Secure with NO C2, accurate stream, disable cache
Read offset correction : 0
Overread into Lead-In and Lead-Out : No

Used output format : C:\Program Files\FLAC\flac.exe (User Defined Encoder)
320 kBit/s
Additional command line options : --best -V -T "date=%y" -T "genre=%m" %s

Other options :
Fill up missing offset samples with silence : Yes
Delete leading and trailing silent blocks : No
Installed external ASPI interface

Range status and errors
Selected range
Filename G:\SHARE\download\Various - Gothic 3.wav.wav.wav

Peak level 99.5 %
Range quality 100.0 %
CRC 07F1B67B
Copy OK

No errors occured

End of status report

Код:

REM GENRE Soundtrack
REM DATE 2006
REM DISCID 990FCD1D
REM COMMENT "ExactAudioCopy v0.95b4"
PERFORMER "Various"
TITLE "Gothic 3"
FILE "Various - Gothic 3.flac" WAVE
  TRACK 01 AUDIO
    TITLE "Title Theme"
    PERFORMER "Kai Rosenkranz"
    INDEX 01 00:00:00
  TRACK 02 AUDIO
    TITLE "Opening Sequence"
    PERFORMER "Kai Rosenkranz"
    INDEX 01 03:55:42
  TRACK 03 AUDIO
    TITLE "Xardas Tower"
    PERFORMER "Kai Rosenkranz"
    INDEX 01 04:51:70
  TRACK 04 AUDIO
    TITLE "Vista Point"
    PERFORMER "Kai Rosenkranz"
    INDEX 00 06:38:24
    INDEX 01 06:38:26
  TRACK 05 AUDIO
    TITLE "Ruinfields"
    PERFORMER "Kai Rosenkranz"
    INDEX 01 09:36:15
  TRACK 06 AUDIO
    TITLE "Dark Presence"
    PERFORMER "Kai Rosenkranz"
    INDEX 01 12:15:55
  TRACK 07 AUDIO
    TITLE "Orc Camp"
    PERFORMER "Kai Rosenkranz"
    INDEX 01 13:57:35
  TRACK 08 AUDIO
    TITLE "From Silden To Trelis"
    PERFORMER "Kai Rosenkranz"
    INDEX 01 15:08:64
  TRACK 09 AUDIO
    TITLE "Ominous Woods"
    PERFORMER "Kai Rosenkranz"
    INDEX 01 17:05:02
  TRACK 10 AUDIO
    TITLE "Showdown"
    PERFORMER "Kai Rosenkranz"
    INDEX 01 19:12:10
  TRACK 11 AUDIO
    TITLE "The Dig"
    PERFORMER "Kai Rosenkranz"
    INDEX 01 20:51:38
  TRACK 12 AUDIO
    TITLE "Slaves"
    PERFORMER "Kai Rosenkranz"
    INDEX 01 22:43:61
  TRACK 13 AUDIO
    TITLE "Divine Powers"
    PERFORMER "Kai Rosenkranz"
    INDEX 01 23:55:06
  TRACK 14 AUDIO
    TITLE "Vengard Theme"
    PERFORMER "Kai Rosenkranz"
    INDEX 00 25:33:19
    INDEX 01 25:33:22
  TRACK 15 AUDIO
    TITLE "Exploring Myrtana"
    PERFORMER "Kai Rosenkranz"
    INDEX 01 26:44:68
  TRACK 16 AUDIO
    TITLE "Revolution"
    PERFORMER "Kai Rosenkranz"
    INDEX 01 32:07:69
  TRACK 17 AUDIO
    TITLE "Northmar (Upper Level)"
    PERFORMER "Kai Rosenkranz"
    INDEX 01 33:20:67
  TRACK 18 AUDIO
    TITLE "The Creation Of The Barrier"
    PERFORMER "Kai Rosenkranz"
    INDEX 01 34:55:27
  TRACK 19 AUDIO
    TITLE "Vista Point Reprise"
    PERFORMER "Kai Rosenkranz"
    INDEX 01 36:28:17
  TRACK 20 AUDIO
    TITLE "Desert Sun"
    PERFORMER "Kai Rosenkranz"
    INDEX 01 37:59:08
  TRACK 21 AUDIO
    TITLE "Welcome To Varant"
    PERFORMER "Kai Rosenkranz"
    INDEX 01 44:37:58
  TRACK 22 AUDIO
    TITLE "Northmar (Lower Level)"
    PERFORMER "Kai Rosenkranz"
    INDEX 01 45:23:32
  TRACK 23 AUDIO
    TITLE "Sad Strings"
    PERFORMER "Kai Rosenkranz"
    INDEX 01 48:18:45
  TRACK 24 AUDIO
    TITLE "The End"
    PERFORMER "Kai Rosenkranz"
    INDEX 01 49:14:70
  TRACK 25 AUDIO
    TITLE "End Titles"
    PERFORMER "Kai Rosenkranz"
    INDEX 01 50:10:46
  TRACK 26 AUDIO
    TITLE "In My Dreams"
    PERFORMER "Alice Taylor"
    INDEX 00 51:54:06
    INDEX 01 51:55:65
  TRACK 27 AUDIO
    TITLE "Is Nomine Vacans"
    PERFORMER "Corvus Corax"
    INDEX 00 56:02:39
    INDEX 01 56:04:38
  TRACK 28 AUDIO
    TITLE "Welcome To The Bronx"
    PERFORMER "Shelly Quest"
    INDEX 01 59:47:29
  TRACK 29 AUDIO
    TITLE "Bring Back The Magic"
    PERFORMER "Steve Baltes RMX"
    INDEX 00 63:33:39
    INDEX 01 63:34:39

info [Профиль]  [ЛС] 

MAXELL 13 RUS

Пол: Пол:Муж

Стаж: 10 лет

Сообщений: 52

Россия
Рейтинг

post 28-Окт-2013 23:21 (спустя 3 года 2 месяца) [-]0[+]

[Цитировать] 

Не у кого DVD-Rip не завалялся ни где ? Грущу

_________________
info [Профиль]  [ЛС] 
Показать сообщения:    
Ответить на тему

Текущее время: 01-Июл 23:29

Часовой пояс: GMT + 4



Вы не можете начинать темы
Вы не можете отвечать на сообщения
Вы не можете редактировать свои сообщения
Вы не можете удалять свои сообщения
Вы не можете голосовать в опросах
Вы не можете прикреплять файлы к сообщениям
Вы не можете скачивать файлы