Ошибка

(Trance) Dash Berlin - The New Daylight (2009) FLAC (image+.cue), lossless

Ответить на тему
 
Автор Сообщение

Myxa

Пол: Пол:Муж

Стаж: 13 лет

Сообщений: 370

Россия
Рейтинг

post 16-Янв-2010 20:52 0[+]

[Цитировать] 

Год выпуска диска: 2009
Производитель диска: Нидерланды
Исполнитель: Dash Berlin
Альбом: The New Daylight
Жанр: Trance
Тип рипа: image+.cue
Аудио кодек: FLAC
Битрейт аудио: lossless
Продолжительность: 01:14:27
TrackList:
01. Till the Sky Falls Down (5:57)
02. Man On the Run (With Cerf, Mitiska & Jaren) (6:32)
03. Wired (feat. Susana) (6:29)
04. Waiting (feat. Emma Hewitt) (7:16)
05. Never Cry Again (6:29)
06. To Be the One (feat. Idaho) (6:52)
07. End of Silence (feat. Rowald Steyn & Nina Deli) (5:08)
08. The Night Time (6:09)
09. Renegade (feat. DJ Remy) (4:22)
10. Janeiro (feat. Solid Session) (6:51)
11. Feel U Here (6:34)
12. The New Daylight (5:42)
Exact Audio Copy V0.99 prebeta 5 from 4. May 2009

EAC extraction logfile from 15. December 2009, 2:32

Dash Berlin / The New Daylight

Used drive : PLEXTOR DVDR PX-716A Adapter: 3 ID: 0

Read mode : Secure
Utilize accurate stream : Yes
Defeat audio cache : Yes
Make use of C2 pointers : No

Read offset correction : 30
Overread into Lead-In and Lead-Out : No
Fill up missing offset samples with silence : Yes
Delete leading and trailing silent blocks : No
Null samples used in CRC calculations : Yes
Used interface : Native Win32 interface for Win NT & 2000

Used output format : User Defined Encoder
Selected bitrate : 128 kBit/s
Quality : High
Add ID3 tag : No
Command line compressor : C:\Program Files\FLAC\flac.exe
Additional command line options : -8 -V -T "ARTIST=%a" -T "TITLE=%t" -T "ALBUM=%g" -T "DATE=%y" -T "TRACKNUMBER=%n" -T "GENRE=%m" -T "COMMENT=EAC FLAC -8" %s

TOC of the extracted CD

Track | Start | Length | Start sector | End sector
---------------------------------------------------------
1 | 0:00.00 | 5:57.27 | 0 | 26801
2 | 5:57.27 | 6:32.45 | 26802 | 56246
3 | 12:29.72 | 6:29.43 | 56247 | 85464
4 | 18:59.40 | 7:16.62 | 85465 | 118226
5 | 26:16.27 | 6:29.01 | 118227 | 147402
6 | 32:45.28 | 6:52.45 | 147403 | 178347
7 | 39:37.73 | 5:08.50 | 178348 | 201497
8 | 44:46.48 | 6:09.40 | 201498 | 229212
9 | 50:56.13 | 4:22.23 | 229213 | 248885
10 | 55:18.36 | 6:51.49 | 248886 | 279759
11 | 62:10.10 | 6:34.59 | 279760 | 309368
12 | 68:44.69 | 5:42.22 | 309369 | 335040

Range status and errors

Selected range

Filename E:\torrents.ru\Audio\Audio CD\Dash Berlin\The New Daylight\Dash Berlin - The New Daylight.wav

Peak level 96.6 %
Range quality 100.0 %
Test CRC 14621E83
Copy CRC 14621E83
Copy OK

No errors occurred

AccurateRip summary

Track 1 accurately ripped (confidence 1) [FDBFF20A]
Track 2 accurately ripped (confidence 1) [7E77B8DB]
Track 3 accurately ripped (confidence 1) [3E117F59]
Track 4 accurately ripped (confidence 1) [8A30185C]
Track 5 accurately ripped (confidence 1) [2A1ECF5D]
Track 6 accurately ripped (confidence 1) [D8BC6F9D]
Track 7 accurately ripped (confidence 1) [E93A7AFA]
Track 8 accurately ripped (confidence 1) [9D755B79]
Track 9 accurately ripped (confidence 1) [81F2652F]
Track 10 accurately ripped (confidence 1) [02133B3D]
Track 11 accurately ripped (confidence 1) [8CAB63C7]
Track 12 accurately ripped (confidence 1) [84665A95]

All tracks accurately ripped

End of status report
30.01.2010г. Торрент файл перезалит по тех. причинам (файлы не изменились)
info [Профиль]  [ЛС] 

post 16-Янв-2010 22:20 (спустя 1 час 27 минут) [-]0[+]

Топик был перенесен из форума Оформление раздач (Музыка и Музыкальное видео) в форум Trance, Goa Trance, Psy-Trance, PsyChill, Ambient Dub (lossless)

Myxa
 

Cosmeg

Пол: Пол:Муж

Стаж: 12 лет

Сообщений: 17

Россия
Рейтинг

post 18-Янв-2010 16:53 (спустя 1 день 20 часов) [-]0[+]

[Цитировать] 

хороший релиз!
info [Профиль]  [ЛС] 

Myxa

Пол: Пол:Муж

Стаж: 13 лет

Сообщений: 370

Россия
Рейтинг

post 20-Янв-2010 18:35 (спустя 2 дня 1 час) [-]0[+]

[Цитировать] 

Cosmeg, согласен kolob_111
info [Профиль]  [ЛС] 

монтажник

Пол: Пол:Муж

Стаж: 12 лет

Сообщений: 2

Предупреждений: 1

Россия
Рейтинг

post 05-Авг-2010 19:32 (спустя 6 месяцев 16 дней) [-]0[+]

[Цитировать] 

спасиб)))
info [Профиль]  [ЛС] 
Показать сообщения:    
Ответить на тему

Текущее время: 23-Май 00:31

Часовой пояс: GMT + 4



Вы не можете начинать темы
Вы не можете отвечать на сообщения
Вы не можете редактировать свои сообщения
Вы не можете удалять свои сообщения
Вы не можете голосовать в опросах
Вы не можете прикреплять файлы к сообщениям
Вы не можете скачивать файлы