Ошибка

(Trance, Techno, Hard Trance, Progressive Trance) Richard Durand - Always The Sun - 2009, FLAC (image+.cue), lossless

Ответить на тему
 
Автор Сообщение

FLaSh1k

Пол: Пол:Муж

Стаж: 12 лет

Сообщений: 3154

Предупреждений: 3

Рейтинг

post 24-Июн-2010 00:47 0[+]

[Цитировать] 

Richard Durand
Always The Sun

Жанр: Trance, Techno, Hard Trance, Progressive Trance
Происхождение исполнителя: Голландия
Год издания данного носителя: 2009
Страна-производитель носителя: Нидерланды
Тип релиза: image+.cue
Аудио кодек: FLAC
Битрейт аудио: lossless
Продолжительность: 01:13:15
Треклист:
01. Divine [04:59]
02. Always The Sun [05:39] (feat. Simon)
03. Papillon [04:18]
04. Into Something [05:37]
05. Ancient Garden [04:48]
06. No Way Home [05:32] (feat. Simon)
07. The Cube [04:21]
08. Slow Geisha [04:12]
09. City Never Sleeps [04:58] (feat. Carol van Dyk)
10. Mouseville [05:41]
11. The Trigger [04:33]
12. Silver Key [05:27]
13. Chaos [04:48]
14. Dr. Gorgo [04:20]
15. No Way Home (Unplugged) [03:55] (feat. Simon)

Код:

Exact Audio Copy V0.99 prebeta 3 from 28. July 2007
EAC extraction logfile from 10. June 2009, 20:35
Richard Durand / Always The Sun
Used drive  : TSSTcorpCD/DVDW TS-H552L   Adapter: 1  ID: 0
Read mode               : Secure
Utilize accurate stream : Yes
Defeat audio cache      : Yes
Make use of C2 pointers : No
Read offset correction                      : 6
Overread into Lead-In and Lead-Out          : No
Fill up missing offset samples with silence : Yes
Delete leading and trailing silent blocks   : No
Null samples used in CRC calculations       : Yes
Used interface                              : Native Win32 interface for Win NT & 2000
Used output format              : User Defined Encoder
Selected bitrate                : 1024 kBit/s
Quality                         : High
Add ID3 tag                     : Yes
Command line compressor         : C:\Program Files\Exact Audio Copy\FLAC\FLAC.EXE
Additional command line options : -V -8 -T "artist=%a" -T "title=%t" -T "album=%g" -T "date=%y" -T "tracknumber=%n" -T "genre=%m" %s
TOC of the extracted CD
     Track |   Start  |  Length  | Start sector | End sector
    ---------------------------------------------------------
        1  |  0:00.00 |  4:59.21 |         0    |    22445
        2  |  4:59.21 |  5:39.52 |     22446    |    47922
        3  | 10:38.73 |  4:18.51 |     47923    |    67323
        4  | 14:57.49 |  5:37.45 |     67324    |    92643
        5  | 20:35.19 |  4:48.19 |     92644    |   114262
        6  | 25:23.38 |  5:32.01 |    114263    |   139163
        7  | 30:55.39 |  4:21.33 |    139164    |   158771
        8  | 35:16.72 |  4:12.69 |    158772    |   177740
        9  | 39:29.66 |  4:58.48 |    177741    |   200138
       10  | 44:28.39 |  5:41.18 |    200139    |   225731
       11  | 50:09.57 |  4:33.63 |    225732    |   246269
       12  | 54:43.45 |  5:27.08 |    246270    |   270802
       13  | 60:10.53 |  4:48.48 |    270803    |   292450
       14  | 64:59.26 |  4:20.60 |    292451    |   312010
       15  | 69:20.11 |  3:55.40 |    312011    |   329675
Range status and errors
Selected range
     Filename E:\Richard Durand - Always The Sun.wav
     Peak level 100.0 %
     Range quality 100.0 %
     Test CRC F0EDBC47
     Copy CRC F0EDBC47
     Copy OK
No errors occurred
AccurateRip summary
Track  1  not present in database
Track  2  not present in database
Track  3  not present in database
Track  4  not present in database
Track  5  not present in database
Track  6  not present in database
Track  7  not present in database
Track  8  not present in database
Track  9  not present in database
Track 10  not present in database
Track 11  not present in database
Track 12  not present in database
Track 13  not present in database
Track 14  not present in database
Track 15  not present in database
None of the tracks are present in the AccurateRip database
End of status report

Код:

REM GENRE Trance
REM DATE 2009
REM DISCID BE112B0F
REM COMMENT ExactAudioCopy v0.99pb3
PERFORMER "Richard Durand"
TITLE "Always The Sun"
FILE "01-richard_durand_-_always_the_sun-gstar.flac" WAVE
  TRACK 01 AUDIO
    TITLE "Divine"
    INDEX 01 00:00:00
  TRACK 02 AUDIO
    TITLE "Always The Sun"
    INDEX 01 04:59:21
  TRACK 03 AUDIO
    TITLE "Papillon"
    INDEX 01 10:38:73
  TRACK 04 AUDIO
    TITLE "Into Something"
    INDEX 01 14:57:49
  TRACK 05 AUDIO
    TITLE "Ancient Garden"
    INDEX 01 20:35:19
  TRACK 06 AUDIO
    TITLE "No Way Home"
    INDEX 01 25:23:38
  TRACK 07 AUDIO
    TITLE "The Cube"
    INDEX 01 30:55:39
  TRACK 08 AUDIO
    TITLE "Slow Geisha"
    INDEX 01 35:16:72
  TRACK 09 AUDIO
    TITLE "City Never Sleeps"
    INDEX 01 39:29:66
  TRACK 10 AUDIO
    TITLE "Mouseville"
    INDEX 01 44:28:39
  TRACK 11 AUDIO
    TITLE "The Trigger"
    INDEX 01 50:09:57
  TRACK 12 AUDIO
    TITLE "Silver Key"
    INDEX 01 54:43:45
  TRACK 13 AUDIO
    TITLE "Chaos"
    INDEX 01 60:10:53
  TRACK 14 AUDIO
    TITLE "Dr. Gorgo"
    INDEX 01 64:59:26
  TRACK 15 AUDIO
    TITLE "No Way Home (Unplugged)"
    INDEX 01 69:20:11


Лейбл: Magik Muzik
Каталоговый номер: 5414165029939
Тип рипа: image+.cue
Релиз: 2009
Доп. информация: waffles.fm
info [Профиль]  [ЛС] 
Показать сообщения:    
Ответить на тему

Текущее время: 19-Май 22:26

Часовой пояс: GMT + 4



Вы не можете начинать темы
Вы не можете отвечать на сообщения
Вы не можете редактировать свои сообщения
Вы не можете удалять свои сообщения
Вы не можете голосовать в опросах
Вы не можете прикреплять файлы к сообщениям
Вы не можете скачивать файлы