Ошибка

(Trance) Ferr (Ferry Corsten) - Looking Forward, 1996, Flac(tracks)+.cue, lossless, scans

Ответить на тему
 
Автор Сообщение

Shamik

Пол: Пол:Муж

Стаж: 13 лет

Сообщений: 486

Кокосовые острова
Рейтинг

post 01-Апр-2010 14:27 2[+]

[Цитировать] 

Ferry Corsten (Ferr) - Looking Forward

Label:.........:: Nutrition
Catalog#:...:: 700020
Format:.......:: CD
Country:.....:: Netherlands
Released:...:: 1996
Genre:........:: Electronic
Style:..........:: Trance

Формат: FLAC
Тип рипа: tracks + .cue
Битрейт: lossless
Продолжительность: 01:13:31

Tracklist:
01. I Knew I could (9:01)
02. Midnight Moods (7:17)
03. Coma (6:50)
04. Nighttime Experience (7:24)
05. Legend (7:48)
06. Hear the dolphins (7:22)
07. Transation (7:32)
08. Seed (7:17)
09. Dreamscape (6:56)
10. Monomotion (6:04)
Exact Audio Copy V0.99 prebeta 5 from 4. May 2009 

EAC extraction logfile from 20. April 2010, 22:10

Ferr / Looking Forward

Used drive : HL-DT-STDVD-RAM GSA-H30N Adapter: 3 ID: 0

Read mode : Secure
Utilize accurate stream : Yes
Defeat audio cache : Yes
Make use of C2 pointers : No

Read offset correction : 102
Overread into Lead-In and Lead-Out : No
Fill up missing offset samples with silence : Yes
Delete leading and trailing silent blocks : No
Null samples used in CRC calculations : Yes
Used interface : Native Win32 interface for Win NT & 2000
Gap handling : Appended to previous track

Used output format : User Defined Encoder
Selected bitrate : 768 kBit/s
Quality : High
Add ID3 tag : No
Command line compressor : C:\Program Files (x86)\Exact Audio Copy\FLAC\FLAC.EXE
Additional command line options : -8 -V -T "ARTIST=%a" -T "TITLE=%t" -T "ALBUM=%g" -T "DATE=%y" -T "TRACKNUMBER=%n" -T "GENRE=%m" -T "COMMENT=EAC FLAC -8" %s

TOC of the extracted CD

Track | Start | Length | Start sector | End sector
---------------------------------------------------------
1 | 0:00.00 | 9:01.09 | 0 | 40583
2 | 9:01.09 | 7:16.72 | 40584 | 73355
3 | 16:18.06 | 6:49.56 | 73356 | 104086
4 | 23:07.62 | 7:24.32 | 104087 | 137418
5 | 30:32.19 | 7:48.12 | 137419 | 172530
6 | 38:20.31 | 7:22.00 | 172531 | 205680
7 | 45:42.31 | 7:32.37 | 205681 | 239617
8 | 53:14.68 | 7:16.39 | 239618 | 272356
9 | 60:31.32 | 6:55.65 | 272357 | 303546
10 | 67:27.22 | 6:03.46 | 303547 | 330817

Track 1

Filename D:\TEMP\Ferr - Looking Forward (1996) [FLAC]\01 - I Knew I could.wav

Pre-gap length 0:00:02.00

Peak level 94.4 %
Track quality 100.0 %
Test CRC 520916EC
Copy CRC 520916EC
Track not present in AccurateRip database
Copy OK

Track 2

Filename D:\TEMP\Ferr - Looking Forward (1996) [FLAC]\02 - Midnight Moods.wav

Peak level 100.0 %
Track quality 100.0 %
Test CRC E0AD333C
Copy CRC E0AD333C
Track not present in AccurateRip database
Copy OK

Track 3

Filename D:\TEMP\Ferr - Looking Forward (1996) [FLAC]\03 - Coma.wav

Pre-gap length 0:00:00.01

Peak level 94.4 %
Track quality 99.9 %
Test CRC 44CFEB71
Copy CRC 44CFEB71
Track not present in AccurateRip database
Copy OK

Track 4

Filename D:\TEMP\Ferr - Looking Forward (1996) [FLAC]\04 - Nighttime Experience.wav

Peak level 94.4 %
Track quality 100.0 %
Test CRC CE9D2E56
Copy CRC CE9D2E56
Track not present in AccurateRip database
Copy OK

Track 5

Filename D:\TEMP\Ferr - Looking Forward (1996) [FLAC]\05 - Legend.wav

Peak level 94.4 %
Track quality 100.0 %
Test CRC 4B23EF4C
Copy CRC 4B23EF4C
Track not present in AccurateRip database
Copy OK

Track 6

Filename D:\TEMP\Ferr - Looking Forward (1996) [FLAC]\06 - Hear the dolphins.wav

Peak level 100.0 %
Track quality 100.0 %
Test CRC E956235F
Copy CRC E956235F
Track not present in AccurateRip database
Copy OK

Track 7

Filename D:\TEMP\Ferr - Looking Forward (1996) [FLAC]\07 - Transation.wav

Peak level 97.8 %
Track quality 100.0 %
Test CRC 465DCA0D
Copy CRC 465DCA0D
Track not present in AccurateRip database
Copy OK

Track 8

Filename D:\TEMP\Ferr - Looking Forward (1996) [FLAC]\08 - Seed.wav

Peak level 94.4 %
Track quality 100.0 %
Test CRC FF3E7CAB
Copy CRC FF3E7CAB
Track not present in AccurateRip database
Copy OK

Track 9

Filename D:\TEMP\Ferr - Looking Forward (1996) [FLAC]\09 - Dreamscape.wav

Peak level 94.4 %
Track quality 100.0 %
Test CRC F9FC51B2
Copy CRC F9FC51B2
Track not present in AccurateRip database
Copy OK

Track 10

Filename D:\TEMP\Ferr - Looking Forward (1996) [FLAC]\10 - Monomotion.wav

Peak level 94.4 %
Track quality 99.9 %
Test CRC D59CFFCC
Copy CRC D59CFFCC
Track not present in AccurateRip database
Copy OK

None of the tracks are present in the AccurateRip database

No errors occurred

End of status report
REM GENRE Trance 
REM DATE 1996
REM DISCID 8F113A0A
REM COMMENT "ExactAudioCopy v0.99pb5"
PERFORMER "Ferr"
TITLE "Looking Forward"
FILE "Ferr - Looking Forward (1996) [FLAC]\01 - I Knew I could.wav" WAVE
TRACK 01 AUDIO
TITLE "I Knew I could"
PERFORMER "Ferr"
FLAGS DCP
INDEX 01 00:00:00
FILE "Ferr - Looking Forward (1996) [FLAC]\02 - Midnight Moods.wav" WAVE
TRACK 02 AUDIO
TITLE "Midnight Moods"
PERFORMER "Ferr"
FLAGS DCP
INDEX 01 00:00:00
TRACK 03 AUDIO
TITLE "Coma"
PERFORMER "Ferr"
FLAGS DCP
INDEX 00 07:16:71
FILE "Ferr - Looking Forward (1996) [FLAC]\03 - Coma.wav" WAVE
INDEX 01 00:00:00
FILE "Ferr - Looking Forward (1996) [FLAC]\04 - Nighttime Experience.wav" WAVE
TRACK 04 AUDIO
TITLE "Nighttime Experience"
PERFORMER "Ferr"
FLAGS DCP
INDEX 01 00:00:00
FILE "Ferr - Looking Forward (1996) [FLAC]\05 - Legend.wav" WAVE
TRACK 05 AUDIO
TITLE "Legend"
PERFORMER "Ferr"
FLAGS DCP
INDEX 01 00:00:00
FILE "Ferr - Looking Forward (1996) [FLAC]\06 - Hear the dolphins.wav" WAVE
TRACK 06 AUDIO
TITLE "Hear the dolphins"
PERFORMER "Ferr"
FLAGS DCP
INDEX 01 00:00:00
FILE "Ferr - Looking Forward (1996) [FLAC]\07 - Transation.wav" WAVE
TRACK 07 AUDIO
TITLE "Transation"
PERFORMER "Ferr"
FLAGS DCP
INDEX 01 00:00:00
FILE "Ferr - Looking Forward (1996) [FLAC]\08 - Seed.wav" WAVE
TRACK 08 AUDIO
TITLE "Seed"
PERFORMER "Ferr"
FLAGS DCP
INDEX 01 00:00:00
FILE "Ferr - Looking Forward (1996) [FLAC]\09 - Dreamscape.wav" WAVE
TRACK 09 AUDIO
TITLE "Dreamscape"
PERFORMER "Ferr"
FLAGS DCP
INDEX 01 00:00:00
FILE "Ferr - Looking Forward (1996) [FLAC]\10 - Monomotion.wav" WAVE
TRACK 10 AUDIO
TITLE "Monomotion"
PERFORMER "Ferr"
FLAGS DCP
INDEX 01 00:00:00
Рип диска мой. Все сканый 600 DPI (за что спасибо cybpsy)

Это первый студийный альбом Ferry Corsten'a. Он достаточно сильно отличается от его остального творчества. Он более глубокий, космический. Меня он очень удивил, причем приятно Улыбаюсь
info [Профиль]  [ЛС] 

Ильья

Пол: Пол:Муж

Стаж: 13 лет

Сообщений: 1658

Россия
Рейтинг

post 21-Апр-2010 11:21 (спустя 19 дней) [-]1[+]

[Цитировать] 

Shamik
а в mp3 такой нельзя сделать ?
info [Профиль]  [ЛС] 

FantasticMrFox

Пол: Пол:Муж

Стаж: 13 лет

Сообщений: 711

Россия
Рейтинг

post 21-Апр-2010 11:48 (спустя 26 минут) [-]1[+]

[Цитировать] 

Ильья писал(а):

Shamik
а в mp3 такой нельзя сделать ?
http://www.tapochek.net/viewtopic.php?t=20883 - ах поиск, ах поиск.

Shamik, спасибо еще разок, приятный альбом. А кибу спасибо за сканы Ухмыляюсь
info [Профиль]  [ЛС] 

Ильья

Пол: Пол:Муж

Стаж: 13 лет

Сообщений: 1658

Россия
Рейтинг

post 21-Апр-2010 12:18 (спустя 30 минут) [-]1[+]

[Цитировать] 

FantasticMrFox писал(а):

http://www.tapochek.net/viewtopic.php?t=20883 - ах поиск, ах поиск.
ой, ссори))) я думал этот альбом тока щас нашёлся, даже не подозревал, что он есть на трекере Подмигиваю
info [Профиль]  [ЛС] 
Показать сообщения:    
Ответить на тему

Текущее время: 19-Май 23:36

Часовой пояс: GMT + 4



Вы не можете начинать темы
Вы не можете отвечать на сообщения
Вы не можете редактировать свои сообщения
Вы не можете удалять свои сообщения
Вы не можете голосовать в опросах
Вы не можете прикреплять файлы к сообщениям
Вы не можете скачивать файлы