Ошибка

(Rock) [WEB] Dogstar - Somewhere Between the Power Lines and Palm Trees - 2023, FLAC (tracks)+covers, lossless

Ответить на тему
 
Автор Сообщение

Demon3x

Пол: Пол:Муж

Стаж: 14 лет

Сообщений: 1273

Россия
Рейтинг

post 05-Окт-2023 21:19 0[+]

[Цитировать] 

Dogstar - Somewhere Between the Power Lines and Palm Trees



Жанр: Rock
Год: 2023
Продолжительность: 00:40:05
Издание: Dillon Street Records
Источник: qobuz
Кодек: FLAC 24/48
Битрейт: 1771 kbps
Тип рипа: tracks
Дополнительная информация: https://www.dogstarofficial.com


    01. Blonde (3:19)
    02. How the Story Ends (3:15)
    03. Everything Turns Around (3:01)
    04. Overhang (4:00)
    05. Dillon Street (3:38)
    06. Lily (2:44)
    07. Lust (2:35)
    08. Glimmer (4:43)
    09. Sunrise (3:20)
    10. Sleep (3:54)
    11. Upside (2:51)
    12. Breach (2:45)

Код:

--------------------------------------------------------------------------------
Analyzed: DOGSTAR / Somewhere Between the Power Lines and Palm Trees
--------------------------------------------------------------------------------

DR         Peak         RMS     Duration Track
--------------------------------------------------------------------------------
DR7       -1.00 dB    -9.52 dB      3:19 01-Blonde
DR7       -1.00 dB    -9.69 dB      3:15 02-How the Story Ends
DR8       -1.00 dB   -10.12 dB      3:01 03-Everything Turns Around
DR7       -1.00 dB    -9.62 dB      4:00 04-Overhang
DR8       -1.00 dB   -10.64 dB      3:38 05-Dillon Street
DR6       -1.00 dB    -9.05 dB      2:44 06-Lily
DR7       -1.00 dB    -9.59 dB      2:35 07-Lust
DR8       -1.00 dB   -10.79 dB      4:43 08-Glimmer
DR7       -1.00 dB    -9.29 dB      3:20 09-Sunrise
DR7       -1.00 dB    -9.47 dB      3:54 10-Sleep
DR7       -1.00 dB    -8.61 dB      2:51 11-Upside
DR7       -1.00 dB    -9.35 dB      2:45 12-Breach
--------------------------------------------------------------------------------

Number of tracks:  12
Official DR value: DR7

Samplerate:        48000 Hz
Channels:          2
Bits per sample:   24
Bitrate:           1771 kbps
Codec:             FLAC
================================================================================
info [Профиль]  [ЛС] 
Показать сообщения:    
Ответить на тему

Текущее время: 21-Фев 12:50

Часовой пояс: GMT + 4



Вы не можете начинать темы
Вы не можете отвечать на сообщения
Вы не можете редактировать свои сообщения
Вы не можете удалять свои сообщения
Вы не можете голосовать в опросах
Вы не можете прикреплять файлы к сообщениям
Вы не можете скачивать файлы