Ошибка

(Synthpop) IAMX - The Unified Field - 2013, FLAC (tracks+.cue), lossless

Ответить на тему
 
Автор Сообщение

Колючий

Пол: Пол:Муж

Стаж: 4 года 9 месяцев

Сообщений: 5

СССР
Рейтинг

post 28-Авг-2019 01:21 0[+]

[Цитировать] 

IAMX - The Unified Field


pic="https://i87.fastpic.ru/big/2019/0827/dc/0a9186e955e1896b925a2868ef3a3cdc.jpg"


Жанр: Synthpop
Год издания данного носителя: 2013
Страна-производитель носителя: EU
Лейбл: 61Seconds Records
Каталоговый номер: SOS2001
Аудио кодек: FLAC
Тип рипа: tracks+.cue
Битрейт аудио: lossless
Продолжительность: 00:48:43
Источник: what.cd
Tracklist:
01. I Come With Knives [04:23]
02. Sorrow [04:44]
03. The Unified Field [04:13]
04. The Adrenalin Room [03:04]
05. Quiet the Mind [04:03]
06. Under Atomic Skies [03:50]
07. Screams [03:54]
08. Come Home [04:00]
09. Animal Impulses [03:56]
10. Walk With the Noise [04:02]
11. Land of Broken Promises [04:45]
12. Trials [03:49]
Exact Audio Copy V1.1 from 23. June 2015 

EAC extraction logfile from 31. October 2015, 12:14

IAMX / The Unified Field

Used drive : HL-DT-STDVDRAM GH24NS90 Adapter: 1 ID: 0

Read mode : Secure
Utilize accurate stream : Yes
Defeat audio cache : Yes
Make use of C2 pointers : No

Read offset correction : 6
Overread into Lead-In and Lead-Out : No
Fill up missing offset samples with silence : Yes
Delete leading and trailing silent blocks : No
Null samples used in CRC calculations : Yes
Used interface : Native Win32 interface for Win NT & 2000
Gap handling : Appended to previous track

Used output format : User Defined Encoder
Selected bitrate : 1024 kBit/s
Quality : High
Add ID3 tag : No
Command line compressor : D:Program Files (x86)Exact Audio CopyFlacflac.exe
Additional command line options : -6 -V -T "ARTIST=%artist%" -T "TITLE=%title%" -T "ALBUM=%albumtitle%" -T "DATE=%year%" -T "TRACKNUMBER=%tracknr%" -T "GENRE=%genre%" -T "COMMENT=%comment%" -T "BAND=%albuminterpret%" -T "ALBUMARTIST=%albuminterpret%" -T "COMPOSER=%composer%" %haslyrics%--tag-from-file=LYRICS="%lyricsfile%"%haslyrics% -T "DISCNUMBER=%cdnumber%" -T "TOTALDISCS=%totalcds%" -T "TOTALTRACKS=%numtracks%" %hascover%--picture="%coverfile%"%hascover% %source% -o %dest%

TOC of the extracted CD

Track | Start | Length | Start sector | End sector
---------------------------------------------------------
1 | 0:00.00 | 4:23.17 | 0 | 19741
2 | 4:23.17 | 4:44.27 | 19742 | 41068
3 | 9:07.44 | 4:13.00 | 41069 | 60043
4 | 13:20.44 | 3:04.30 | 60044 | 73873
5 | 16:24.74 | 4:02.40 | 73874 | 92063
6 | 20:27.39 | 3:49.64 | 92064 | 109302
7 | 24:17.28 | 3:53.49 | 109303 | 126826
8 | 28:11.02 | 3:59.59 | 126827 | 144810
9 | 32:10.61 | 3:56.00 | 144811 | 162510
10 | 36:06.61 | 4:02.00 | 162511 | 180660
11 | 40:08.61 | 4:44.59 | 180661 | 202019
12 | 44:53.45 | 3:48.55 | 202020 | 219174

Track 1

Filename D:Musicwhat.cd uploadsIAMX - The Unified Field (2013) {FLAC}�1 - I Come With Knives.wav

Pre-gap length 0:00:02.00

Peak level 100.0 %
Extraction speed 1.1 X
Track quality 100.0 %
Test CRC 9EDC1C67
Copy CRC 9EDC1C67
Accurately ripped (confidence 15) [7BA316BC] (AR v2)
Copy OK

Track 2

Filename D:Musicwhat.cd uploadsIAMX - The Unified Field (2013) {FLAC}�2 - Sorrow.wav

Pre-gap length 0:00:01.98

Peak level 100.0 %
Extraction speed 1.2 X
Track quality 100.0 %
Test CRC AAC5C8B6
Copy CRC AAC5C8B6
Accurately ripped (confidence 14) [6C07DAF7] (AR v2)
Copy OK

Track 3

Filename D:Musicwhat.cd uploadsIAMX - The Unified Field (2013) {FLAC}�3 - The Unified Field.wav

Pre-gap length 0:00:01.97

Peak level 100.0 %
Extraction speed 1.3 X
Track quality 100.0 %
Test CRC 9423CB67
Copy CRC 9423CB67
Accurately ripped (confidence 14) [5329BC59] (AR v2)
Copy OK

Track 4

Filename D:Musicwhat.cd uploadsIAMX - The Unified Field (2013) {FLAC}�4 - The Adrenalin Room.wav

Pre-gap length 0:00:01.98

Peak level 100.0 %
Extraction speed 1.4 X
Track quality 100.0 %
Test CRC F1738090
Copy CRC F1738090
Accurately ripped (confidence 14) [23C8D8D5] (AR v2)
Copy OK

Track 5

Filename D:Musicwhat.cd uploadsIAMX - The Unified Field (2013) {FLAC}�5 - Quiet the Mind.wav

Pre-gap length 0:00:01.98

Peak level 92.2 %
Extraction speed 1.5 X
Track quality 100.0 %
Test CRC A8DB1169
Copy CRC A8DB1169
Accurately ripped (confidence 14) [54A62152] (AR v2)
Copy OK

Track 6

Filename D:Musicwhat.cd uploadsIAMX - The Unified Field (2013) {FLAC}�6 - Under Atomic Skies.wav

Pre-gap length 0:00:01.98

Peak level 97.0 %
Extraction speed 1.6 X
Track quality 100.0 %
Test CRC BAFDDDA2
Copy CRC BAFDDDA2
Accurately ripped (confidence 14) [1276B5E3] (AR v2)
Copy OK

Track 7

Filename D:Musicwhat.cd uploadsIAMX - The Unified Field (2013) {FLAC}�7 - Screams.wav

Pre-gap length 0:00:01.98

Peak level 94.4 %
Extraction speed 1.6 X
Track quality 100.0 %
Test CRC 2297594A
Copy CRC 2297594A
Accurately ripped (confidence 14) [B447EF31] (AR v2)
Copy OK

Track 8

Filename D:Musicwhat.cd uploadsIAMX - The Unified Field (2013) {FLAC}�8 - Come Home.wav

Pre-gap length 0:00:01.97

Peak level 100.0 %
Extraction speed 1.7 X
Track quality 100.0 %
Test CRC B741AAB6
Copy CRC B741AAB6
Accurately ripped (confidence 14) [BEA44EBE] (AR v2)
Copy OK

Track 9

Filename D:Musicwhat.cd uploadsIAMX - The Unified Field (2013) {FLAC}�9 - Animal Impulses.wav

Pre-gap length 0:00:01.98

Peak level 100.0 %
Extraction speed 1.8 X
Track quality 100.0 %
Test CRC 879D89FC
Copy CRC 879D89FC
Accurately ripped (confidence 14) [6EAEA204] (AR v2)
Copy OK

Track 10

Filename D:Musicwhat.cd uploadsIAMX - The Unified Field (2013) {FLAC}10 - Walk with the Noise.wav

Pre-gap length 0:00:01.98

Peak level 100.0 %
Extraction speed 1.6 X
Track quality 99.9 %
Test CRC 5AF93602
Copy CRC 5AF93602
Accurately ripped (confidence 14) [148322FD] (AR v2)
Copy OK

Track 11

Filename D:Musicwhat.cd uploadsIAMX - The Unified Field (2013) {FLAC}11 - Land of Broken Promises.wav

Pre-gap length 0:00:01.98

Peak level 100.0 %
Extraction speed 2.0 X
Track quality 100.0 %
Test CRC 9CF06B49
Copy CRC 9CF06B49
Accurately ripped (confidence 14) [765BC000] (AR v2)
Copy OK

Track 12

Filename D:Musicwhat.cd uploadsIAMX - The Unified Field (2013) {FLAC}12 - Trials.wav

Pre-gap length 0:00:01.98

Peak level 100.0 %
Extraction speed 1.7 X
Track quality 99.9 %
Test CRC E9C67AF4
Copy CRC E9C67AF4
Accurately ripped (confidence 14) [75E037D8] (AR v2)
Copy OK

All tracks accurately ripped

No errors occurred

End of status report

---- CUETools DB Plugin V2.1.6

[CTDB TOCID: ubfNjKcZrFlslYoygP2FZBCi0.c-] found
Submit result: ubfNjKcZrFlslYoygP2FZBCi0.c- has been confirmed
Track | CTDB Status
1 | (23/24) Accurately ripped
2 | (23/24) Accurately ripped
3 | (23/24) Accurately ripped
4 | (23/24) Accurately ripped
5 | (23/24) Accurately ripped
6 | (23/24) Accurately ripped
7 | (23/24) Accurately ripped
8 | (23/24) Accurately ripped
9 | (23/24) Accurately ripped
10 | (23/24) Accurately ripped
11 | (23/24) Accurately ripped
12 | (22/24) Accurately ripped

==== Log checksum 2479B5AACE3D8FA220B83EE12CC0DCBFD0DC42738798FE9A116ECC5661D85AFC ====
REM DATE 2013 
REM DISCID B30B6A0C
REM COMMENT "ExactAudioCopy v1.1"
CATALOG 4046661293524
PERFORMER "IAMX"
TITLE "The Unified Field"
FILE "01 - I Come With Knives.wav" WAVE
TRACK 01 AUDIO
TITLE "I Come With Knives"
PERFORMER "IAMX"
ISRC DEZ901300038
FLAGS DCP
INDEX 01 00:00:00
TRACK 02 AUDIO
TITLE "Sorrow"
PERFORMER "IAMX"
ISRC DEZ901300039
FLAGS DCP
INDEX 00 04:21:18
FILE "02 - Sorrow.wav" WAVE
INDEX 01 00:00:00
TRACK 03 AUDIO
TITLE "The Unified Field"
PERFORMER "IAMX"
ISRC DEZ901300040
FLAGS DCP
INDEX 00 04:42:29
FILE "03 - The Unified Field.wav" WAVE
INDEX 01 00:00:00
TRACK 04 AUDIO
TITLE "The Adrenalin Room"
PERFORMER "IAMX"
ISRC DEZ901300041
FLAGS DCP
INDEX 00 04:11:01
FILE "04 - The Adrenalin Room.wav" WAVE
INDEX 01 00:00:00
TRACK 05 AUDIO
TITLE "Quiet the Mind"
PERFORMER "IAMX"
ISRC DEZ901300042
FLAGS DCP
INDEX 00 03:02:31
FILE "05 - Quiet the Mind.wav" WAVE
INDEX 01 00:00:00
TRACK 06 AUDIO
TITLE "Under Atomic Skies"
PERFORMER "IAMX"
ISRC DEZ901300043
FLAGS DCP
INDEX 00 04:00:41
FILE "06 - Under Atomic Skies.wav" WAVE
INDEX 01 00:00:00
TRACK 07 AUDIO
TITLE "Screams"
PERFORMER "IAMX"
ISRC DEZ901300044
FLAGS DCP
INDEX 00 03:47:65
FILE "07 - Screams.wav" WAVE
INDEX 01 00:00:00
TRACK 08 AUDIO
TITLE "Come Home"
PERFORMER "IAMX"
ISRC DEZ901300047
FLAGS DCP
INDEX 00 03:51:51
FILE "08 - Come Home.wav" WAVE
INDEX 01 00:00:00
TRACK 09 AUDIO
TITLE "Animal Impulses"
PERFORMER "IAMX"
ISRC DEZ901300045
FLAGS DCP
INDEX 00 03:57:60
FILE "09 - Animal Impulses.wav" WAVE
INDEX 01 00:00:00
TRACK 10 AUDIO
TITLE "Walk with the Noise"
PERFORMER "IAMX"
ISRC DEZ901300048
FLAGS DCP
INDEX 00 03:54:01
FILE "10 - Walk with the Noise.wav" WAVE
INDEX 01 00:00:00
TRACK 11 AUDIO
TITLE "Land of Broken Promises"
PERFORMER "IAMX"
ISRC DEZ901300046
FLAGS DCP
INDEX 00 04:00:01
FILE "11 - Land of Broken Promises.wav" WAVE
INDEX 01 00:00:00
TRACK 12 AUDIO
TITLE "Trials"
PERFORMER "IAMX"
ISRC DEZ901300049
FLAGS DCP
INDEX 00 04:42:60
FILE "12 - Trials.wav" WAVE
INDEX 01 00:00:00

Внимание! Раздача осуществляется исключительно в ознакомительных целях.
Attention! Handing out is carried out only to get acquainted.

Поддержи исполнителя! Покупай официальные релизы!
Support the artist! Buy the official releases!
info [Профиль]  [ЛС] 
Показать сообщения:    
Ответить на тему

Текущее время: 25-Фев 09:36

Часовой пояс: GMT + 4



Вы не можете начинать темы
Вы не можете отвечать на сообщения
Вы не можете редактировать свои сообщения
Вы не можете удалять свои сообщения
Вы не можете голосовать в опросах
Вы не можете прикреплять файлы к сообщениям
Вы не можете скачивать файлы