Ошибка

(Synthwave / Retrowave / Electronic) Scandroid - Scandroid - 2016, FLAC (tracks+.cue), lossless

Ответить на тему
 
Автор Сообщение

Slava2312

Пол: Пол:Муж

Стаж: 7 лет 8 месяцев

Сообщений: 21

СССР
Рейтинг

post 10-Дек-2018 23:23 0[+]

[Цитировать] 

Scandroid - Scandroid


pic="https://i107.fastpic.ru/big/2018/1210/c4/fb67681019ab76635aedbd341b01b6c4.jpg"



Жанр: Synthwave / Retrowave / Electronic
Год издания данного носителя: 2016
Страна-производитель носителя: US
Лейбл: FiXT Music
Каталоговый номер: none
Аудио кодек: FLAC
Тип рипа: tracks+.cue
Битрейт аудио: lossless
Продолжительность: 01:07:22
Источник (релизер): Фирменный диск
Полиграфия: Отсутствует
Для ознакомления: bandcamp
Треклист:
[4:39] 01. Scandroid - 2517
[5:50] 02. Scandroid - Salvation Code
[5:35] 03. Scandroid - Aphelion
[3:58] 04. Scandroid - Shout
[3:39] 05. Scandroid - Destination Unknown
[3:57] 06. Scandroid - Connection
[4:29] 07. Scandroid - Datastream
[4:59] 08. Scandroid - Empty Streets
[5:02] 09. Scandroid - Awakening With You
[5:36] 10. Scandroid - Atom & E.E.V.
[6:13] 11. Scandroid - Neo-Tokyo
[4:02] 12. Scandroid - Pro-bots and Robophobes (feat. Circle of Dust)
[5:40] 13. Scandroid - Eden
[3:41] 14. Scandroid - Singularity
Exact Audio Copy V1.3 from 2. September 2016 

EAC extraction logfile from 4. December 2016, 21:26

Scandroid / Scandroid

Used drive : ASUS DRW-24B1LT Adapter: 1 ID: 0

Read mode : Secure
Utilize accurate stream : Yes
Defeat audio cache : Yes
Make use of C2 pointers : No

Read offset correction : 102
Overread into Lead-In and Lead-Out : No
Fill up missing offset samples with silence : Yes
Delete leading and trailing silent blocks : No
Null samples used in CRC calculations : Yes
Used interface : Native Win32 interface for Win NT & 2000
Gap handling : Appended to previous track

Used output format : User Defined Encoder
Selected bitrate : 768 kBit/s
Quality : High
Add ID3 tag : No
Command line compressor : C:Program Files (x86)Exact Audio CopyFLACFLAC.EXE
Additional command line options : -V -8 -T "Genre=%genre%" -T "Artist=%artist%" -T "Title=%title%" -T "Album=%albumtitle%" -T "Date=%year%" -T "Tracknumber=%tracknr%" -T "Comment=%comment%" %source%

TOC of the extracted CD

Track | Start | Length | Start sector | End sector
---------------------------------------------------------
1 | 0:00.00 | 4:39.11 | 0 | 20935
2 | 4:39.11 | 5:50.17 | 20936 | 47202
3 | 10:29.28 | 5:35.02 | 47203 | 72329
4 | 16:04.30 | 3:58.23 | 72330 | 90202
5 | 20:02.53 | 3:38.57 | 90203 | 106609
6 | 23:41.35 | 3:57.13 | 106610 | 124397
7 | 27:38.48 | 4:29.35 | 124398 | 144607
8 | 32:08.08 | 4:59.35 | 144608 | 167067
9 | 37:07.43 | 5:02.10 | 167068 | 189727
10 | 42:09.53 | 5:35.40 | 189728 | 214892
11 | 47:45.18 | 6:13.27 | 214893 | 242894
12 | 53:58.45 | 4:02.26 | 242895 | 261070
13 | 58:00.71 | 5:40.13 | 261071 | 286583
14 | 63:41.09 | 3:40.63 | 286584 | 303146

Track 1

Filename C:Music�1. Scandroid - 2517.wav

Pre-gap length 0:00:02.00

Peak level 100.0 %
Extraction speed 3.5 X
Track quality 100.0 %
Test CRC 7312A6B6
Copy CRC 7312A6B6
Copy OK

Track 2

Filename C:Music�2. Scandroid - Salvation Code.wav

Peak level 99.9 %
Extraction speed 3.5 X
Track quality 99.9 %
Test CRC 73BB683E
Copy CRC 73BB683E
Copy OK

Track 3

Filename C:Music�3. Scandroid - Aphelion.wav

Peak level 99.7 %
Extraction speed 4.5 X
Track quality 100.0 %
Test CRC 1EF36483
Copy CRC 1EF36483
Copy OK

Track 4

Filename C:Music�4. Scandroid - Shout.wav

Peak level 100.0 %
Extraction speed 4.6 X
Track quality 100.0 %
Test CRC D889CC8C
Copy CRC D889CC8C
Copy OK

Track 5

Filename C:Music�5. Scandroid - Destination Unknown.wav

Peak level 100.0 %
Extraction speed 3.8 X
Track quality 99.9 %
Test CRC D8B6ED14
Copy CRC D8B6ED14
Copy OK

Track 6

Filename C:Music�6. Scandroid - Connection.wav

Peak level 100.0 %
Extraction speed 5.1 X
Track quality 100.0 %
Test CRC B5B15D89
Copy CRC B5B15D89
Copy OK

Track 7

Filename C:Music�7. Scandroid - Datastream.wav

Peak level 99.9 %
Extraction speed 5.4 X
Track quality 100.0 %
Test CRC 1E5200C8
Copy CRC 1E5200C8
Copy OK

Track 8

Filename C:Music�8. Scandroid - Empty Streets.wav

Peak level 99.7 %
Extraction speed 4.8 X
Track quality 99.9 %
Test CRC E2CACF20
Copy CRC E2CACF20
Copy OK

Track 9

Filename C:Music�9. Scandroid - Awakening With You.wav

Peak level 100.0 %
Extraction speed 5.0 X
Track quality 99.9 %
Test CRC BB19A617
Copy CRC BB19A617
Copy OK

Track 10

Filename C:Music10. Scandroid - Atom & E.E.V..wav

Peak level 99.7 %
Extraction speed 6.4 X
Track quality 100.0 %
Test CRC 4880A4D8
Copy CRC 4880A4D8
Copy OK

Track 11

Filename C:Music11. Scandroid - Neo-Tokyo.wav

Peak level 100.0 %
Extraction speed 6.8 X
Track quality 100.0 %
Test CRC 1C3E3E44
Copy CRC 1C3E3E44
Copy OK

Track 12

Filename C:Music12. Scandroid - Pro-bots and Robophobes (feat. Circle of Dust).wav

Peak level 99.8 %
Extraction speed 5.3 X
Track quality 99.9 %
Test CRC 04936028
Copy CRC 04936028
Copy OK

Track 13

Filename C:Music13. Scandroid - Eden.wav

Peak level 100.0 %
Extraction speed 7.2 X
Track quality 100.0 %
Test CRC E0639F6E
Copy CRC E0639F6E
Copy OK

Track 14

Filename C:Music14. Scandroid - Singularity.wav

Peak level 99.8 %
Extraction speed 7.0 X
Track quality 100.0 %
Test CRC 1488361E
Copy CRC 1488361E
Copy OK

No errors occurred

End of status report

---- CUETools DB Plugin V2.1.6

[CTDB TOCID: _wkaR9xFh8GbaFrAJCjHPJ.rHTY-] found
Submit result: _wkaR9xFh8GbaFrAJCjHPJ.rHTY- has been confirmed
Track | CTDB Status
1 | (2/2) Accurately ripped
2 | (2/2) Accurately ripped
3 | (2/2) Accurately ripped
4 | (2/2) Accurately ripped
5 | (2/2) Accurately ripped
6 | (2/2) Accurately ripped
7 | (2/2) Accurately ripped
8 | (2/2) Accurately ripped
9 | (2/2) Accurately ripped
10 | (2/2) Accurately ripped
11 | (2/2) Accurately ripped
12 | (2/2) Accurately ripped
13 | (2/2) Accurately ripped
14 | (2/2) Accurately ripped

==== Log checksum CB00B565FE17FB81996EA2795B89F46F5E098330912EF38E2D64E833DD9765E7 ====
REM GENRE Synthpop 
REM DATE 2016
REM DISCID B20FC90E
REM COMMENT "ExactAudioCopy v1.3"
PERFORMER "Scandroid"
TITLE "Scandroid"
REM COMPOSER "Klayton, Red"
FILE "01. Scandroid - 2517.wav" WAVE
TRACK 01 AUDIO
TITLE "2517"
PERFORMER "Scandroid"
REM COMPOSER "Klayton, Red"
INDEX 01 00:00:00
FILE "02. Scandroid - Salvation Code.wav" WAVE
TRACK 02 AUDIO
TITLE "Salvation Code"
PERFORMER "Scandroid"
REM COMPOSER "Klayton, Red"
INDEX 01 00:00:00
FILE "03. Scandroid - Aphelion.wav" WAVE
TRACK 03 AUDIO
TITLE "Aphelion"
PERFORMER "Scandroid"
REM COMPOSER "Klayton, Red"
INDEX 01 00:00:00
FILE "04. Scandroid - Shout.wav" WAVE
TRACK 04 AUDIO
TITLE "Shout"
PERFORMER "Scandroid"
REM COMPOSER "Klayton, Red"
INDEX 01 00:00:00
FILE "05. Scandroid - Destination Unknown.wav" WAVE
TRACK 05 AUDIO
TITLE "Destination Unknown"
PERFORMER "Scandroid"
REM COMPOSER "Klayton, Red"
INDEX 01 00:00:00
FILE "06. Scandroid - Connection.wav" WAVE
TRACK 06 AUDIO
TITLE "Connection"
PERFORMER "Scandroid"
REM COMPOSER "Klayton, Red"
INDEX 01 00:00:00
FILE "07. Scandroid - Datastream.wav" WAVE
TRACK 07 AUDIO
TITLE "Datastream"
PERFORMER "Scandroid"
REM COMPOSER "Klayton, Red"
INDEX 01 00:00:00
FILE "08. Scandroid - Empty Streets.wav" WAVE
TRACK 08 AUDIO
TITLE "Empty Streets"
PERFORMER "Scandroid"
REM COMPOSER "Klayton, Red"
INDEX 01 00:00:00
FILE "09. Scandroid - Awakening With You.wav" WAVE
TRACK 09 AUDIO
TITLE "Awakening With You"
PERFORMER "Scandroid"
REM COMPOSER "Klayton, Red"
INDEX 01 00:00:00
FILE "10. Scandroid - Atom & E.E.V..wav" WAVE
TRACK 10 AUDIO
TITLE "Atom & E.E.V."
PERFORMER "Scandroid"
REM COMPOSER "Klayton, Red"
INDEX 01 00:00:00
FILE "11. Scandroid - Neo-Tokyo.wav" WAVE
TRACK 11 AUDIO
TITLE "Neo-Tokyo"
PERFORMER "Scandroid"
REM COMPOSER "Klayton, Red"
INDEX 01 00:00:00
FILE "12. Scandroid - Pro-bots and Robophobes (feat. Circle of Dust).wav" WAVE
TRACK 12 AUDIO
TITLE "Pro-bots and Robophobes (feat. Circle of Dust)"
PERFORMER "Scandroid"
REM COMPOSER "Klayton, Red"
INDEX 01 00:00:00
FILE "13. Scandroid - Eden.wav" WAVE
TRACK 13 AUDIO
TITLE "Eden"
PERFORMER "Scandroid"
REM COMPOSER "Klayton, Red"
INDEX 01 00:00:00
FILE "14. Scandroid - Singularity.wav" WAVE
TRACK 14 AUDIO
TITLE "Singularity"
PERFORMER "Scandroid"
REM COMPOSER "Klayton, Red"
INDEX 01 00:00:00
 
AUDIOCHECKER v2.0 beta (build 457) - by Dester - opdester@freemail.hu
~~~~~~~~~~~~~~~~~~~~~~~~~~~~~~~~~~

Started at: воскресенье, 04. 12. 2016. - 22:11.17
14 files found

01 -===- F:\DC++\MUSIC\Synth\Scandroid - Scandroid (2016) [FLAC]\01. Scandroid - 2517.flac
Extracted successfully
Conclusion: this track is CDDA with probability 100%
Tempfile successfully deleted.

02 -===- F:\DC++\MUSIC\Synth\Scandroid - Scandroid (2016) [FLAC]\02. Scandroid - Salvation Code.flac
Extracted successfully
Conclusion: this track is CDDA with probability 100%
Tempfile successfully deleted.

03 -===- F:\DC++\MUSIC\Synth\Scandroid - Scandroid (2016) [FLAC]\03. Scandroid - Aphelion.flac
Extracted successfully
Conclusion: this track is CDDA with probability 100%
Tempfile successfully deleted.

04 -===- F:\DC++\MUSIC\Synth\Scandroid - Scandroid (2016) [FLAC]\04. Scandroid - Shout.flac
Extracted successfully
Conclusion: this track is CDDA with probability 100%
Tempfile successfully deleted.

05 -===- F:\DC++\MUSIC\Synth\Scandroid - Scandroid (2016) [FLAC]\05. Scandroid - Destination Unknown.flac
Extracted successfully
Conclusion: this track is CDDA with probability 100%
Tempfile successfully deleted.

06 -===- F:\DC++\MUSIC\Synth\Scandroid - Scandroid (2016) [FLAC]\06. Scandroid - Connection.flac
Extracted successfully
Conclusion: this track is CDDA with probability 100%
Tempfile successfully deleted.

07 -===- F:\DC++\MUSIC\Synth\Scandroid - Scandroid (2016) [FLAC]\07. Scandroid - Datastream.flac
Extracted successfully
Conclusion: this track is CDDA with probability 100%
Tempfile successfully deleted.

08 -===- F:\DC++\MUSIC\Synth\Scandroid - Scandroid (2016) [FLAC]\08. Scandroid - Empty Streets.flac
Extracted successfully
Conclusion: this track is CDDA with probability 100%
Tempfile successfully deleted.

09 -===- F:\DC++\MUSIC\Synth\Scandroid - Scandroid (2016) [FLAC]\09. Scandroid - Awakening With You.flac
Extracted successfully
Conclusion: this track is CDDA with probability 100%
Tempfile successfully deleted.

10 -===- F:\DC++\MUSIC\Synth\Scandroid - Scandroid (2016) [FLAC]\10. Scandroid - Atom & E.E.V..flac
Extracted successfully
Conclusion: this track is CDDA with probability 100%
Tempfile successfully deleted.

11 -===- F:\DC++\MUSIC\Synth\Scandroid - Scandroid (2016) [FLAC]\11. Scandroid - Neo-Tokyo.flac
Extracted successfully
Conclusion: this track is CDDA with probability 99%
Tempfile successfully deleted.

12 -===- F:\DC++\MUSIC\Synth\Scandroid - Scandroid (2016) [FLAC]\12. Scandroid - Pro-bots and Robophobes (feat. Circle of Dust).flac
Extracted successfully
Conclusion: this track is CDDA with probability 100%
Tempfile successfully deleted.

13 -===- F:\DC++\MUSIC\Synth\Scandroid - Scandroid (2016) [FLAC]\13. Scandroid - Eden.flac
Extracted successfully
Conclusion: this track is CDDA with probability 100%
Tempfile successfully deleted.

14 -===- F:\DC++\MUSIC\Synth\Scandroid - Scandroid (2016) [FLAC]\14. Scandroid - Singularity.flac
Extracted successfully
Conclusion: this track is CDDA with probability 100%
Tempfile successfully deleted.

Finished at: воскресенье, 04. 12. 2016. - 22:13.30 (operation time: 0:02.13)


info [Профиль]  [ЛС] 

kalbungaa_rus

Пол: Пол:Муж

Стаж: 7 лет 10 месяцев

Сообщений: 394

Украина
Рейтинг

post 13-Дек-2018 06:40 (спустя 2 дня 7 часов) [-]0[+]

[Цитировать] 

Послушал этот альбом. Вот не получается у Celldweller в электро-рок и синтипоп/вэйв. Вроде бы и похоже, но все равно не хватает чего-то каждой песни. Мне кажется, что это не совсем его.

_________________
Я мнению вашему вращение предавал и осью был мой детородный орган!
info [Профиль]  [ЛС] 

TheNameLessOne

Пол: Пол:Муж

Стаж: 12 лет

Сообщений: 1320

Испания
Рейтинг

post 05-Янв-2019 00:46 (спустя 22 дня) [-]0[+]

[Цитировать] 

А мне нравится. Shout получило такое свежее дыхание.
info [Профиль]  [ЛС] 
Показать сообщения:    
Ответить на тему

Текущее время: 22-Май 08:18

Часовой пояс: GMT + 4



Вы не можете начинать темы
Вы не можете отвечать на сообщения
Вы не можете редактировать свои сообщения
Вы не можете удалять свои сообщения
Вы не можете голосовать в опросах
Вы не можете прикреплять файлы к сообщениям
Вы не можете скачивать файлы