Ошибка

(Synthwave / Retrowave / Electronic) Andromeda Dreams - Stardust [LP] - 2015, FLAC (tracks), lossless

Ответить на тему
 
Автор Сообщение

Slava2312

Пол: Пол:Муж

Стаж: 7 лет 8 месяцев

Сообщений: 21

СССР
Рейтинг

post 28-Дек-2018 03:01 0[+]

[Цитировать] 

Andromeda Dreams - Stardust [LP]


pic="https://i106.fastpic.ru/big/2018/1227/33/7e2e0f7ce5ba9cd5ed18dbae5d84ba33.jpg"



Жанр: Synthwave / Retrowave / Electronic
Год издания данного носителя: 2015
Страна-производитель носителя: US
Лейбл: Future City Records
Каталоговый номер: FCR118
Аудио кодек: FLAC
Тип рипа: tracks
Битрейт аудио: lossless
Продолжительность: 00:26:40
Источник (релизер): bandcamp
Треклист:
[2:14] 01. Andromeda Dreams - Intro
[3:35] 02. Andromeda Dreams - Space Highway
[4:21] 03. Andromeda Dreams - Lost Nebula
[3:27] 04. Andromeda Dreams - Two Million Light Years
[4:56] 05. Andromeda Dreams - Eternal Wanderer
[3:50] 06. Andromeda Dreams - Stardust
[4:18] 07. Andromeda Dreams - Antigravity
 
AUDIOCHECKER v2.0 beta (build 457) - by Dester - opdester@freemail.hu
~~~~~~~~~~~~~~~~~~~~~~~~~~~~~~~~~~
-=== НЕ РЕДАКТИРУЙТЕ ЭТОТ ФАЙЛ! ===-

Путь: ...Andromeda Dreams - Stardust (2015) FLAC

1 -=- 01. Andromeda Dreams - Intro.flac -=- CDDA (100%)
2 -=- 02. Andromeda Dreams - Space Highway.flac -=- CDDA (99%)
3 -=- 03. Andromeda Dreams - Lost Nebula.flac -=- CDDA (100%)
4 -=- 04. Andromeda Dreams - Two Million Light Years.flac -=- CDDA (100%)
5 -=- 05. Andromeda Dreams - Eternal Wanderer.flac -=- CDDA (100%)
6 -=- 06. Andromeda Dreams - Stardust.flac -=- CDDA (100%)
7 -=- 07. Andromeda Dreams - Antigravity.flac -=- CDDA (100%)

Сводка 99,86% CDDA

127077380
----------------------- 

DON'T MODIFY THIS FILE

-----------------------

PERFORMER: auCDtect Task Manager, ver. 1.6.0 RC1 build 1.6.0.1
Copyright (c) 2008-2010 y-soft. All rights reserved
http://y-soft.org

ANALYZER: auCDtect: CD records authenticity detector, version 0.8.2
Copyright (c) 2004 Oleg Berngardt. All rights reserved.
Copyright (c) 2004 Alexander Djourik. All rights reserved.

FILE: 07. Andromeda Dreams - Antigravity.flac
Size: 30810587 Hash: 5F7AD30338103B34F42755CD76437F9E Accuracy: -m0
Conclusion: CDDA 100%
Signature: D9C6F863D5184D27DB78636C9EAAA821126E3681
FILE: 06. Andromeda Dreams - Stardust.flac
Size: 29291936 Hash: 7C2F2D38D7C47030793F88EAB167B134 Accuracy: -m0
Conclusion: CDDA 100%
Signature: 0B1BD1AFB72EF869F7BB09F58369B7F3D7D53BD0
FILE: 05. Andromeda Dreams - Eternal Wanderer.flac
Size: 34131570 Hash: 8747832E32D5924DA92AB38815DA2BF9 Accuracy: -m0
Conclusion: CDDA 100%
Signature: 0D12D0D0699F2967A60BA6E2DE4DB6A335DD513F
FILE: 04. Andromeda Dreams - Two Million Light Years.flac
Size: 24850030 Hash: A0C6BA2A1F65A94C91DECD25859EDB1A Accuracy: -m0
Conclusion: CDDA 100%
Signature: C2E8ADB4D311F7DC667FDE620B61D8017B5F8F8E
FILE: 03. Andromeda Dreams - Lost Nebula.flac
Size: 28954877 Hash: 43782B3E6210A66D15C24E34070FA29A Accuracy: -m0
Conclusion: CDDA 100%
Signature: D021D0FB6145104D76E3FFF298AFE6D51AE9751F
FILE: 02. Andromeda Dreams - Space Highway.flac
Size: 25162634 Hash: 903EFDBF60292FB5CFFE916C84763E79 Accuracy: -m0
Conclusion: CDDA 99%
Signature: 9016A5ECBBD597F2ED9FC3741F589FC481B75E60
FILE: 01. Andromeda Dreams - Intro.flac
Size: 11352623 Hash: 8376FB17CD56AA3954D6B16C3E2EAC21 Accuracy: -m0
Conclusion: CDDA 100%
Signature: 8ECC70A01FEA13CCA508C1475824A61DD5499504
 
foobar2000 1.4.1 / Замер динамического диапазона (DR) 1.1.1
Дата отчёта: 2018-12-27 20:09:53

--------------------------------------------------------------------------------
Анализ: Andromeda Dreams / Stardust
--------------------------------------------------------------------------------

DR Пики RMS Продолжительность трека
--------------------------------------------------------------------------------
DR7 -0.31 дБ -8.59 дБ 2:14 01-Intro
DR6 -0.31 дБ -7.38 дБ 3:35 02-Space Highway
DR8 -0.31 дБ -9.16 дБ 4:21 03-Lost Nebula
DR7 -0.31 дБ -7.46 дБ 3:27 04-Two Million Light Years
DR7 -0.31 дБ -8.58 дБ 4:56 05-Eternal Wanderer
DR6 -0.30 дБ -6.85 дБ 3:50 06-Stardust
DR7 -0.31 дБ -9.17 дБ 4:18 07-Antigravity
--------------------------------------------------------------------------------

Количество треков: 7
Реальные значения DR: DR7

Частота: 44100 Гц
Каналов: 2
Разрядность: 16
Битрейт: 936 кбит/с
Кодек: FLAC
================================================================================
info [Профиль]  [ЛС] 
Показать сообщения:    
Ответить на тему

Текущее время: 24-Май 01:05

Часовой пояс: GMT + 4



Вы не можете начинать темы
Вы не можете отвечать на сообщения
Вы не можете редактировать свои сообщения
Вы не можете удалять свои сообщения
Вы не можете голосовать в опросах
Вы не можете прикреплять файлы к сообщениям
Вы не можете скачивать файлы