Ошибка

(Pop Rock / Indie Pop) The Cardigans - Дискография - (7CD) (1994-2005), FLAC (tracks+.cue), lossless

Ответить на тему
 
Автор Сообщение

FantasticMrFox

Пол: Пол:Муж

Стаж: 11 лет

Сообщений: 710

Россия
Рейтинг

post 17-Апр-2010 14:50 0[+]

[Цитировать] 

pic="http://s003.radikal.ru/i201/1004/57/29341008ee73.jpg"
The Cardigans - Дискография

Жанр: Pop Rock / Indie Pop | Год выпуска: 1994-2005 | Страна: Швеция | Формат: FLAC (tracks+.cue) | Битрейт аудио: lossless | Продолжительность: 7 CD

01. Sick & Tired (3:26)
02. Black Letter Day (4:31)
03. In The Afternoon (4:11)
04. Over The Water (2:16)
05. After All... (2:57)
06. Cloudy Sky (4:08)
07. Our Space (3:32)
08. Rise & Shine (3:31)
09. Celia Inside (3:36)
10. Sabbath Bloody Sabbath (4:33)
11. Seems Hard (3:58)
12. Last Song (3:21)

Код:

Exact Audio Copy V0.99 prebeta 3 from 28. July 2007

EAC extraction logfile from 15. December 2007, 19:38

The Cardigans / Emmerdale

Used drive  : PIONEER DVD-RW  DVR-212D   Adapter: 2  ID: 1

Read mode               : Secure
Utilize accurate stream : Yes
Defeat audio cache      : Yes
Make use of C2 pointers : No

Read offset correction                      : 48
Overread into Lead-In and Lead-Out          : No
Fill up missing offset samples with silence : Yes
Delete leading and trailing silent blocks   : No
Null samples used in CRC calculations       : Yes
Used interface                              : Installed external ASPI interface
Gap handling                                : Appended to previous track

Used output format              : User Defined Encoder
Selected bitrate                : 768 kBit/s
Quality                         : High
Add ID3 tag                     : No
Command line compressor         : P:\Program Files\Exact Audio Copy\bin\flac.exe
Additional command line options : -6 -V -T "ARTIST=%a" -T "TITLE=%t" -T "ALBUM=%g" -T "DATE=%y" -T "TRACKNUMBER=%n" -T "GENRE=%m" -T "COMMENT=%e" %s -o %d

TOC of the extracted CD

     Track |   Start  |  Length  | Start sector | End sector
    ---------------------------------------------------------
        1  |  0:00.00 |  3:25.50 |         0    |    15424   
        2  |  3:25.50 |  4:31.30 |     15425    |    35779   
        3  |  7:57.05 |  4:10.45 |     35780    |    54574   
        4  | 12:07.50 |  2:16.12 |     54575    |    64786   
        5  | 14:23.62 |  2:56.63 |     64787    |    78049   
        6  | 17:20.50 |  4:07.70 |     78050    |    96644   
        7  | 21:28.45 |  3:31.50 |     96645    |   112519   
        8  | 25:00.20 |  3:31.02 |    112520    |   128346   
        9  | 28:31.22 |  3:36.25 |    128347    |   144571   
       10  | 32:07.47 |  4:32.62 |    144572    |   165033   
       11  | 36:40.34 |  3:57.61 |    165034    |   182869   
       12  | 40:38.20 |  3:21.20 |    182870    |   197964   

Track  1

     Filename S:\rips\The Cardigans - Emmerdale\01 The Cardigans - Sick & Tired.wav

     Pre-gap length  0:00:02.00

     Peak level 100.0 %
     Track quality 100.0 %
     Copy CRC 68382140
     Accurately ripped (confidence 5)  [D97B380D]
     Copy OK

Track  2

     Filename S:\rips\The Cardigans - Emmerdale\02 The Cardigans - Black Letter Day.wav

     Pre-gap length  0:00:01.60

     Peak level 95.8 %
     Track quality 100.0 %
     Copy CRC 8EFA4568
     Accurately ripped (confidence 6)  [4F855D9E]
     Copy OK

Track  3

     Filename S:\rips\The Cardigans - Emmerdale\03 The Cardigans - In The Afternoon.wav

     Peak level 100.0 %
     Track quality 100.0 %
     Copy CRC 566D605E
     Accurately ripped (confidence 6)  [BAEEB146]
     Copy OK

Track  4

     Filename S:\rips\The Cardigans - Emmerdale\04 The Cardigans - Over The Water.wav

     Peak level 96.4 %
     Track quality 99.9 %
     Copy CRC 980C95D1
     Accurately ripped (confidence 6)  [1A73620C]
     Copy OK

Track  5

     Filename S:\rips\The Cardigans - Emmerdale\05 The Cardigans - After All....wav

     Pre-gap length  0:00:02.40

     Peak level 80.4 %
     Track quality 100.0 %
     Copy CRC C7E969AF
     Accurately ripped (confidence 6)  [AED18A86]
     Copy OK

Track  6

     Filename S:\rips\The Cardigans - Emmerdale\06 The Cardigans - Cloudy Sky.wav

     Peak level 100.0 %
     Track quality 100.0 %
     Copy CRC DE3E2E8E
     Accurately ripped (confidence 6)  [DD49D3DC]
     Copy OK

Track  7

     Filename S:\rips\The Cardigans - Emmerdale\07 The Cardigans - Our Space.wav

     Pre-gap length  0:00:01.00

     Peak level 100.0 %
     Track quality 100.0 %
     Copy CRC 97EFFB80
     Accurately ripped (confidence 6)  [D591BB7A]
     Copy OK

Track  8

     Filename S:\rips\The Cardigans - Emmerdale\08 The Cardigans - Rise & Shine.wav

     Pre-gap length  0:00:01.60

     Peak level 100.0 %
     Track quality 100.0 %
     Copy CRC 8F7EAD7C
     Accurately ripped (confidence 6)  [0E4A605E]
     Copy OK

Track  9

     Filename S:\rips\The Cardigans - Emmerdale\09 The Cardigans - Celia Inside.wav

     Pre-gap length  0:00:02.20

     Peak level 97.1 %
     Track quality 100.0 %
     Copy CRC 8779A0B1
     Accurately ripped (confidence 6)  [B5B1C81E]
     Copy OK

Track 10

     Filename S:\rips\The Cardigans - Emmerdale\10 The Cardigans - Sabbath Bloody Sabbath.wav

     Pre-gap length  0:00:02.22

     Peak level 100.0 %
     Track quality 100.0 %
     Copy CRC BFF7B496
     Accurately ripped (confidence 5)  [204D116E]
     Copy OK

Track 11

     Filename S:\rips\The Cardigans - Emmerdale\11 The Cardigans - Seems Hard.wav

     Pre-gap length  0:00:02.05

     Peak level 100.0 %
     Track quality 100.0 %
     Copy CRC 14C4AFEC
     Accurately ripped (confidence 5)  [5930CF54]
     Copy OK

Track 12

     Filename S:\rips\The Cardigans - Emmerdale\12 The Cardigans - Last Song.wav

     Pre-gap length  0:00:01.30

     Peak level 95.5 %
     Track quality 99.9 %
     Copy CRC 4D2959BE
     Accurately ripped (confidence 5)  [B90DC3CA]
     Copy OK

All tracks accurately ripped

No errors occurred

End of status report

Код:

REM GENRE Pop
REM DATE 1994
REM DISCID 900A4F0C
REM COMMENT "ExactAudioCopy v0.99pb3"
PERFORMER "The Cardigans"
TITLE "Emmerdale"
FILE "The Cardigans - Emmerdale\01 The Cardigans - Sick & Tired.wav" WAVE
  TRACK 01 AUDIO
    TITLE "Sick & Tired"
    PERFORMER "The Cardigans"
    INDEX 01 00:00:00
  TRACK 02 AUDIO
    TITLE "Black Letter Day"
    PERFORMER "The Cardigans"
    INDEX 00 03:24:05
FILE "The Cardigans - Emmerdale\02 The Cardigans - Black Letter Day.wav" WAVE
    INDEX 01 00:00:00
FILE "The Cardigans - Emmerdale\03 The Cardigans - In The Afternoon.wav" WAVE
  TRACK 03 AUDIO
    TITLE "In The Afternoon"
    PERFORMER "The Cardigans"
    INDEX 01 00:00:00
FILE "The Cardigans - Emmerdale\04 The Cardigans - Over The Water.wav" WAVE
  TRACK 04 AUDIO
    TITLE "Over The Water"
    PERFORMER "The Cardigans"
    INDEX 01 00:00:00
  TRACK 05 AUDIO
    TITLE "After All..."
    PERFORMER "The Cardigans"
    INDEX 00 02:13:57
FILE "The Cardigans - Emmerdale\05 The Cardigans - After All....wav" WAVE
    INDEX 01 00:00:00
FILE "The Cardigans - Emmerdale\06 The Cardigans - Cloudy Sky.wav" WAVE
  TRACK 06 AUDIO
    TITLE "Cloudy Sky"
    PERFORMER "The Cardigans"
    INDEX 01 00:00:00
  TRACK 07 AUDIO
    TITLE "Our Space"
    PERFORMER "The Cardigans"
    INDEX 00 04:06:70
FILE "The Cardigans - Emmerdale\07 The Cardigans - Our Space.wav" WAVE
    INDEX 01 00:00:00
  TRACK 08 AUDIO
    TITLE "Rise & Shine"
    PERFORMER "The Cardigans"
    INDEX 00 03:30:05
FILE "The Cardigans - Emmerdale\08 The Cardigans - Rise & Shine.wav" WAVE
    INDEX 01 00:00:00
  TRACK 09 AUDIO
    TITLE "Celia Inside"
    PERFORMER "The Cardigans"
    INDEX 00 03:28:62
FILE "The Cardigans - Emmerdale\09 The Cardigans - Celia Inside.wav" WAVE
    INDEX 01 00:00:00
  TRACK 10 AUDIO
    TITLE "Sabbath Bloody Sabbath"
    PERFORMER "The Cardigans"
    INDEX 00 03:34:08
FILE "The Cardigans - Emmerdale\10 The Cardigans - Sabbath Bloody Sabbath.wav" WAVE
    INDEX 01 00:00:00
  TRACK 11 AUDIO
    TITLE "Seems Hard"
    PERFORMER "The Cardigans"
    INDEX 00 04:30:58
FILE "The Cardigans - Emmerdale\11 The Cardigans - Seems Hard.wav" WAVE
    INDEX 01 00:00:00
  TRACK 12 AUDIO
    TITLE "Last Song"
    PERFORMER "The Cardigans"
    INDEX 00 03:56:38
FILE "The Cardigans - Emmerdale\12 The Cardigans - Last Song.wav" WAVE
    INDEX 01 00:00:00
01. Your New Cuckoo (3:55)
02. Been It (4:05)
03. Heartbreaker (3:42)
04. Happy Meal II (2:36)
05. Never Recover (3:21)
06. Step On Me (3:54)
07. Lovefool (3:14)
08. Losers (3:17)
09. Iron Man (4:20)
10. Great Divide (3:16)
11. Choke (3:27)

Код:

Exact Audio Copy V0.99 prebeta 4 from 23. January 2008

EAC extraction logfile from 29. November 2008, 10:13

The Cardigans / First Band On The Moon

Used drive  : Optiarc DVD RW AD-7910A   Adapter: 2  ID: 0

Read mode               : Secure
Utilize accurate stream : Yes
Defeat audio cache      : Yes
Make use of C2 pointers : No

Read offset correction                      : 48
Overread into Lead-In and Lead-Out          : No
Fill up missing offset samples with silence : Yes
Delete leading and trailing silent blocks   : No
Null samples used in CRC calculations       : Yes
Used interface                              : Native Win32 interface for Win NT & 2000
Gap handling                                : Appended to previous track

Used output format              : User Defined Encoder
Selected bitrate                : 128 kBit/s
Quality                         : High
Add ID3 tag                     : No
Command line compressor         : C:\Program Files\Exact Audio Copy\Flac\flac.exe
Additional command line options : -V -8 -T "artist=%a" -T "title=%t" -T "album=%g" -T "date=%y" -T "tracknumber=%n" -T "genre=%m" %s 

TOC of the extracted CD

     Track |   Start  |  Length  | Start sector | End sector
    ---------------------------------------------------------
        1  |  0:00.00 |  3:55.32 |         0    |    17656   
        2  |  3:55.32 |  4:04.60 |     17657    |    36016   
        3  |  8:00.17 |  3:42.15 |     36017    |    52681   
        4  | 11:42.32 |  2:36.23 |     52682    |    64404   
        5  | 14:18.55 |  3:20.52 |     64405    |    79456   
        6  | 17:39.32 |  3:53.53 |     79457    |    96984   
        7  | 21:33.10 |  3:13.67 |     96985    |   111526   
        8  | 24:47.02 |  3:17.25 |    111527    |   126326   
        9  | 28:04.27 |  4:19.53 |    126327    |   145804   
       10  | 32:24.05 |  3:16.27 |    145805    |   160531   
       11  | 35:40.32 |  3:26.43 |    160532    |   176024   

Track  1

     Filename C:\rip\The Cardigans - 1996 - First Band On The Moon\01-Your New Cuckoo.wav

     Pre-gap length  0:00:02.00

     Peak level 81.1 %
     Track quality 99.9 %
     Test CRC 90B45CFD
     Copy CRC 90B45CFD
     Accurately ripped (confidence 9)  [3BCDF7FD]
     Copy OK

Track  2

     Filename C:\rip\The Cardigans - 1996 - First Band On The Moon\02-Been It.wav

     Peak level 94.7 %
     Track quality 100.0 %
     Test CRC EAFD8E99
     Copy CRC EAFD8E99
     Accurately ripped (confidence 8)  [1043B862]
     Copy OK

Track  3

     Filename C:\rip\The Cardigans - 1996 - First Band On The Moon\03-Heartbreaker.wav

     Peak level 98.0 %
     Track quality 100.0 %
     Test CRC 56C6C4F9
     Copy CRC 56C6C4F9
     Accurately ripped (confidence 7)  [0070F7AA]
     Copy OK

Track  4

     Filename C:\rip\The Cardigans - 1996 - First Band On The Moon\04-Happy Meal II.wav

     Peak level 98.0 %
     Track quality 100.0 %
     Test CRC 81D58DB6
     Copy CRC 81D58DB6
     Accurately ripped (confidence 8)  [727ED08E]
     Copy OK

Track  5

     Filename C:\rip\The Cardigans - 1996 - First Band On The Moon\05-Never Recover.wav

     Peak level 91.5 %
     Track quality 100.0 %
     Test CRC A6A069F8
     Copy CRC A6A069F8
     Accurately ripped (confidence 8)  [F4E0B898]
     Copy OK

Track  6

     Filename C:\rip\The Cardigans - 1996 - First Band On The Moon\06-Step On Me.wav

     Peak level 93.2 %
     Track quality 100.0 %
     Test CRC B264DF21
     Copy CRC B264DF21
     Accurately ripped (confidence 8)  [C511BD7A]
     Copy OK

Track  7

     Filename C:\rip\The Cardigans - 1996 - First Band On The Moon\07-Lovefool.wav

     Pre-gap length  0:00:05.73

     Peak level 98.0 %
     Track quality 100.0 %
     Test CRC BA6AA102
     Copy CRC BA6AA102
     Accurately ripped (confidence 8)  [68198498]
     Copy OK

Track  8

     Filename C:\rip\The Cardigans - 1996 - First Band On The Moon\08-Losers.wav

     Peak level 98.0 %
     Track quality 100.0 %
     Test CRC 353F7441
     Copy CRC 353F7441
     Accurately ripped (confidence 8)  [4F1EDB25]
     Copy OK

Track  9

     Filename C:\rip\The Cardigans - 1996 - First Band On The Moon\09-Iron Man.wav

     Peak level 98.0 %
     Track quality 100.0 %
     Test CRC BEF27327
     Copy CRC BEF27327
     Accurately ripped (confidence 8)  [56E21A84]
     Copy OK

Track 10

     Filename C:\rip\The Cardigans - 1996 - First Band On The Moon\10-Great Divide.wav

     Peak level 68.9 %
     Track quality 100.0 %
     Test CRC 786D14D5
     Copy CRC 786D14D5
     Accurately ripped (confidence 8)  [15DD7AB6]
     Copy OK

Track 11

     Filename C:\rip\The Cardigans - 1996 - First Band On The Moon\11-Choke.wav

     Peak level 98.0 %
     Track quality 99.9 %
     Test CRC ED4FEA62
     Copy CRC ED4FEA62
     Accurately ripped (confidence 8)  [781AAC95]
     Copy OK

All tracks accurately ripped

No errors occurred

End of status report

Код:

REM GENRE Pop
REM DATE 1996
REM DISCID 96092B0B
REM COMMENT "ExactAudioCopy v0.99pb4"
CATALOG 0731453311725
PERFORMER "The Cardigans"
TITLE "First Band On The Moon"
FILE "01-Your New Cuckoo.wav" WAVE
  TRACK 01 AUDIO
    TITLE "Your New Cuckoo"
    PERFORMER "The Cardigans"
    ISRC SEBKB9629320
    INDEX 01 00:00:00
FILE "02-Been It.wav" WAVE
  TRACK 02 AUDIO
    TITLE "Been It"
    PERFORMER "The Cardigans"
    ISRC SEBKB9629330
    INDEX 01 00:00:00
FILE "03-Heartbreaker.wav" WAVE
  TRACK 03 AUDIO
    TITLE "Heartbreaker"
    PERFORMER "The Cardigans"
    ISRC SEBKB9629340
    INDEX 01 00:00:00
FILE "04-Happy Meal II.wav" WAVE
  TRACK 04 AUDIO
    TITLE "Happy Meal II"
    PERFORMER "The Cardigans"
    ISRC SEBKB9629350
    INDEX 01 00:00:00
FILE "05-Never Recover.wav" WAVE
  TRACK 05 AUDIO
    TITLE "Never Recover"
    PERFORMER "The Cardigans"
    ISRC SEBKB9629360
    INDEX 01 00:00:00
FILE "06-Step On Me.wav" WAVE
  TRACK 06 AUDIO
    TITLE "Step On Me"
    PERFORMER "The Cardigans"
    ISRC SEBKB9629370
    INDEX 01 00:00:00
  TRACK 07 AUDIO
    TITLE "Lovefool"
    PERFORMER "The Cardigans"
    ISRC SEBKB9629380
    INDEX 00 03:47:55
FILE "07-Lovefool.wav" WAVE
    INDEX 01 00:00:00
FILE "08-Losers.wav" WAVE
  TRACK 08 AUDIO
    TITLE "Losers"
    PERFORMER "The Cardigans"
    ISRC SEBKB9629390
    INDEX 01 00:00:00
FILE "09-Iron Man.wav" WAVE
  TRACK 09 AUDIO
    TITLE "Iron Man"
    PERFORMER "The Cardigans"
    ISRC SEBKB9629310
    INDEX 01 00:00:00
FILE "10-Great Divide.wav" WAVE
  TRACK 10 AUDIO
    TITLE "Great Divide"
    PERFORMER "The Cardigans"
    ISRC SEBKB9629400
    INDEX 01 00:00:00
FILE "11-Choke.wav" WAVE
  TRACK 11 AUDIO
    TITLE "Choke"
    PERFORMER "The Cardigans"
    ISRC SEBKB9629410
    INDEX 01 00:00:00
01. Carnival (3:37)
02. Daddy's Car (3:36)
03. Fine (3:10)
04. Rise & Shine (3:29)
05. Our Space (3:30)
06. Celia Inside (4:41)
07. Over the Water (2:14)
08. Tomorrow (3:04)
09. Sick & Tired (3:24)
10. Beautiful One (3:29)
11. Gordon's Gardenparty (3:20)
12. Hey! Get Out of My Way (3:31)
13. Sabbath Bloody Sabbath (4:30)
14. Happy Meal (2:37)

Код:

X Lossless Decoder version 20090930 (110.0)

XLD extraction logfile from 2009-10-11 19:44:29 -0700

The Cardigans / Life

Used drive : MATSHITA DVD-R   UJ-846 (revision FM3J)

Use cdparanoia mode     : YES (CDParanoia III 10.2 engine)
Disable audio cache     : OK for the drive with cache less than 2750KB
Make use of C2 pointers : NO
Read offset correction  : 102
Max retry count         : 100

TOC of the extracted CD
     Track |   Start  |  Length  | Start sector | End sector
    ---------------------------------------------------------
        1  | 00:00:00 | 03:37:17 |         0    |    16291   
        2  | 03:37:17 | 03:36:03 |     16292    |    32494   
        3  | 07:13:20 | 03:10:30 |     32495    |    46774   
        4  | 10:23:50 | 03:28:47 |     46775    |    62421   
        5  | 13:52:22 | 03:29:60 |     62422    |    78156   
        6  | 17:22:07 | 04:40:43 |     78157    |    99199   
        7  | 22:02:50 | 02:13:50 |     99200    |   109224   
        8  | 24:16:25 | 03:03:67 |    109225    |   123016   
        9  | 27:20:17 | 03:23:40 |    123017    |   138281   
       10  | 30:43:57 | 03:28:38 |    138282    |   153919   
       11  | 34:12:20 | 03:19:57 |    153920    |   168901   
       12  | 37:32:02 | 03:30:73 |    168902    |   184724   
       13  | 41:03:00 | 04:30:27 |    184725    |   205001   
       14  | 45:33:27 | 02:37:13 |    205002    |   216789   

List of alternate offset correction values
        #  | Absolute | Relative | Confidence
    ------------------------------------------
        1  |    360   |    258   |      4     

All Tracks
    Album gain             : -6.94 dB
    Peak                   : 1.000000

Track 01
    Filename : /XLD/01 The Cardigans - Carnival.flac

    Track gain             : -7.54 dB
    Peak                   : 0.997986
    CRC32 hash (test run)  : D84A3DA9
    CRC32 hash             : D84A3DA9
    CRC32 hash (skip zero) : 7C4FF09B
    AccurateRip signature  : 101B1536
        ->Accurately ripped! (confidence 34)
    Statistics
        Read error                           : 0
        Skipped (treated as error)           : 0
        Edge jitter error (maybe fixed)      : 0
        Atom jitter error (maybe fixed)      : 0
        Drift error (maybe fixed)            : 0
        Dropped bytes error (maybe fixed)    : 0
        Duplicated bytes error (maybe fixed) : 0
        Inconsistency in error sectors       : 0

Track 02
    Filename : /XLD/02 The Cardigans - Daddy's Car.flac

    Track gain             : -6.25 dB
    Peak                   : 1.000000
    CRC32 hash (test run)  : 54F58558
    CRC32 hash             : 54F58558
    CRC32 hash (skip zero) : 8A9937A3
    AccurateRip signature  : 79F90A02
        ->Accurately ripped! (confidence 34)
    Statistics
        Read error                           : 0
        Skipped (treated as error)           : 0
        Edge jitter error (maybe fixed)      : 0
        Atom jitter error (maybe fixed)      : 0
        Drift error (maybe fixed)            : 0
        Dropped bytes error (maybe fixed)    : 0
        Duplicated bytes error (maybe fixed) : 0
        Inconsistency in error sectors       : 0

Track 03
    Filename : /XLD/03 The Cardigans - Fine.flac

    Track gain             : -7.07 dB
    Peak                   : 1.000000
    CRC32 hash (test run)  : 239C2B13
    CRC32 hash             : 239C2B13
    CRC32 hash (skip zero) : AFBEC486
    AccurateRip signature  : D49DBDC7
        ->Accurately ripped! (confidence 33)
    Statistics
        Read error                           : 0
        Skipped (treated as error)           : 0
        Edge jitter error (maybe fixed)      : 0
        Atom jitter error (maybe fixed)      : 0
        Drift error (maybe fixed)            : 0
        Dropped bytes error (maybe fixed)    : 0
        Duplicated bytes error (maybe fixed) : 0
        Inconsistency in error sectors       : 0

Track 04
    Filename : /XLD/04 The Cardigans - Rise & Shine.flac

    Track gain             : -7.64 dB
    Peak                   : 1.000000
    CRC32 hash (test run)  : 68FDBC83
    CRC32 hash             : 68FDBC83
    CRC32 hash (skip zero) : DB5E5526
    AccurateRip signature  : 00EC7D67
        ->Accurately ripped! (confidence 34)
    Statistics
        Read error                           : 0
        Skipped (treated as error)           : 0
        Edge jitter error (maybe fixed)      : 0
        Atom jitter error (maybe fixed)      : 0
        Drift error (maybe fixed)            : 0
        Dropped bytes error (maybe fixed)    : 0
        Duplicated bytes error (maybe fixed) : 0
        Inconsistency in error sectors       : 0

Track 05
    Filename : /XLD/05 The Cardigans - Our Space.flac

    Track gain             : -5.82 dB
    Peak                   : 1.000000
    CRC32 hash (test run)  : 1137F527
    CRC32 hash             : 1137F527
    CRC32 hash (skip zero) : 4C1E977D
    AccurateRip signature  : 2581094E
        ->Accurately ripped! (confidence 34)
    Statistics
        Read error                           : 0
        Skipped (treated as error)           : 0
        Edge jitter error (maybe fixed)      : 0
        Atom jitter error (maybe fixed)      : 0
        Drift error (maybe fixed)            : 0
        Dropped bytes error (maybe fixed)    : 0
        Duplicated bytes error (maybe fixed) : 0
        Inconsistency in error sectors       : 0

Track 06
    Filename : /XLD/06 The Cardigans - Celia Inside.flac

    Track gain             : -4.02 dB
    Peak                   : 0.999969
    CRC32 hash (test run)  : 1539F592
    CRC32 hash             : 1539F592
    CRC32 hash (skip zero) : 2C76F593
    AccurateRip signature  : 61D4B967
        ->Accurately ripped! (confidence 33)
    Statistics
        Read error                           : 0
        Skipped (treated as error)           : 0
        Edge jitter error (maybe fixed)      : 0
        Atom jitter error (maybe fixed)      : 0
        Drift error (maybe fixed)            : 0
        Dropped bytes error (maybe fixed)    : 0
        Duplicated bytes error (maybe fixed) : 0
        Inconsistency in error sectors       : 0

Track 07
    Filename : /XLD/07 The Cardigans - Over the Water.flac

    Track gain             : -7.65 dB
    Peak                   : 1.000000
    CRC32 hash (test run)  : B15782E1
    CRC32 hash             : B15782E1
    CRC32 hash (skip zero) : E84E9200
    AccurateRip signature  : DFFF3418
        ->Accurately ripped! (confidence 34)
    Statistics
        Read error                           : 0
        Skipped (treated as error)           : 0
        Edge jitter error (maybe fixed)      : 0
        Atom jitter error (maybe fixed)      : 0
        Drift error (maybe fixed)            : 0
        Dropped bytes error (maybe fixed)    : 0
        Duplicated bytes error (maybe fixed) : 0
        Inconsistency in error sectors       : 0

Track 08
    Filename : /XLD/08 The Cardigans - Tomorrow.flac

    Track gain             : -7.27 dB
    Peak                   : 1.000000
    CRC32 hash (test run)  : B79DA931
    CRC32 hash             : B79DA931
    CRC32 hash (skip zero) : C2B85BAB
    AccurateRip signature  : BF3C4D6D
        ->Accurately ripped! (confidence 33)
    Statistics
        Read error                           : 0
        Skipped (treated as error)           : 0
        Edge jitter error (maybe fixed)      : 0
        Atom jitter error (maybe fixed)      : 0
        Drift error (maybe fixed)            : 0
        Dropped bytes error (maybe fixed)    : 0
        Duplicated bytes error (maybe fixed) : 0
        Inconsistency in error sectors       : 0

Track 09
    Filename : /XLD/09 The Cardigans - Sick & Tired.flac

    Track gain             : -8.52 dB
    Peak                   : 1.000000
    CRC32 hash (test run)  : EEFFEB4C
    CRC32 hash             : EEFFEB4C
    CRC32 hash (skip zero) : BB86DE31
    AccurateRip signature  : 8D9A84A5
        ->Accurately ripped! (confidence 33)
    Statistics
        Read error                           : 0
        Skipped (treated as error)           : 0
        Edge jitter error (maybe fixed)      : 0
        Atom jitter error (maybe fixed)      : 0
        Drift error (maybe fixed)            : 0
        Dropped bytes error (maybe fixed)    : 0
        Duplicated bytes error (maybe fixed) : 0
        Inconsistency in error sectors       : 0

Track 10
    Filename : /XLD/10 The Cardigans - Beautiful One.flac

    Track gain             : -2.55 dB
    Peak                   : 1.000000
    CRC32 hash (test run)  : 0B6A6CD2
    CRC32 hash             : 0B6A6CD2
    CRC32 hash (skip zero) : BD97FAB3
    AccurateRip signature  : DEDDF8BC
        ->Accurately ripped! (confidence 34)
    Statistics
        Read error                           : 0
        Skipped (treated as error)           : 0
        Edge jitter error (maybe fixed)      : 0
        Atom jitter error (maybe fixed)      : 0
        Drift error (maybe fixed)            : 0
        Dropped bytes error (maybe fixed)    : 0
        Duplicated bytes error (maybe fixed) : 0
        Inconsistency in error sectors       : 0

Track 11
    Filename : /XLD/11 The Cardigans - Gordon's Gardenparty.flac

    Track gain             : -3.54 dB
    Peak                   : 1.000000
    CRC32 hash (test run)  : A0AF42D1
    CRC32 hash             : A0AF42D1
    CRC32 hash (skip zero) : CAC2CB14
    AccurateRip signature  : 57446C15
        ->Accurately ripped! (confidence 34)
    Statistics
        Read error                           : 0
        Skipped (treated as error)           : 0
        Edge jitter error (maybe fixed)      : 0
        Atom jitter error (maybe fixed)      : 0
        Drift error (maybe fixed)            : 0
        Dropped bytes error (maybe fixed)    : 0
        Duplicated bytes error (maybe fixed) : 0
        Inconsistency in error sectors       : 0

Track 12
    Filename : /XLD/12 The Cardigans - Hey! Get Out of My Way.flac

    Track gain             : -6.90 dB
    Peak                   : 1.000000
    CRC32 hash (test run)  : BADCE3D8
    CRC32 hash             : BADCE3D8
    CRC32 hash (skip zero) : A660F6FF
    AccurateRip signature  : C77E5DA9
        ->Accurately ripped! (confidence 33)
    Statistics
        Read error                           : 0
        Skipped (treated as error)           : 0
        Edge jitter error (maybe fixed)      : 1
        Atom jitter error (maybe fixed)      : 0
        Drift error (maybe fixed)            : 0
        Dropped bytes error (maybe fixed)    : 1
        Duplicated bytes error (maybe fixed) : 0
        Inconsistency in error sectors       : 0

Track 13
    Filename : /XLD/13 The Cardigans - Sabbath Bloody Sabbath.flac

    Track gain             : -6.55 dB
    Peak                   : 1.000000
    CRC32 hash (test run)  : B12A5728
    CRC32 hash             : B12A5728
    CRC32 hash (skip zero) : FE6136A6
    AccurateRip signature  : 5B4A387F
        ->Accurately ripped! (confidence 32)
    Statistics
        Read error                           : 0
        Skipped (treated as error)           : 0
        Edge jitter error (maybe fixed)      : 0
        Atom jitter error (maybe fixed)      : 0
        Drift error (maybe fixed)            : 0
        Dropped bytes error (maybe fixed)    : 0
        Duplicated bytes error (maybe fixed) : 0
        Inconsistency in error sectors       : 0

Track 14
    Filename : /XLD/14 The Cardigans - Happy Meal.flac

    Track gain             : -3.84 dB
    Peak                   : 0.988556
    CRC32 hash (test run)  : C7360CAC
    CRC32 hash             : C7360CAC
    CRC32 hash (skip zero) : A92732CA
    AccurateRip signature  : D352FD76
        ->Accurately ripped! (confidence 32)
    Statistics
        Read error                           : 0
        Skipped (treated as error)           : 0
        Edge jitter error (maybe fixed)      : 0
        Atom jitter error (maybe fixed)      : 0
        Drift error (maybe fixed)            : 0
        Dropped bytes error (maybe fixed)    : 0
        Duplicated bytes error (maybe fixed) : 0
        Inconsistency in error sectors       : 0

No errors occurred

End of status report

Код:

TITLE "Life"
PERFORMER "The Cardigans"
REM GENRE "Alternative & Punk"
REM DATE "1996-02-20"
FILE "01 The Cardigans - Carnival.wav" WAVE
  TRACK 01 AUDIO
    TITLE "Carnival"
    INDEX 01 00:00:00
  TRACK 02 AUDIO
    TITLE "Daddy's Car"
    INDEX 00 03:37:12
FILE "02 The Cardigans - Daddy's Car.wav" WAVE
    INDEX 01 00:00:00
  TRACK 03 AUDIO
    TITLE "Fine"
    INDEX 00 03:35:60
FILE "03 The Cardigans - Fine.wav" WAVE
    INDEX 01 00:00:00
  TRACK 04 AUDIO
    TITLE "Rise & Shine"
    INDEX 00 03:09:70
FILE "04 The Cardigans - Rise & Shine.wav" WAVE
    INDEX 01 00:00:00
  TRACK 05 AUDIO
    TITLE "Our Space"
    INDEX 00 03:28:28
FILE "05 The Cardigans - Our Space.wav" WAVE
    INDEX 01 00:00:00
  TRACK 06 AUDIO
    TITLE "Celia Inside"
    INDEX 00 03:29:32
FILE "06 The Cardigans - Celia Inside.wav" WAVE
    INDEX 01 00:00:00
  TRACK 07 AUDIO
    TITLE "Over the Water"
    INDEX 00 04:40:10
FILE "07 The Cardigans - Over the Water.wav" WAVE
    INDEX 01 00:00:00
  TRACK 08 AUDIO
    TITLE "Tomorrow"
    INDEX 00 02:13:30
FILE "08 The Cardigans - Tomorrow.wav" WAVE
    INDEX 01 00:00:00
  TRACK 09 AUDIO
    TITLE "Sick & Tired"
    INDEX 00 03:03:42
FILE "09 The Cardigans - Sick & Tired.wav" WAVE
    INDEX 01 00:00:00
  TRACK 10 AUDIO
    TITLE "Beautiful One"
    INDEX 00 03:23:23
FILE "10 The Cardigans - Beautiful One.wav" WAVE
    INDEX 01 00:00:00
  TRACK 11 AUDIO
    TITLE "Gordon's Gardenparty"
    INDEX 00 03:28:03
FILE "11 The Cardigans - Gordon's Gardenparty.wav" WAVE
    INDEX 01 00:00:00
  TRACK 12 AUDIO
    TITLE "Hey! Get Out of My Way"
    INDEX 00 03:19:55
FILE "12 The Cardigans - Hey! Get Out of My Way.wav" WAVE
    INDEX 01 00:00:00
  TRACK 13 AUDIO
    TITLE "Sabbath Bloody Sabbath"
    INDEX 00 03:30:28
FILE "13 The Cardigans - Sabbath Bloody Sabbath.wav" WAVE
    INDEX 01 00:00:00
  TRACK 14 AUDIO
    TITLE "Happy Meal"
    INDEX 00 04:30:20
FILE "14 The Cardigans - Happy Meal.wav" WAVE
    INDEX 01 00:00:00
01. Paralyzed (4:57)
02. Erase/Rewind (3:38)
03. Explode (4:05)
04. Starter (3:54)
05. Hanging Around (3:44)
06. Higher (4:32)
07. Marvel Hill (4:15)
08. My Favourite Game (3:40)
09. Do You Believe (3:22)
10. Junk Of The Hearts (4:08)
11. Nil (2:17)

Код:

X Lossless Decoder version 20090930 (110.0)

XLD extraction logfile from 2009-10-12 16:42:36 -0700

The Cardigans / Gran Turismo

Used drive : MATSHITA DVD-R   UJ-857D (revision KBVB)

Use cdparanoia mode     : YES (CDParanoia III 10.2 engine)
Disable audio cache     : OK for the drive with cache less than 2750KB
Make use of C2 pointers : NO
Read offset correction  : 102
Max retry count         : 100

TOC of the extracted CD
     Track |   Start  |  Length  | Start sector | End sector
    ---------------------------------------------------------
        1  | 00:00:00 | 04:56:60 |         0    |    22259   
        2  | 04:56:60 | 03:38:22 |     22260    |    38631   
        3  | 08:35:07 | 04:04:63 |     38632    |    56994   
        4  | 12:39:70 | 03:53:55 |     56995    |    74524   
        5  | 16:33:50 | 03:44:07 |     74525    |    91331   
        6  | 20:17:57 | 04:32:13 |     91332    |   111744   
        7  | 24:49:70 | 04:15:27 |    111745    |   130896   
        8  | 29:05:22 | 03:40:20 |    130897    |   147416   
        9  | 32:45:42 | 03:22:30 |    147417    |   162596   
       10  | 36:07:72 | 04:08:05 |    162597    |   181201   
       11  | 40:16:02 | 02:17:10 |    181202    |   191486   

List of alternate offset correction values
        #  | Absolute | Relative | Confidence
    ------------------------------------------
        1  |    783   |    681   |     85     
        2  |      7   |    -95   |     21     

All Tracks
    Album gain             : -7.29 dB
    Peak                   : 0.986359

Track 01
    Filename : /XLD/01 The Cardigans - Paralyzed.flac

    Track gain             : -7.13 dB
    Peak                   : 0.984650
    CRC32 hash (test run)  : 0A849FF5
    CRC32 hash             : 0A849FF5
    CRC32 hash (skip zero) : FC8396CC
    AccurateRip signature  : 43262E81
        ->Accurately ripped! (confidence 13)
    Statistics
        Read error                           : 0
        Skipped (treated as error)           : 0
        Edge jitter error (maybe fixed)      : 0
        Atom jitter error (maybe fixed)      : 0
        Drift error (maybe fixed)            : 0
        Dropped bytes error (maybe fixed)    : 0
        Duplicated bytes error (maybe fixed) : 0
        Inconsistency in error sectors       : 0

Track 02
    Filename : /XLD/02 The Cardigans - Erase/Rewind.flac

    Track gain             : -7.78 dB
    Peak                   : 0.984314
    CRC32 hash (test run)  : 8F360316
    CRC32 hash             : 8F360316
    CRC32 hash (skip zero) : 374DA5E9
    AccurateRip signature  : BE9C8D21
        ->Accurately ripped! (confidence 13)
    Statistics
        Read error                           : 0
        Skipped (treated as error)           : 0
        Edge jitter error (maybe fixed)      : 0
        Atom jitter error (maybe fixed)      : 0
        Drift error (maybe fixed)            : 0
        Dropped bytes error (maybe fixed)    : 0
        Duplicated bytes error (maybe fixed) : 0
        Inconsistency in error sectors       : 0

Track 03
    Filename : /XLD/03 The Cardigans - Explode.flac

    Track gain             : -6.78 dB
    Peak                   : 0.985626
    CRC32 hash (test run)  : C95D35D0
    CRC32 hash             : C95D35D0
    CRC32 hash (skip zero) : 5F1A8C6B
    AccurateRip signature  : BED97C66
        ->Accurately ripped! (confidence 13)
    Statistics
        Read error                           : 0
        Skipped (treated as error)           : 0
        Edge jitter error (maybe fixed)      : 0
        Atom jitter error (maybe fixed)      : 0
        Drift error (maybe fixed)            : 0
        Dropped bytes error (maybe fixed)    : 0
        Duplicated bytes error (maybe fixed) : 0
        Inconsistency in error sectors       : 0

Track 04
    Filename : /XLD/04 The Cardigans - Starter.flac

    Track gain             : -7.58 dB
    Peak                   : 0.985352
    CRC32 hash (test run)  : B9E67AFA
    CRC32 hash             : B9E67AFA
    CRC32 hash (skip zero) : C2A2A2F2
    AccurateRip signature  : 05B4665D
        ->Accurately ripped! (confidence 13)
    Statistics
        Read error                           : 0
        Skipped (treated as error)           : 0
        Edge jitter error (maybe fixed)      : 0
        Atom jitter error (maybe fixed)      : 0
        Drift error (maybe fixed)            : 0
        Dropped bytes error (maybe fixed)    : 0
        Duplicated bytes error (maybe fixed) : 0
        Inconsistency in error sectors       : 0

Track 05
    Filename : /XLD/05 The Cardigans - Hanging Around.flac

    Track gain             : -7.62 dB
    Peak                   : 0.981842
    CRC32 hash (test run)  : 354E3491
    CRC32 hash             : 354E3491
    CRC32 hash (skip zero) : C5616A27
    AccurateRip signature  : 494B07C8
        ->Accurately ripped! (confidence 13)
    Statistics
        Read error                           : 0
        Skipped (treated as error)           : 0
        Edge jitter error (maybe fixed)      : 0
        Atom jitter error (maybe fixed)      : 0
        Drift error (maybe fixed)            : 0
        Dropped bytes error (maybe fixed)    : 0
        Duplicated bytes error (maybe fixed) : 0
        Inconsistency in error sectors       : 0

Track 06
    Filename : /XLD/06 The Cardigans - Higher.flac

    Track gain             : -6.55 dB
    Peak                   : 0.986023
    CRC32 hash (test run)  : 29537527
    CRC32 hash             : 29537527
    CRC32 hash (skip zero) : 0AA9871D
    AccurateRip signature  : 0720C27E
        ->Accurately ripped! (confidence 13)
    Statistics
        Read error                           : 0
        Skipped (treated as error)           : 0
        Edge jitter error (maybe fixed)      : 0
        Atom jitter error (maybe fixed)      : 0
        Drift error (maybe fixed)            : 0
        Dropped bytes error (maybe fixed)    : 0
        Duplicated bytes error (maybe fixed) : 0
        Inconsistency in error sectors       : 0

Track 07
    Filename : /XLD/07 The Cardigans - Marvel Hill.flac

    Track gain             : -7.47 dB
    Peak                   : 0.984467
    CRC32 hash (test run)  : 218B28DE
    CRC32 hash             : 218B28DE
    CRC32 hash (skip zero) : 26D6D3DC
    AccurateRip signature  : 93DFCEBF
        ->Accurately ripped! (confidence 13)
    Statistics
        Read error                           : 0
        Skipped (treated as error)           : 0
        Edge jitter error (maybe fixed)      : 0
        Atom jitter error (maybe fixed)      : 0
        Drift error (maybe fixed)            : 0
        Dropped bytes error (maybe fixed)    : 0
        Duplicated bytes error (maybe fixed) : 0
        Inconsistency in error sectors       : 0

Track 08
    Filename : /XLD/08 The Cardigans - My Favourite Game.flac

    Track gain             : -7.71 dB
    Peak                   : 0.985199
    CRC32 hash (test run)  : B8B7C4AF
    CRC32 hash             : B8B7C4AF
    CRC32 hash (skip zero) : 319958C8
    AccurateRip signature  : B2FA8CA8
        ->Accurately ripped! (confidence 13)
    Statistics
        Read error                           : 0
        Skipped (treated as error)           : 0
        Edge jitter error (maybe fixed)      : 0
        Atom jitter error (maybe fixed)      : 0
        Drift error (maybe fixed)            : 0
        Dropped bytes error (maybe fixed)    : 0
        Duplicated bytes error (maybe fixed) : 0
        Inconsistency in error sectors       : 0

Track 09
    Filename : /XLD/09 The Cardigans - Do You Believe.flac

    Track gain             : -7.50 dB
    Peak                   : 0.983398
    CRC32 hash (test run)  : D40742DD
    CRC32 hash             : D40742DD
    CRC32 hash (skip zero) : 57B13EB6
    AccurateRip signature  : 606ECC12
        ->Accurately ripped! (confidence 13)
    Statistics
        Read error                           : 0
        Skipped (treated as error)           : 0
        Edge jitter error (maybe fixed)      : 0
        Atom jitter error (maybe fixed)      : 0
        Drift error (maybe fixed)            : 0
        Dropped bytes error (maybe fixed)    : 0
        Duplicated bytes error (maybe fixed) : 0
        Inconsistency in error sectors       : 0

Track 10
    Filename : /XLD/10 The Cardigans - Junk Of The Hearts.flac

    Track gain             : -7.16 dB
    Peak                   : 0.986359
    CRC32 hash (test run)  : 12BC8E6B
    CRC32 hash             : 12BC8E6B
    CRC32 hash (skip zero) : 18A13F3E
    AccurateRip signature  : E57F55F1
        ->Accurately ripped! (confidence 13)
    Statistics
        Read error                           : 0
        Skipped (treated as error)           : 0
        Edge jitter error (maybe fixed)      : 0
        Atom jitter error (maybe fixed)      : 0
        Drift error (maybe fixed)            : 0
        Dropped bytes error (maybe fixed)    : 0
        Duplicated bytes error (maybe fixed) : 0
        Inconsistency in error sectors       : 0

Track 11
    Filename : /XLD/11 The Cardigans - Nil.flac

    Track gain             : 4.17 dB
    Peak                   : 0.276855
    CRC32 hash (test run)  : D7C9D1EB
    CRC32 hash             : D7C9D1EB
    CRC32 hash (skip zero) : 1502A347
    AccurateRip signature  : A7BF63F9
        ->Accurately ripped! (confidence 13)
    Statistics
        Read error                           : 0
        Skipped (treated as error)           : 0
        Edge jitter error (maybe fixed)      : 0
        Atom jitter error (maybe fixed)      : 0
        Drift error (maybe fixed)            : 0
        Dropped bytes error (maybe fixed)    : 0
        Duplicated bytes error (maybe fixed) : 0
        Inconsistency in error sectors       : 0

No errors occurred

End of status report

Код:

TITLE "Gran Turismo"
PERFORMER "The Cardigans"
CATALOG 0731455908121
REM GENRE "Pop"
REM DATE 1998
FILE "01 The Cardigans - Paralyzed.wav" WAVE
  TRACK 01 AUDIO
    TITLE "Paralyzed"
    ISRC SEBKB9802020
    INDEX 01 00:00:00
  TRACK 02 AUDIO
    TITLE "Erase/Rewind"
    ISRC SEBKB9802030
    INDEX 00 04:53:55
FILE "02 The Cardigans - Erase/Rewind.wav" WAVE
    INDEX 01 00:00:00
  TRACK 03 AUDIO
    TITLE "Explode"
    ISRC SEBKB9802040
    INDEX 00 03:35:57
FILE "03 The Cardigans - Explode.wav" WAVE
    INDEX 01 00:00:00
FILE "04 The Cardigans - Starter.wav" WAVE
  TRACK 04 AUDIO
    TITLE "Starter"
    ISRC SEBKB9802050
    INDEX 01 00:00:00
  TRACK 05 AUDIO
    TITLE "Hanging Around"
    ISRC SEBKB9802060
    INDEX 00 03:50:15
FILE "05 The Cardigans - Hanging Around.wav" WAVE
    INDEX 01 00:00:00
  TRACK 06 AUDIO
    TITLE "Higher"
    ISRC SEBKB9802070
    INDEX 00 03:41:15
FILE "06 The Cardigans - Higher.wav" WAVE
    INDEX 01 00:00:00
FILE "07 The Cardigans - Marvel Hill.wav" WAVE
  TRACK 07 AUDIO
    TITLE "Marvel Hill"
    ISRC SEBKB9802080
    INDEX 01 00:00:00
  TRACK 08 AUDIO
    TITLE "My Favourite Game"
    ISRC SEBKB9802010
    INDEX 00 04:14:60
FILE "08 The Cardigans - My Favourite Game.wav" WAVE
    INDEX 01 00:00:00
  TRACK 09 AUDIO
    TITLE "Do You Believe"
    ISRC SEBKB9802090
    INDEX 00 03:37:10
FILE "09 The Cardigans - Do You Believe.wav" WAVE
    INDEX 01 00:00:00
  TRACK 10 AUDIO
    TITLE "Junk Of The Hearts"
    ISRC SEBKB9802100
    INDEX 00 03:19:18
FILE "10 The Cardigans - Junk Of The Hearts.wav" WAVE
    INDEX 01 00:00:00
FILE "11 The Cardigans - Nil.wav" WAVE
  TRACK 11 AUDIO
    TITLE "Nil"
    ISRC SEBKB9802110
    INDEX 01 00:00:00
01. War (First Try) (4:10)
02. I Figured Out (2:06)
03. Plain Parade (3:31)
04. Laika (1:20)
05. Pooh Song (3:15)
06. Mr. Crowley (2:36)
07. Emmerdale (2:25)
08. The Boys Are Back In Town (4:04)
09. Carnival (Puck Version) (2:52)
10. Nasty Sunny Beam (2:55)
11. Iron Man (First Try) (3:40)
12. Blah Blah Blah (3:01)
13. Losers (First Try) (3:17)
14. Country Hell (2:48)
15. After All (2:38)
16. Cocktail Party Bloody Cocktail Party (15:47)

Код:

Exact Audio Copy V0.99 prebeta 4 from 23. January 2008

EAC extraction logfile from 20. February 2009, 19:07

The Cardigans / Other Side Of The Moon

Used drive  : _NEC    DVD_RW ND-4551A   Adapter: 0  ID: 2

Read mode               : Secure
Utilize accurate stream : Yes
Defeat audio cache      : Yes
Make use of C2 pointers : No

Read offset correction                      : 48
Overread into Lead-In and Lead-Out          : No
Fill up missing offset samples with silence : Yes
Delete leading and trailing silent blocks   : No
Null samples used in CRC calculations       : Yes
Used interface                              : Native Win32 interface for Win NT & 2000
Gap handling                                : Appended to previous track

Used output format              : User Defined Encoder
Selected bitrate                : 128 kBit/s
Quality                         : High
Add ID3 tag                     : No
Command line compressor         : C:\Programme\Exact Audio Copy\flac.exe
Additional command line options : -V -8 -T "artist=%a" -T "title=%t" -T "album=%g" -T "date=%y" -T "tracknumber=%n" -T "genre=%m" %s

TOC of the extracted CD

     Track |   Start  |  Length  | Start sector | End sector
    ---------------------------------------------------------
        1  |  0:00.37 |  4:09.45 |        37    |    18756   
        2  |  4:10.07 |  2:05.60 |     18757    |    28191   
        3  |  6:15.67 |  3:31.30 |     28192    |    44046   
        4  |  9:47.22 |  1:20.35 |     44047    |    50081   
        5  | 11:07.57 |  3:15.27 |     50082    |    64733   
        6  | 14:23.09 |  2:35.40 |     64734    |    76398   
        7  | 16:58.49 |  2:25.03 |     76399    |    87276   
        8  | 19:23.52 |  4:04.07 |     87277    |   105583   
        9  | 23:27.59 |  2:52.30 |    105584    |   118513   
       10  | 26:20.14 |  2:54.43 |    118514    |   131606   
       11  | 29:14.57 |  3:39.72 |    131607    |   148103   
       12  | 32:54.54 |  3:00.50 |    148104    |   161653   
       13  | 35:55.29 |  3:16.63 |    161654    |   176416   
       14  | 39:12.17 |  2:47.67 |    176417    |   189008   
       15  | 42:00.09 |  2:37.53 |    189009    |   200836   
       16  | 44:37.62 | 15:47.17 |    200837    |   271878   

Track  1

     Filename e:\downloads\what.cd\FLAC\The Cardigans - Other Side Of The Moon\01 - War (First Try).wav

     Pre-gap length  0:00:02.49

     Peak level 99.9 %
     Track quality 100.0 %
     Test CRC 9B1D3FA3
     Copy CRC 9B1D3FA3
     Cannot be verified as accurate (confidence 2)  [CCF5BB27], AccurateRip returned [3DAC2552]
     Copy OK

Track  2

     Filename e:\downloads\what.cd\FLAC\The Cardigans - Other Side Of The Moon\02 - I Figured Out.wav

     Peak level 100.0 %
     Track quality 100.0 %
     Test CRC F34323F2
     Copy CRC F34323F2
     Cannot be verified as accurate (confidence 2)  [394987DC], AccurateRip returned [ACD7D4AB]
     Copy OK

Track  3

     Filename e:\downloads\what.cd\FLAC\The Cardigans - Other Side Of The Moon\03 - Plain Parade.wav

     Peak level 100.0 %
     Track quality 100.0 %
     Test CRC 6D823B67
     Copy CRC 6D823B67
     Cannot be verified as accurate (confidence 2)  [58FA68F8], AccurateRip returned [636C1F2F]
     Copy OK

Track  4

     Filename e:\downloads\what.cd\FLAC\The Cardigans - Other Side Of The Moon\04 - Laika.wav

     Peak level 85.8 %
     Track quality 100.0 %
     Test CRC 0777E99D
     Copy CRC 0777E99D
     Cannot be verified as accurate (confidence 2)  [96B81788], AccurateRip returned [BA1DC53D]
     Copy OK

Track  5

     Filename e:\downloads\what.cd\FLAC\The Cardigans - Other Side Of The Moon\05 - Pooh Song.wav

     Peak level 100.0 %
     Track quality 100.0 %
     Test CRC 4924763E
     Copy CRC 4924763E
     Cannot be verified as accurate (confidence 2)  [DC99A8A9], AccurateRip returned [F09501E6]
     Copy OK

Track  6

     Filename e:\downloads\what.cd\FLAC\The Cardigans - Other Side Of The Moon\06 - Mr. Crowley.wav

     Peak level 99.9 %
     Track quality 100.0 %
     Test CRC 6B55378F
     Copy CRC 6B55378F
     Cannot be verified as accurate (confidence 2)  [CCF188C2], AccurateRip returned [4CBD423F]
     Copy OK

Track  7

     Filename e:\downloads\what.cd\FLAC\The Cardigans - Other Side Of The Moon\07 - Emmerdale.wav

     Peak level 98.2 %
     Track quality 100.0 %
     Test CRC CBD421C3
     Copy CRC CBD421C3
     Cannot be verified as accurate (confidence 2)  [802A20A1], AccurateRip returned [E1DB82E8]
     Copy OK

Track  8

     Filename e:\downloads\what.cd\FLAC\The Cardigans - Other Side Of The Moon\08 - The Boys Are Back In Town.wav

     Peak level 100.0 %
     Track quality 100.0 %
     Test CRC 848E95CF
     Copy CRC 848E95CF
     Cannot be verified as accurate (confidence 2)  [6910D2DE], AccurateRip returned [425E0004]
     Copy OK

Track  9

     Filename e:\downloads\what.cd\FLAC\The Cardigans - Other Side Of The Moon\09 - Carnival (Puck Version).wav

     Peak level 80.9 %
     Track quality 100.0 %
     Test CRC 4148D3C2
     Copy CRC 4148D3C2
     Cannot be verified as accurate (confidence 2)  [16F3C808], AccurateRip returned [B0E290F4]
     Copy OK

Track 10

     Filename e:\downloads\what.cd\FLAC\The Cardigans - Other Side Of The Moon\10 - Nasty Sunny Beam.wav

     Peak level 97.7 %
     Track quality 100.0 %
     Test CRC 655EA770
     Copy CRC 655EA770
     Cannot be verified as accurate (confidence 2)  [4948E64E], AccurateRip returned [5F4E13AA]
     Copy OK

Track 11

     Filename e:\downloads\what.cd\FLAC\The Cardigans - Other Side Of The Moon\11 - Iron Man (First Try).wav

     Peak level 100.0 %
     Track quality 100.0 %
     Test CRC AB733D3E
     Copy CRC AB733D3E
     Cannot be verified as accurate (confidence 2)  [52EA31B2], AccurateRip returned [FBA276A5]
     Copy OK

Track 12

     Filename e:\downloads\what.cd\FLAC\The Cardigans - Other Side Of The Moon\12 - Blah Blah Blah.wav

     Peak level 98.0 %
     Track quality 99.9 %
     Test CRC 5E1C2AB0
     Copy CRC 5E1C2AB0
     Cannot be verified as accurate (confidence 2)  [8C81ECE4], AccurateRip returned [3EDD2041]
     Copy OK

Track 13

     Filename e:\downloads\what.cd\FLAC\The Cardigans - Other Side Of The Moon\13 - Losers (First Try).wav

     Peak level 100.0 %
     Track quality 100.0 %
     Test CRC 2A2BCE99
     Copy CRC 2A2BCE99
     Cannot be verified as accurate (confidence 2)  [2AC4B52E], AccurateRip returned [956C40F9]
     Copy OK

Track 14

     Filename e:\downloads\what.cd\FLAC\The Cardigans - Other Side Of The Moon\14 - Country Hell.wav

     Peak level 93.6 %
     Track quality 100.0 %
     Test CRC 8C8ECE0F
     Copy CRC 8C8ECE0F
     Cannot be verified as accurate (confidence 2)  [2E5B913C], AccurateRip returned [47A8913C]
     Copy OK

Track 15

     Filename e:\downloads\what.cd\FLAC\The Cardigans - Other Side Of The Moon\15 - After All.wav

     Peak level 88.7 %
     Track quality 99.9 %
     Test CRC C58991A7
     Copy CRC C58991A7
     Cannot be verified as accurate (confidence 2)  [2957E5EF], AccurateRip returned [5406E5AD]
     Copy OK

Track 16

     Filename e:\downloads\what.cd\FLAC\The Cardigans - Other Side Of The Moon\16 - Cocktail Party Bloody Cocktail Party.wav

     Peak level 99.6 %
     Track quality 100.0 %
     Test CRC 7B968A21
     Copy CRC 7B968A21
     Cannot be verified as accurate (confidence 2)  [3E572FFD], AccurateRip returned [4BF8183E]
     Copy OK

No tracks could be verified as accurate
You may have a different pressing from the one(s) in the database

No errors occurred

End of status report

Код:

REM GENRE Pop
REM DATE 1997
REM DISCID F20E2910
REM COMMENT "ExactAudioCopy v0.99pb4"
PERFORMER "The Cardigans"
TITLE "Other Side Of The Moon"
FILE "01 - War (First Try).wav" WAVE
  TRACK 01 AUDIO
    TITLE "War (First Try)"
    PERFORMER "The Cardigans"
    PREGAP 00:00:37
    INDEX 01 00:00:00
FILE "02 - I Figured Out.wav" WAVE
  TRACK 02 AUDIO
    TITLE "I Figured Out"
    PERFORMER "The Cardigans"
    INDEX 01 00:00:00
FILE "03 - Plain Parade.wav" WAVE
  TRACK 03 AUDIO
    TITLE "Plain Parade"
    PERFORMER "The Cardigans"
    INDEX 01 00:00:00
FILE "04 - Laika.wav" WAVE
  TRACK 04 AUDIO
    TITLE "Laika"
    PERFORMER "The Cardigans"
    INDEX 01 00:00:00
FILE "05 - Pooh Song.wav" WAVE
  TRACK 05 AUDIO
    TITLE "Pooh Song"
    PERFORMER "The Cardigans"
    INDEX 01 00:00:00
FILE "06 - Mr. Crowley.wav" WAVE
  TRACK 06 AUDIO
    TITLE "Mr. Crowley"
    PERFORMER "The Cardigans"
    INDEX 01 00:00:00
FILE "07 - Emmerdale.wav" WAVE
  TRACK 07 AUDIO
    TITLE "Emmerdale"
    PERFORMER "The Cardigans"
    INDEX 01 00:00:00
FILE "08 - The Boys Are Back In Town.wav" WAVE
  TRACK 08 AUDIO
    TITLE "The Boys Are Back In Town"
    PERFORMER "The Cardigans"
    INDEX 01 00:00:00
FILE "09 - Carnival (Puck Version).wav" WAVE
  TRACK 09 AUDIO
    TITLE "Carnival (Puck Version)"
    PERFORMER "The Cardigans"
    INDEX 01 00:00:00
FILE "10 - Nasty Sunny Beam.wav" WAVE
  TRACK 10 AUDIO
    TITLE "Nasty Sunny Beam"
    PERFORMER "The Cardigans"
    INDEX 01 00:00:00
FILE "11 - Iron Man (First Try).wav" WAVE
  TRACK 11 AUDIO
    TITLE "Iron Man (First Try)"
    PERFORMER "The Cardigans"
    INDEX 01 00:00:00
FILE "12 - Blah Blah Blah.wav" WAVE
  TRACK 12 AUDIO
    TITLE "Blah Blah Blah"
    PERFORMER "The Cardigans"
    INDEX 01 00:00:00
FILE "13 - Losers (First Try).wav" WAVE
  TRACK 13 AUDIO
    TITLE "Losers (First Try)"
    PERFORMER "The Cardigans"
    INDEX 01 00:00:00
FILE "14 - Country Hell.wav" WAVE
  TRACK 14 AUDIO
    TITLE "Country Hell"
    PERFORMER "The Cardigans"
    INDEX 01 00:00:00
FILE "15 - After All.wav" WAVE
  TRACK 15 AUDIO
    TITLE "After All"
    PERFORMER "The Cardigans"
    INDEX 01 00:00:00
FILE "16 - Cocktail Party Bloody Cocktail Party.wav" WAVE
  TRACK 16 AUDIO
    TITLE "Cocktail Party Bloody Cocktail Party"
    PERFORMER "The Cardigans"
    INDEX 01 00:00:00
01. Communication (4:29)
02. You're The Storm (3:54)
03. A Good Horse (3:17)
04. And Then You Kissed Me (6:03)
05. Couldn't Care Less (5:33)
06. Please Sister (4:37)
07. For What It's Worth (4:19)
08. Lead Me Into The Night (4:32)
09. Live And Learn (4:17)
10. Feathers And Down (4:30)
11. 03.45: No Sleep (3:45)
12. If There Is A Chance (4:17)

Код:

Exact Audio Copy V0.99 prebeta 4 from 23. January 2008

EAC extraction logfile from 19. June 2008, 13:32

The Cardigans / Long Gone Before Daylight

Used drive  : SONY    DVD RW DW-D22A   Adapter: 1  ID: 0

Read mode               : Secure
Utilize accurate stream : Yes
Defeat audio cache      : Yes
Make use of C2 pointers : No

Read offset correction                      : 12
Overread into Lead-In and Lead-Out          : No
Fill up missing offset samples with silence : Yes
Delete leading and trailing silent blocks   : No
Null samples used in CRC calculations       : Yes
Used interface                              : Installed external ASPI interface
Gap handling                                : Appended to previous track

Used output format              : User Defined Encoder
Selected bitrate                : 192 kBit/s
Quality                         : High
Add ID3 tag                     : No
Command line compressor         : C:\Program Files\Exact Audio Copy\Flac\flac.exe
Additional command line options : -8 -A tukey(0.25) -A gauss(0.1875) -b 4096 -V -T "artist=%a" -T "title=%t" -T "album=%g" -T "date=%y" -T "tracknumber=%n" -T "genre=%m" %s --sector-align

TOC of the extracted CD

     Track |   Start  |  Length  | Start sector | End sector
    ---------------------------------------------------------
        1  |  0:00.00 |  4:28.43 |         0    |    20142   
        2  |  4:28.43 |  3:53.44 |     20143    |    37661   
        3  |  8:22.12 |  3:17.36 |     37662    |    52472   
        4  | 11:39.48 |  6:03.19 |     52473    |    79716   
        5  | 17:42.67 |  5:32.38 |     79717    |   104654   
        6  | 23:15.30 |  4:36.56 |    104655    |   125410   
        7  | 27:52.11 |  4:18.63 |    125411    |   144823   
        8  | 32:10.74 |  4:31.46 |    144824    |   165194   
        9  | 36:42.45 |  4:16.44 |    165195    |   184438   
       10  | 40:59.14 |  4:29.38 |    184439    |   204651   
       11  | 45:28.52 |  3:44.60 |    204652    |   221511   
       12  | 49:13.37 |  4:16.39 |    221512    |   240750   

Track  1

     Filename D:\The Cardigans - Long Gone Before Daylight\The Cardigans - Long Gone Before Daylight - 01 - Communication.wav

     Pre-gap length  0:00:02.00

     Peak level 100.0 %
     Track quality 100.0 %
     Test CRC E89FD2AE
     Copy CRC E89FD2AE
     Track not present in AccurateRip database
     Copy OK

Track  2

     Filename D:\The Cardigans - Long Gone Before Daylight\The Cardigans - Long Gone Before Daylight - 02 - You're The Storm.wav

     Pre-gap length  0:00:00.47

     Peak level 100.0 %
     Track quality 100.0 %
     Test CRC 7D683F26
     Copy CRC 7D683F26
     Track not present in AccurateRip database
     Copy OK

Track  3

     Filename D:\The Cardigans - Long Gone Before Daylight\The Cardigans - Long Gone Before Daylight - 03 - A Good Horse.wav

     Pre-gap length  0:00:00.04

     Peak level 100.0 %
     Track quality 100.0 %
     Test CRC D924C1BE
     Copy CRC D924C1BE
     Track not present in AccurateRip database
     Copy OK

Track  4

     Filename D:\The Cardigans - Long Gone Before Daylight\The Cardigans - Long Gone Before Daylight - 04 - And Then You Kissed Me.wav

     Pre-gap length  0:00:00.73

     Peak level 100.0 %
     Track quality 99.9 %
     Test CRC FD24A9C7
     Copy CRC FD24A9C7
     Track not present in AccurateRip database
     Copy OK

Track  5

     Filename D:\The Cardigans - Long Gone Before Daylight\The Cardigans - Long Gone Before Daylight - 05 - Couldn't Care Less.wav

     Pre-gap length  0:00:01.11

     Peak level 100.0 %
     Track quality 100.0 %
     Test CRC D2998999
     Copy CRC D2998999
     Track not present in AccurateRip database
     Copy OK

Track  6

     Filename D:\The Cardigans - Long Gone Before Daylight\The Cardigans - Long Gone Before Daylight - 06 - Please Sister.wav

     Pre-gap length  0:00:00.35

     Peak level 100.0 %
     Track quality 100.0 %
     Test CRC EA6E3ADC
     Copy CRC EA6E3ADC
     Track not present in AccurateRip database
     Copy OK

Track  7

     Filename D:\The Cardigans - Long Gone Before Daylight\The Cardigans - Long Gone Before Daylight - 07 - For What It's Worth.wav

     Pre-gap length  0:00:00.36

     Peak level 100.0 %
     Track quality 100.0 %
     Test CRC 57FF4B7F
     Copy CRC 57FF4B7F
     Track not present in AccurateRip database
     Copy OK

Track  8

     Filename D:\The Cardigans - Long Gone Before Daylight\The Cardigans - Long Gone Before Daylight - 08 - Lead Me Into The Night.wav

     Pre-gap length  0:00:00.73

     Peak level 100.0 %
     Track quality 99.9 %
     Test CRC 8DC431AF
     Copy CRC 8DC431AF
     Track not present in AccurateRip database
     Copy OK

Track  9

     Filename D:\The Cardigans - Long Gone Before Daylight\The Cardigans - Long Gone Before Daylight - 09 - Live And Learn.wav

     Peak level 100.0 %
     Track quality 100.0 %
     Test CRC 65629880
     Copy CRC 65629880
     Track not present in AccurateRip database
     Copy OK

Track 10

     Filename D:\The Cardigans - Long Gone Before Daylight\The Cardigans - Long Gone Before Daylight - 10 - Feathers And Down.wav

     Pre-gap length  0:00:02.32

     Peak level 100.0 %
     Track quality 100.0 %
     Test CRC DD3C4A7A
     Copy CRC DD3C4A7A
     Track not present in AccurateRip database
     Copy OK

Track 11

     Filename D:\The Cardigans - Long Gone Before Daylight\The Cardigans - Long Gone Before Daylight - 11 - 03.45- No Sleep.wav

     Peak level 74.7 %
     Track quality 99.9 %
     Test CRC D9AA8801
     Copy CRC D9AA8801
     Track not present in AccurateRip database
     Copy OK

Track 12

     Filename D:\The Cardigans - Long Gone Before Daylight\The Cardigans - Long Gone Before Daylight - 12 - If There Is A Chance.wav

     Pre-gap length  0:00:02.74

     Peak level 100.0 %
     Track quality 100.0 %
     Test CRC 00DD5887
     Copy CRC 00DD5887
     Track not present in AccurateRip database
     Copy OK

None of the tracks are present in the AccurateRip database

No errors occurred

End of status report

Код:

D:\xxx\image.wav

Checking AccurateRip database

Track ->> Ripping Status ->>  ->> [Disc ID: 0018217a-920c8a0c]

 1 ->> Accurately Ripped    (confidence 16)     [bf2d1bf4]
 2 ->> Accurately Ripped    (confidence 16)     [2796fb01]
 3 ->> Accurately Ripped    (confidence 16)     [2c75ab9b]
 4 ->> Accurately Ripped    (confidence 16)     [5ce43e20]
 5 ->> Accurately Ripped    (confidence 16)     [09f76c7b]
 6 ->> Accurately Ripped    (confidence 16)     [57934e9e]
 7 ->> Accurately Ripped    (confidence 16)     [ae027829]
 8 ->> Accurately Ripped    (confidence 16)     [c6f3c0b3]
 9 ->> Accurately Ripped    (confidence 16)     [d9dd791a]
 10 ->> Accurately Ripped    (confidence 15)     [19a6fd29]
 11 ->> Accurately Ripped    (confidence 15)     [c4d3b883]
 12 ->> Accurately Ripped    (confidence 15)     [fd65788d]

_______________________

All Tracks Accurately Ripped.

Код:

REM GENRE Pop
REM DATE 2003
REM DISCID 920C8A0C
REM COMMENT "ExactAudioCopy v0.99pb4"
PERFORMER "The Cardigans"
TITLE "Long Gone Before Daylight"
FILE "The Cardigans - Long Gone Before Daylight - 01 - Communication.wav" WAVE
  TRACK 01 AUDIO
    TITLE "Communication"
    PERFORMER "The Cardigans"
    INDEX 01 00:00:00
  TRACK 02 AUDIO
    TITLE "You're The Storm"
    PERFORMER "The Cardigans"
    INDEX 00 04:27:71
FILE "The Cardigans - Long Gone Before Daylight - 02 - You're The Storm.wav" WAVE
    INDEX 01 00:00:00
  TRACK 03 AUDIO
    TITLE "A Good Horse"
    PERFORMER "The Cardigans"
    INDEX 00 03:53:40
FILE "The Cardigans - Long Gone Before Daylight - 03 - A Good Horse.wav" WAVE
    INDEX 01 00:00:00
  TRACK 04 AUDIO
    TITLE "And Then You Kissed Me"
    PERFORMER "The Cardigans"
    INDEX 00 03:16:38
FILE "The Cardigans - Long Gone Before Daylight - 04 - And Then You Kissed Me.wav" WAVE
    INDEX 01 00:00:00
  TRACK 05 AUDIO
    TITLE "Couldn't Care Less"
    PERFORMER "The Cardigans"
    INDEX 00 06:02:08
FILE "The Cardigans - Long Gone Before Daylight - 05 - Couldn't Care Less.wav" WAVE
    INDEX 01 00:00:00
  TRACK 06 AUDIO
    TITLE "Please Sister"
    PERFORMER "The Cardigans"
    INDEX 00 05:32:03
FILE "The Cardigans - Long Gone Before Daylight - 06 - Please Sister.wav" WAVE
    INDEX 01 00:00:00
  TRACK 07 AUDIO
    TITLE "For What It's Worth"
    PERFORMER "The Cardigans"
    INDEX 00 04:36:20
FILE "The Cardigans - Long Gone Before Daylight - 07 - For What It's Worth.wav" WAVE
    INDEX 01 00:00:00
  TRACK 08 AUDIO
    TITLE "Lead Me Into The Night"
    PERFORMER "The Cardigans"
    INDEX 00 04:17:65
FILE "The Cardigans - Long Gone Before Daylight - 08 - Lead Me Into The Night.wav" WAVE
    INDEX 01 00:00:00
FILE "The Cardigans - Long Gone Before Daylight - 09 - Live And Learn.wav" WAVE
  TRACK 09 AUDIO
    TITLE "Live And Learn"
    PERFORMER "The Cardigans"
    INDEX 01 00:00:00
  TRACK 10 AUDIO
    TITLE "Feathers And Down"
    PERFORMER "The Cardigans"
    INDEX 00 04:14:12
FILE "The Cardigans - Long Gone Before Daylight - 10 - Feathers And Down.wav" WAVE
    INDEX 01 00:00:00
FILE "The Cardigans - Long Gone Before Daylight - 11 - 03.45- No Sleep.wav" WAVE
  TRACK 11 AUDIO
    TITLE "03.45: No Sleep"
    PERFORMER "The Cardigans"
    INDEX 01 00:00:00
  TRACK 12 AUDIO
    TITLE "If There Is A Chance"
    PERFORMER "The Cardigans"
    INDEX 00 03:41:61
FILE "The Cardigans - Long Gone Before Daylight - 12 - If There Is A Chance.wav" WAVE
    INDEX 01 00:00:00
01. Losing A Friend (3:49)
02. Godspell (3:29)
03. Drip Drop Teardrop (3:23)
04. Overload (3:19)
05. I Need Some Fine Wine And You, You Need To Be Nicer (3:33)
06. Don't Blame Your Daughter [Diamonds] (3:37)
07. Little Black Cloud (3:26)
08. In The Round (4:16)
09. Holy Love (4:07)
10. Good Morning Joan (3:37)
11. And Then You Kissed Me II (3:58)

Код:

Exact Audio Copy V0.99 prebeta 5 from 4. May 2009

EAC extraction logfile from 4. January 2010, 16:49

The Cardigans / Super Extra Gravity

Used drive  : HL-DT-STDVDRAM GSA-H44N   Adapter: 2  ID: 0

Read mode               : Secure
Utilize accurate stream : Yes
Defeat audio cache      : Yes
Make use of C2 pointers : No

Read offset correction                      : 667
Overread into Lead-In and Lead-Out          : No
Fill up missing offset samples with silence : Yes
Delete leading and trailing silent blocks   : No
Null samples used in CRC calculations       : Yes
Used interface                              : Installed external ASPI interface
Gap handling                                : Appended to previous track

Used output format              : User Defined Encoder
Selected bitrate                : 768 kBit/s
Quality                         : High
Add ID3 tag                     : No
Command line compressor         : C:\Program Files\Exact Audio Copy\FLAC\FLAC.EXE
Additional command line options : -8 -V -T "ARTIST=%a" -T "TITLE=%t" -T "ALBUM=%g" -T "DATE=%y" -T "TRACKNUMBER=%n" -T "GENRE=%m" %s

TOC of the extracted CD

     Track |   Start  |  Length  | Start sector | End sector
    ---------------------------------------------------------
        1  |  0:00.00 |  3:49.00 |         0    |    17174   
        2  |  3:49.00 |  3:29.05 |     17175    |    32854   
        3  |  7:18.05 |  3:22.62 |     32855    |    48066   
        4  | 10:40.67 |  3:18.73 |     48067    |    62989   
        5  | 13:59.65 |  3:33.33 |     62990    |    78997   
        6  | 17:33.23 |  3:36.66 |     78998    |    95263   
        7  | 21:10.14 |  3:26.14 |     95264    |   110727   
        8  | 24:36.28 |  4:16.15 |    110728    |   129942   
        9  | 28:52.43 |  4:07.13 |    129943    |   148480   
       10  | 32:59.56 |  3:36.60 |    148481    |   164740   
       11  | 36:36.41 |  3:57.62 |    164741    |   182577   

Track  1

     Filename I:\01 - Losing A Friend.wav

     Pre-gap length  0:00:02.00

     Peak level 100.0 %
     Track quality 100.0 %
     Test CRC 9A96BC32
     Copy CRC 9A96BC32
     Accurately ripped (confidence 128)  [E5422A44]
     Copy OK

Track  2

     Filename I:\02 - Godspell.wav

     Peak level 100.0 %
     Track quality 100.0 %
     Test CRC 83B8E3F1
     Copy CRC 83B8E3F1
     Accurately ripped (confidence 130)  [2DDB8709]
     Copy OK

Track  3

     Filename I:\03 - Drip Drop Teardrop.wav

     Peak level 100.0 %
     Track quality 100.0 %
     Test CRC 55A0F3D7
     Copy CRC 55A0F3D7
     Accurately ripped (confidence 129)  [71CFEF25]
     Copy OK

Track  4

     Filename I:\04 - Overload.wav

     Peak level 100.0 %
     Track quality 100.0 %
     Test CRC 93D946A0
     Copy CRC 93D946A0
     Accurately ripped (confidence 131)  [2F8DC0B9]
     Copy OK

Track  5

     Filename I:\05 - I Need Some Fine Wine And You, You Need To Be Nicer.wav

     Peak level 100.0 %
     Track quality 100.0 %
     Test CRC 44CD5532
     Copy CRC 44CD5532
     Accurately ripped (confidence 131)  [32172BF6]
     Copy OK

Track  6

     Filename I:\06 - Don't Blame Your Daughter [Diamonds].wav

     Peak level 100.0 %
     Track quality 100.0 %
     Test CRC A3549B38
     Copy CRC A3549B38
     Accurately ripped (confidence 130)  [123D1971]
     Copy OK

Track  7

     Filename I:\07 - Little Black Cloud.wav

     Peak level 100.0 %
     Track quality 99.9 %
     Test CRC 2DA0412B
     Copy CRC 2DA0412B
     Accurately ripped (confidence 131)  [46945A7E]
     Copy OK

Track  8

     Filename I:\08 - In The Round.wav

     Peak level 100.0 %
     Track quality 100.0 %
     Test CRC 12088EE0
     Copy CRC 12088EE0
     Accurately ripped (confidence 127)  [7D59722F]
     Copy OK

Track  9

     Filename I:\09 - Holy Love.wav

     Peak level 100.0 %
     Track quality 100.0 %
     Test CRC 917F7F6D
     Copy CRC 917F7F6D
     Accurately ripped (confidence 130)  [DDE205A9]
     Copy OK

Track 10

     Filename I:\10 - Good Morning Joan.wav

     Peak level 100.0 %
     Track quality 99.8 %
     Test CRC 24AB651E
     Copy CRC 24AB651E
     Accurately ripped (confidence 131)  [93E65D43]
     Copy OK

Track 11

     Filename I:\11 - And Then You Kissed Me II.wav

     Peak level 100.0 %
     Track quality 100.0 %
     Test CRC DB144375
     Copy CRC DB144375
     Accurately ripped (confidence 128)  [8A0D6A7F]
     Copy OK

All tracks accurately ripped

No errors occurred

End of status report

Код:

REM GENRE Pop
REM DATE 2005
REM DISCID 8A09820B
REM COMMENT "ExactAudioCopy v0.99pb5"
PERFORMER "The Cardigans"
TITLE "Super Extra Gravity"
FILE "01 - Losing A Friend.wav" WAVE
  TRACK 01 AUDIO
    TITLE "Losing A Friend"
    PERFORMER "The Cardigans"
    FLAGS DCP
    INDEX 01 00:00:00
FILE "02 - Godspell.wav" WAVE
  TRACK 02 AUDIO
    TITLE "Godspell"
    PERFORMER "The Cardigans"
    FLAGS DCP
    INDEX 01 00:00:00
FILE "03 - Drip Drop Teardrop.wav" WAVE
  TRACK 03 AUDIO
    TITLE "Drip Drop Teardrop"
    PERFORMER "The Cardigans"
    FLAGS DCP
    INDEX 01 00:00:00
FILE "04 - Overload.wav" WAVE
  TRACK 04 AUDIO
    TITLE "Overload"
    PERFORMER "The Cardigans"
    FLAGS DCP
    INDEX 01 00:00:00
FILE "05 - I Need Some Fine Wine And You, You Need To Be Nicer.wav" WAVE
  TRACK 05 AUDIO
    TITLE "I Need Some Fine Wine And You, You Need To Be Nicer"
    PERFORMER "The Cardigans"
    FLAGS DCP
    INDEX 01 00:00:00
FILE "06 - Don't Blame Your Daughter [Diamonds].wav" WAVE
  TRACK 06 AUDIO
    TITLE "Don't Blame Your Daughter [Diamonds]"
    PERFORMER "The Cardigans"
    FLAGS DCP
    INDEX 01 00:00:00
FILE "07 - Little Black Cloud.wav" WAVE
  TRACK 07 AUDIO
    TITLE "Little Black Cloud"
    PERFORMER "The Cardigans"
    FLAGS DCP
    INDEX 01 00:00:00
FILE "08 - In The Round.wav" WAVE
  TRACK 08 AUDIO
    TITLE "In The Round"
    PERFORMER "The Cardigans"
    FLAGS DCP
    INDEX 01 00:00:00
FILE "09 - Holy Love.wav" WAVE
  TRACK 09 AUDIO
    TITLE "Holy Love"
    PERFORMER "The Cardigans"
    FLAGS DCP
    INDEX 01 00:00:00
FILE "10 - Good Morning Joan.wav" WAVE
  TRACK 10 AUDIO
    TITLE "Good Morning Joan"
    PERFORMER "The Cardigans"
    FLAGS DCP
    INDEX 01 00:00:00
FILE "11 - And Then You Kissed Me II.wav" WAVE
  TRACK 11 AUDIO
    TITLE "And Then You Kissed Me II"
    PERFORMER "The Cardigans"
    FLAGS DCP
    INDEX 01 00:00:00

http://www.lastfm.ru/music/The+Cardigans писал(а):

The Cardigans (читается как Кардиганс, англ. Кардиганы) — шведский музыкальный коллектив, созданный в Йёнчёпинге (Jönköping, Småland, Sweden) в 1992. Стиль команды менялся от альбома к альбому, от ранних экспериментов в инди-роке, поп-музыки в духе 60-х и до более свойственного им рока.

Каждая из их записей открывала новые просторы и привлекала внимание новой аудитории. Дебютный альбом Emmerdale (1994) дал им прочный фундамент на родине, на них обратили внимание и за границей, особенно в Японии. Второй альбом Life (англ. «Жизнь») (1995) с синглом «Carnival» (англ. «Карнавал») стал прорывным, они получили ещё больше внимания со стороны слушателей и критиков, и, наконец, в 1996 вышел First Band On The Moon (англ. «Первая группа на Луне») с хитом, прогремевшим на весь мир, «Lovefool» (англ. «Любовь−обман»), а включение его в саундтрек к экранизации «Ромео и Джульетты» ещё более закрепило его популярность. Многие считали группу однодневкой, но эти предположения были развеяны международным успехом песен «My Favourite Game» (англ. «Моя любимая игра») и «Erase/Rewind» (англ. «Стереть/Перемотать назад») из альбома Gran Turismo (1998), наиболее близкого к поп-музыке, а также последовавшего за ним Long Gone Before Daylight (англ. «Ушёл задолго до рассвета») (2003).
Петер Свенссон и Магнус Свенингссон, игравшие доселе в коллективах хэви-метал, создали группу в октябре 1992 года, к ним присоединились остальные участники. Живя вместе в небольшой квартирке, они записали демо, попавшую в руки продюсера Тора Йоханссона, который пригласил их на студию в Мальме. В 1994 в Швеции и Японии вышел их дебютный альбом Emmerdale (переиздание альбома сделано в 1997). Песня «Rise & Shine» (англ. «Поднимайся и сияй») попала на радио, а альбом был признан лучшим альбомом 1994 года по итогам голосования, проводившегося журналом «Slitz» (по содержанию аналогичен более известному FHM).

Остаток 1994 группа провела в туре по Европе, также велась работа над альбомом Life, выпущенным в свет в 1995. Этот альбом принёс им международную славу и стал платиновым в Японии (продано более миллиона копий). В 1996 он издан лейблом Minty Fresh в США, но содержание этой версии немного отличалось: в него были помещены лучшие песни из двух первых альбомов. Альбом Life показал движение группы в сторону авангарда, особенно в плане аранжировок и полиграфии.

После успеха альбома Life The Cardigans подписывают контракт с Mercury Records, по которому в 1996 выпускают альбом First Band On The Moon. Музыка группы становится более сложной и загадочной, в текстах появляются меланхоличные темы. Песня «Lovefool» становится мировым хитом, особенно в США и Японии, где альбом становится платиновым всего за 3 недели. Многие критики причисляли группу к сладкому софт-попу благодаря «Lovefool», которая, хоть и помогла стать альбому золотым в Америке, однако сильно отличалась от всего альбома.

Gran Turismo, вышедший в 1998, имел ещё более грустное настроение. В видеоклипе к хиту «My Favourite Game» Нина в результате неосторожного вождения в конце разбивалась, в первоначальной версии даже была показана её оторвавшаяся голова, которая была заменена куклой для показа на музыкальных каналах.

Далее последовало долгое молчание коллектива, во время которого его члены занялись сольными проектами. В том же году была выпущена компиляция редких, менее популярных (англ. B-sides) композиций The Other Side of the Moon, причём только на территории Японии.

Во время перерыва Нина Перссон выпустила альбом в рамках собственного проекта A Camp, песни в котором имели такое же грустное содержание, но на фоне более ритмичной музыки. The Cardigans перепели песню Talking Heads «Burning Down the House» в дуэте с Томом Джонсом, вошедшую в его альбом «Reload»; Петер Свенссон работал над проектом Paus вместе с Джокимом Бергом (англ. Joakim Berg) из KentKent, а Магнус Свенингссон записывался под псевдонимом Righteous Boy.

The Cardigans вернулись на сцену в 2003 с альбомом Long Gone Before Daylight, в целом более спокойным, почти полностью основанном на лирике Нины и Петера. Long Gone Before Daylight стал одним из самых продаваемых альбомов Швеции в 2003 с продажами более 120 000 экземпляров (дважды платиновый). В октябре 2005 коллектив выпустил свой шестой альбом Super Extra Gravity, ориентированный прежде всего, по всей видимости, не на ту публику, которой понравился «My Favourite Game»: от поп-музыки они начали двигаться ещё с предыдущего альбома, таким образом приобретая новое поколение фанатов. Super Extra Gravity дошёл до первого места в шведском хит-параде и на данный момент имеет более 40 тысяч проданных копий.
Текущий состав:
  • Nina Persson - вокал
  • Peter Svensson - гитара
  • Magnus Sveningsson - бас-гитара
  • Bengt Lagerberg - ударные
  • Lars-Olof Johansson - клавишные и гитара


Официальный сайт: www.cardigans.com

info [Профиль]  [ЛС] 

fanta76

Пол: Пол:Муж

Стаж: 10 лет

Сообщений: 6

Россия
Рейтинг

post 20-Апр-2010 13:45 (спустя 2 дня 22 часа) [-]0[+]

[Цитировать] 

Классная группа!!! Скачаем, послушаем. А после 2005 года больше нет альбомов?
info [Профиль]  [ЛС] 

FantasticMrFox

Пол: Пол:Муж

Стаж: 11 лет

Сообщений: 710

Россия
Рейтинг

post 20-Апр-2010 19:01 (спустя 5 часов) [-]0[+]

[Цитировать] 

fanta76 писал(а):

А после 2005 года больше нет альбомов?
Нету, к сожалению. У вокалистки есть пара сольных альбомов, в принципе музыка практически одинакова. Если интересует - выложим.
info [Профиль]  [ЛС] 

Shamik

Пол: Пол:Муж

Стаж: 11 лет

Сообщений: 486

Кокосовые острова
Рейтинг

post 20-Апр-2010 19:17 (спустя 15 минут) [-]0[+]

[Цитировать] 

FantasticMrFox
Пасиб за дискографию! kolob_117

_________________
info [Профиль]  [ЛС] 

FantasticMrFox

Пол: Пол:Муж

Стаж: 11 лет

Сообщений: 710

Россия
Рейтинг

post 20-Апр-2010 19:20 (спустя 3 минуты) [-]0[+]

[Цитировать] 

Shamik
Всегда пожалуйста kolob_164
info [Профиль]  [ЛС] 

Helcuran

Пол: Пол:Муж

Стаж: 10 лет

Сообщений: 25

Рейтинг

post 23-Апр-2010 20:21 (спустя 3 дня) [-]0[+]

[Цитировать] 

FantasticMrFox писал(а):

Если интересует - выложим.
Выкладывайте.
info [Профиль]  [ЛС] 

FantasticMrFox

Пол: Пол:Муж

Стаж: 11 лет

Сообщений: 710

Россия
Рейтинг

post 03-Май-2010 10:24 (спустя 9 дней) [-]0[+]

[Цитировать] 

Helcuran писал(а):

FantasticMrFox писал(а):

Если интересует - выложим.
Выкладывайте.
http://tapochek.net/viewtopic.php?t=36450 - прошу прощения за задержку, все как то руки не доходили.
info [Профиль]  [ЛС] 

migryx

Пол: Пол:Муж

Стаж: 10 лет

Сообщений: 20

Украина
Рейтинг

post 15-Фев-2012 19:39 (спустя 1 год 9 месяцев) [-]0[+]

[Цитировать] 

Сидеры появились , но закачка у меня до сих пор не началась .
Не подскажите почему????????????????????????????????

_________________
AMD Phenom II X4 965 3.4GHz
AMD Radeon R7 200 Series
G.Skill DDR III 1600 Mhz 4096 Mb x 4шт Sniper LV series
Gigabyte GA-870A-USB3
Windows 10 64bit
info [Профиль]  [ЛС] 

migryx

Пол: Пол:Муж

Стаж: 10 лет

Сообщений: 20

Украина
Рейтинг

post 17-Фев-2012 02:13 (спустя 1 день 6 часов) [-]0[+]

[Цитировать] 

ну дайте ПОЖАЛУЙСТА скорости!!!!!!!!!!!!!!!!!!!!!!!!!!!!!!!!!!!!!!!!!!!!!

_________________
AMD Phenom II X4 965 3.4GHz
AMD Radeon R7 200 Series
G.Skill DDR III 1600 Mhz 4096 Mb x 4шт Sniper LV series
Gigabyte GA-870A-USB3
Windows 10 64bit
info [Профиль]  [ЛС] 

vlad1k20

Стаж: 8 лет 4 месяца

Сообщений: 14

Предупреждений: 1

Россия
Рейтинг

post 20-Фев-2012 23:59 (спустя 3 дня) [-]0[+]

[Цитировать] 

Спасибо,качаю послушаю отпишусь как да чё))

добавлено спустя 8 минут 37 секунд:

Скорости то вообще нету, печаль.
info [Профиль]  [ЛС] 

llllFZllll

Пол: Пол:Муж

Стаж: 9 лет 7 месяцев

Сообщений: 2

Рейтинг

post 28-Апр-2012 22:23 (спустя 2 месяца 7 дней) [-]0[+]

[Цитировать] 

Цитата:

Второй альбом Life (англ. «Жизнь») (1995) с синглом «Carnival»
а где этот альбом?
info [Профиль]  [ЛС] 

PILGRIMUS1963

Пол: Пол:Муж

Стаж: 8 лет 6 месяцев

Сообщений: 28

Россия
Рейтинг

post 25-Мар-2018 17:02 (спустя 5 лет 10 месяцев) [-]0[+]

[Цитировать] 

Спасибо!
Скачали: - не уходите позвольте и другим узнать и послушать.
kolob_137
info [Профиль]  [ЛС] 

warlocker

Пол: Пол:Муж

Стаж: 10 лет

Сообщений: 85

Россия
Рейтинг

post 05-Июн-2020 17:47 (спустя 2 года 2 месяца) [-]0[+]

[Цитировать] 

Ушла в коллекцию kolob_117 , поддержу раздачу!
info [Профиль]  [ЛС] 
Показать сообщения:    
Ответить на тему

Текущее время: 08-Июл 05:26

Часовой пояс: GMT + 4



Вы не можете начинать темы
Вы не можете отвечать на сообщения
Вы не можете редактировать свои сообщения
Вы не можете удалять свои сообщения
Вы не можете голосовать в опросах
Вы не можете прикреплять файлы к сообщениям
Вы не можете скачивать файлы