Ошибка

(Trance) Orjan Nilsen - In My Opinion - 2011, FLAC (image+.cue), lossless

Ответить на тему
 
Автор Сообщение

xPh0enixx

Пол: Пол:Муж

Стаж: 11 лет

Сообщений: 1696

США
Рейтинг

post 09-Май-2012 18:16 1[+]

[Цитировать] 

Orjan Nilsen - In My Opinion


pic="http://s017.radikal.ru/i403/1205/1e/2d031b06c4ee.jpg"


Жанр: Trance
Год издания данного носителя: 2011
Страна-производитель носителя: Holland
Лейбл: Armada Music
Каталоговый номер: ARMA301
Аудио кодек: FLAC
Тип рипа: image+.cue
Битрейт аудио: lossless
Продолжительность: 01:17:00
Полиграфия: Отсутствует
Треклист:
  • 01. The Thunder (feat. Kate Louise Smith)
  • 02. Dominatrix
  • 03. Mjuzik
  • 04. Redemption (feat. Arielle Maren)
  • 05. So Long Radio
  • 06. Le Tour de Trance
  • 07. But Here (feat. Neev Kennedy)
  • 08. La Guitarra
  • 09. My Opinion
  • 10. Between The Rays
  • 11. The Mule
  • 12. Go Fast!
  • 13. Down The Line
  • 14. While I Wait
  • 15. Nocturnal
Exact Audio Copy V1.0 beta 1 from 15. November 2010 

EAC extraction logfile from 6. June 2011, 12:55

Orjan Nilsen / In My Opinion

Used drive : TSSTcorpCDDVDW SH-S223C Adapter: 2 ID: 1

Read mode : Secure
Utilize accurate stream : Yes
Defeat audio cache : Yes
Make use of C2 pointers : No

Read offset correction : 697
Overread into Lead-In and Lead-Out : No
Fill up missing offset samples with silence : Yes
Delete leading and trailing silent blocks : No
Null samples used in CRC calculations : Yes
Used interface : Native Win32 interface for Win NT & 2000
Gap handling : Appended to previous track

Used output format : User Defined Encoder
Selected bitrate : 320 kBit/s
Quality : High
Add ID3 tag : No
Command line compressor : C:Program Files (x86)Exact Audio CopyFlacflac.exe
Additional command line options : -V -8 -T "artist=%a" -T "title=%t" -T "album=%g" -T "date=%y" -T "tracknumber=%n" -T "genre=%m" %s

TOC of the extracted CD

Track | Start | Length | Start sector | End sector
---------------------------------------------------------
1 | 0:00.00 | 7:16.37 | 0 | 32736
2 | 7:16.37 | 5:38.66 | 32737 | 58152
3 | 12:55.28 | 5:07.16 | 58153 | 81193
4 | 18:02.44 | 6:20.33 | 81194 | 109726
5 | 24:23.02 | 3:53.53 | 109727 | 127254
6 | 28:16.55 | 5:35.21 | 127255 | 152400
7 | 33:52.01 | 5:23.04 | 152401 | 176629
8 | 39:15.05 | 3:48.21 | 176630 | 193750
9 | 43:03.26 | 5:04.71 | 193751 | 216621
10 | 48:08.22 | 3:56.47 | 216622 | 234368
11 | 52:04.69 | 2:43.52 | 234369 | 246645
12 | 54:48.46 | 6:52.24 | 246646 | 277569
13 | 61:40.70 | 5:29.07 | 277570 | 302251
14 | 67:10.02 | 5:26.58 | 302252 | 326759
15 | 72:36.60 | 4:24.12 | 326760 | 346571

Track 1

Filename D:Orjan Nilsen - In My Opinion [flac]�1. Orjan Nilsen - The Thunder (feat. Kate Louise Smith).wav

Pre-gap length 0:00:02.00

Peak level 96.4 %
Extraction speed 2.2 X
Track quality 100.0 %
Test CRC E76ADC19
Copy CRC E76ADC19
Track not present in AccurateRip database
Copy OK

Track 2

Filename D:Orjan Nilsen - In My Opinion [flac]�2. Orjan Nilsen - Dominatrix.wav

Peak level 96.4 %
Extraction speed 2.5 X
Track quality 100.0 %
Test CRC 60E16F91
Copy CRC 60E16F91
Track not present in AccurateRip database
Copy OK

Track 3

Filename D:Orjan Nilsen - In My Opinion [flac]�3. Orjan Nilsen - Mjuzik.wav

Peak level 96.4 %
Extraction speed 2.6 X
Track quality 100.0 %
Test CRC 46AB7444
Copy CRC 46AB7444
Track not present in AccurateRip database
Copy OK

Track 4

Filename D:Orjan Nilsen - In My Opinion [flac]�4. Orjan Nilsen - Redemption (feat. Arielle Maren).wav

Peak level 96.4 %
Extraction speed 2.9 X
Track quality 100.0 %
Test CRC 0DEDFAA1
Copy CRC 0DEDFAA1
Track not present in AccurateRip database
Copy OK

Track 5

Filename D:Orjan Nilsen - In My Opinion [flac]�5. Orjan Nilsen - So Long Radio.wav

Peak level 96.4 %
Extraction speed 2.9 X
Track quality 100.0 %
Test CRC 5E09DB3B
Copy CRC 5E09DB3B
Track not present in AccurateRip database
Copy OK

Track 6

Filename D:Orjan Nilsen - In My Opinion [flac]�6. Orjan Nilsen - Le Tour De Trance.wav

Peak level 96.4 %
Extraction speed 3.2 X
Track quality 100.0 %
Test CRC 93386586
Copy CRC 93386586
Track not present in AccurateRip database
Copy OK

Track 7

Filename D:Orjan Nilsen - In My Opinion [flac]�7. Orjan Nilsen - Anywhere But Here (feat. Neev Kennedy).wav

Peak level 96.4 %
Extraction speed 3.4 X
Track quality 100.0 %
Test CRC 2720A662
Copy CRC 2720A662
Track not present in AccurateRip database
Copy OK

Track 8

Filename D:Orjan Nilsen - In My Opinion [flac]�8. Orjan Nilsen - La Guitarra.wav

Peak level 96.4 %
Extraction speed 3.3 X
Track quality 100.0 %
Test CRC C53843AB
Copy CRC C53843AB
Track not present in AccurateRip database
Copy OK

Track 9

Filename D:Orjan Nilsen - In My Opinion [flac]�9. Orjan Nilsen - In My Opinion.wav

Peak level 96.4 %
Extraction speed 3.6 X
Track quality 100.0 %
Test CRC 47A456DD
Copy CRC 47A456DD
Track not present in AccurateRip database
Copy OK

Track 10

Filename D:Orjan Nilsen - In My Opinion [flac]10. Orjan Nilsen - Between The Rays.wav

Peak level 96.4 %
Extraction speed 3.6 X
Track quality 100.0 %
Test CRC 810733CF
Copy CRC 810733CF
Track not present in AccurateRip database
Copy OK

Track 11

Filename D:Orjan Nilsen - In My Opinion [flac]11. Orjan Nilsen - The Mule.wav

Peak level 96.4 %
Extraction speed 2.2 X
Track quality 99.9 %
Test CRC 3FC4C0D0
Copy CRC 3FC4C0D0
Track not present in AccurateRip database
Copy OK

Track 12

Filename D:Orjan Nilsen - In My Opinion [flac]12. Orjan Nilsen - Go Fast!.wav

Peak level 96.4 %
Extraction speed 4.0 X
Track quality 100.0 %
Test CRC E10F508E
Copy CRC E10F508E
Track not present in AccurateRip database
Copy OK

Track 13

Filename D:Orjan Nilsen - In My Opinion [flac]13. Orjan Nilsen - Down The Line.wav

Peak level 96.4 %
Extraction speed 4.1 X
Track quality 100.0 %
Test CRC B02CA87C
Copy CRC B02CA87C
Track not present in AccurateRip database
Copy OK

Track 14

Filename D:Orjan Nilsen - In My Opinion [flac]14. Orjan Nilsen - While I Wait.wav

Peak level 96.4 %
Extraction speed 3.2 X
Track quality 99.9 %
Test CRC D8C40F8D
Copy CRC D8C40F8D
Track not present in AccurateRip database
Copy OK

Track 15

Filename D:Orjan Nilsen - In My Opinion [flac]15. Orjan Nilsen - Nocturnal.wav

Peak level 96.4 %
Extraction speed 4.2 X
Track quality 100.0 %
Test CRC 3DEDB35D
Copy CRC 3DEDB35D
Track not present in AccurateRip database
Copy OK

None of the tracks are present in the AccurateRip database

No errors occurred

End of status report

==== Log checksum D1AD28B97368F5F591802337CC6C92D1B6FED3113D26920DC63CD35683E9531E ====
REM GENRE Trance 
REM DATE 2011
REM DISCID DF120C0F
REM COMMENT "ExactAudioCopy v1.0b1"
PERFORMER "Orjan Nilsen"
TITLE "In My Opinion"
FILE "01. Orjan Nilsen - The Thunder (feat. Kate Louise Smith).wav" WAVE
TRACK 01 AUDIO
TITLE "The Thunder (feat. Kate Louise Smith)"
PERFORMER "Orjan Nilsen"
INDEX 01 00:00:00
FILE "02. Orjan Nilsen - Dominatrix.wav" WAVE
TRACK 02 AUDIO
TITLE "Dominatrix"
PERFORMER "Orjan Nilsen"
INDEX 01 00:00:00
FILE "03. Orjan Nilsen - Mjuzik.wav" WAVE
TRACK 03 AUDIO
TITLE "Mjuzik"
PERFORMER "Orjan Nilsen"
INDEX 01 00:00:00
FILE "04. Orjan Nilsen - Redemption (feat. Arielle Maren).wav" WAVE
TRACK 04 AUDIO
TITLE "Redemption (feat. Arielle Maren)"
PERFORMER "Orjan Nilsen"
INDEX 01 00:00:00
FILE "05. Orjan Nilsen - So Long Radio.wav" WAVE
TRACK 05 AUDIO
TITLE "So Long Radio"
PERFORMER "Orjan Nilsen"
INDEX 01 00:00:00
FILE "06. Orjan Nilsen - Le Tour De Trance.wav" WAVE
TRACK 06 AUDIO
TITLE "Le Tour De Trance"
PERFORMER "Orjan Nilsen"
INDEX 01 00:00:00
FILE "07. Orjan Nilsen - Anywhere But Here (feat. Neev Kennedy).wav" WAVE
TRACK 07 AUDIO
TITLE "Anywhere But Here (feat. Neev Kennedy)"
PERFORMER "Orjan Nilsen"
INDEX 01 00:00:00
FILE "08. Orjan Nilsen - La Guitarra.wav" WAVE
TRACK 08 AUDIO
TITLE "La Guitarra"
PERFORMER "Orjan Nilsen"
INDEX 01 00:00:00
FILE "09. Orjan Nilsen - In My Opinion.wav" WAVE
TRACK 09 AUDIO
TITLE "In My Opinion"
PERFORMER "Orjan Nilsen"
INDEX 01 00:00:00
FILE "10. Orjan Nilsen - Between The Rays.wav" WAVE
TRACK 10 AUDIO
TITLE "Between The Rays"
PERFORMER "Orjan Nilsen"
INDEX 01 00:00:00
FILE "11. Orjan Nilsen - The Mule.wav" WAVE
TRACK 11 AUDIO
TITLE "The Mule"
PERFORMER "Orjan Nilsen"
INDEX 01 00:00:00
FILE "12. Orjan Nilsen - Go Fast!.wav" WAVE
TRACK 12 AUDIO
TITLE "Go Fast!"
PERFORMER "Orjan Nilsen"
INDEX 01 00:00:00
FILE "13. Orjan Nilsen - Down The Line.wav" WAVE
TRACK 13 AUDIO
TITLE "Down The Line"
PERFORMER "Orjan Nilsen"
INDEX 01 00:00:00
FILE "14. Orjan Nilsen - While I Wait.wav" WAVE
TRACK 14 AUDIO
TITLE "While I Wait"
PERFORMER "Orjan Nilsen"
INDEX 01 00:00:00
FILE "15. Orjan Nilsen - Nocturnal.wav" WAVE
TRACK 15 AUDIO
TITLE "Nocturnal"
PERFORMER "Orjan Nilsen"
INDEX 01 00:00:00
info [Профиль]  [ЛС] 

imBu

Пол: Пол:Муж

Стаж: 10 лет

Сообщений: 33

Россия
Рейтинг

post 11-Фев-2018 18:48 (спустя 5 лет 9 месяцев) [-]1[+]

[Цитировать] 

Between The Rays одна из любимых транс композиций за все время ...
info [Профиль]  [ЛС] 
Показать сообщения:    
Ответить на тему

Текущее время: 23-Май 00:36

Часовой пояс: GMT + 4



Вы не можете начинать темы
Вы не можете отвечать на сообщения
Вы не можете редактировать свои сообщения
Вы не можете удалять свои сообщения
Вы не можете голосовать в опросах
Вы не можете прикреплять файлы к сообщениям
Вы не можете скачивать файлы